<?xml version="1.0" standalone="no"?><!DOCTYPE svg PUBLIC "-//W3C//DTD SVG 1.1//EN" "http://www.w3.org/Graphics/SVG/1.1/DTD/svg11.dtd" ><svg version="1.1" xmlns="http://www.w3.org/2000/svg"><defs><font horiz-adv-x="0" id="font"><font-face ascent="750" bbox="-304 -226 1382 969" cap-height="780" descent="-250" font-family="Cooper Hewitt" font-stretch="normal" font-style="normal" font-weight="600" units-per-em="1000" x-height="530" /><missing-glyph d="M801 115V665L526 390ZM161 665V115L436 390ZM481 435 760 714H202ZM202 66H760L481 345ZM91 780H871V0H91Z" horiz-adv-x="962" /><glyph d="M248 308H376L351 601ZM485 782 578 0H404L389 168H199L139 0H-35L262 782Z" glyph-name="A" horiz-adv-x="641" unicode="A" /><glyph d="M272 308H394L400 596ZM898 780 880 640H556L557 468H807L789 328H558L559 140H814L796 0H388L391 168H209L133 0H-41L333 780Z" glyph-name="AE" horiz-adv-x="885" unicode="&#198;" /><glyph d="M248 308H376L351 601ZM485 782 578 0H404L389 168H199L139 0H-35L262 782ZM538 950 459 840H303L373 950Z" glyph-name="Aacute" horiz-adv-x="641" unicode="&#193;" /><glyph d="M248 308H376L351 601ZM485 782 578 0H404L389 168H199L139 0H-35L262 782ZM384 825Q330 825 295.5 835Q261 845 241.5 862Q222 879 216 901.5Q210 924 213 950H320Q319 930 335.5 920Q352 910 388 910Q424 910 445.5 920Q467 930 468 950H579Q576 924 565.5 901.5Q555 879 533 862Q511 845 475 835Q439 825 384 825Z" glyph-name="Abreve" horiz-adv-x="641" unicode="&#258;" /><glyph d="M248 308H376L351 601ZM485 782 578 0H404L389 168H199L139 0H-35L262 782ZM446 840 389 890 322 840H177L316 950H476L585 840Z" glyph-name="Acircumflex" horiz-adv-x="641" unicode="&#194;" /><glyph d="M248 308H376L351 601ZM485 782 578 0H404L389 168H199L139 0H-35L262 782ZM536 845H403L416 945H549ZM361 845H228L241 945H374Z" glyph-name="Adieresis" horiz-adv-x="641" unicode="&#196;" /><glyph d="M248 308H376L351 601ZM485 782 578 0H404L389 168H199L139 0H-35L262 782ZM419 950 459 840H303L254 950Z" glyph-name="Agrave" horiz-adv-x="641" unicode="&#192;" /><glyph d="M248 308H376L351 601ZM485 782 578 0H404L389 168H199L139 0H-35L262 782ZM246 943H544L531 847H233Z" glyph-name="Amacron" horiz-adv-x="641" unicode="&#256;" /><glyph d="M485 782 578 0H404L351 601L139 0H-35L262 782Z" glyph-name="Anocross" horiz-adv-x="641" unicode="&#59185;" /><glyph d="M248 308H376L351 601ZM485 782 578 0Q566 -4 553 -10.5Q540 -17 529.5 -26.5Q519 -36 512.5 -48Q506 -60 506 -75Q506 -105 545 -105Q559 -105 570 -101.5Q581 -98 588 -94L611 -190Q594 -200 566 -207.5Q538 -215 510 -215Q450 -215 416.5 -192Q383 -169 383 -120Q383 -84 398.5 -53.5Q414 -23 440 0H404L389 168H199L139 0H-35L262 782Z" glyph-name="Aogonek" horiz-adv-x="641" unicode="&#260;" /><glyph d="M434 863Q434 883 421 896Q408 909 388 909Q364 909 347.5 893.5Q331 878 331 853Q331 833 344 820Q357 807 377 807Q401 807 417.5 822.5Q434 838 434 863ZM248 308H376L351 601ZM301 782Q276 807 276 846Q276 871 285.5 892.5Q295 914 310.5 929.5Q326 945 347.5 954Q369 963 393 963Q435 963 462 936.5Q489 910 489 870Q489 843 478 820.5Q467 798 449 782H485L578 0H404L389 168H199L139 0H-35L262 782Z" glyph-name="Aring" horiz-adv-x="641" unicode="&#197;" /><glyph d="M248 308H376L351 601ZM485 782 578 0H404L389 168H199L139 0H-35L262 782ZM580 947Q573 881 540 854.5Q507 828 466 828Q442 828 421 835.5Q400 843 382 852Q364 861 348 868.5Q332 876 318 876Q304 876 293.5 869Q283 862 281 843H196Q203 909 236 935.5Q269 962 310 962Q334 962 355 954.5Q376 947 394 938Q412 929 428 921.5Q444 914 458 914Q472 914 482.5 921Q493 928 495 947Z" glyph-name="Atilde" horiz-adv-x="641" unicode="&#195;" /><glyph d="M253 640 230 469H326Q341 469 356.5 472Q372 475 385.5 483.5Q399 492 409 507Q419 522 422 546L424 561Q427 584 421.5 599Q416 614 405 623Q394 632 379 636Q364 640 348 640ZM211 328 187 140H294Q313 140 330.5 143Q348 146 362 155Q376 164 386 180Q396 196 399 223L401 238Q404 263 399.5 280.5Q395 298 384 308.5Q373 319 357 323.5Q341 328 322 328ZM367 780Q413 780 456.5 771.5Q500 763 532 739Q564 715 580.5 673Q597 631 588 565L585 542Q577 483 553.5 451Q530 419 485 403Q532 387 552 344.5Q572 302 564 237L561 214Q552 142 524 100Q496 58 456.5 35.5Q417 13 369 6.5Q321 0 272 0H7L109 780Z" glyph-name="B" horiz-adv-x="631" unicode="B" /><glyph d="M253 640 230 469H326Q341 469 356.5 472Q372 475 385.5 483.5Q399 492 409 507Q419 522 422 546L424 561Q427 584 421.5 599Q416 614 405 623Q394 632 379 636Q364 640 348 640ZM211 328 187 140H294Q313 140 330.5 143Q348 146 362 155Q376 164 386 180Q396 196 399 223L401 238Q404 263 399.5 280.5Q395 298 384 308.5Q373 319 357 323.5Q341 328 322 328ZM367 780Q413 780 456.5 771.5Q500 763 532 739Q564 715 580.5 673Q597 631 588 565L585 542Q577 483 553.5 451Q530 419 485 403Q532 387 552 344.5Q572 302 564 237L561 214Q552 142 524 100Q496 58 456.5 35.5Q417 13 369 6.5Q321 0 272 0H7L109 780ZM426 845H293L306 945H439Z" glyph-name="Bdotaccent" horiz-adv-x="631" unicode="&#7682;" /><glyph d="M203 374Q196 315 196.5 269Q197 223 207.5 191.5Q218 160 239 143.5Q260 127 294 127H304Q341 127 364.5 136.5Q388 146 402 163.5Q416 181 422.5 207Q429 233 434 266H597L595 251Q585 179 561 129Q537 79 499.5 47.5Q462 16 410.5 1.5Q359 -13 295 -13Q223 -13 169 9Q115 31 81.5 78.5Q48 126 36.5 199Q25 272 38 374L42 406Q55 508 80.5 581Q106 654 146.5 701Q187 748 243 770.5Q299 793 371 793Q524 793 585.5 724.5Q647 656 630 516L626 484H463Q468 526 466.5 557.5Q465 589 455 610.5Q445 632 424.5 642.5Q404 653 372 653H362Q295 653 258 589Q221 525 207 407Z" glyph-name="C" horiz-adv-x="650" unicode="C" /><glyph d="M203 374Q196 315 196.5 269Q197 223 207.5 191.5Q218 160 239 143.5Q260 127 294 127H304Q341 127 364.5 136.5Q388 146 402 163.5Q416 181 422.5 207Q429 233 434 266H597L595 251Q585 179 561 129Q537 79 499.5 47.5Q462 16 410.5 1.5Q359 -13 295 -13Q223 -13 169 9Q115 31 81.5 78.5Q48 126 36.5 199Q25 272 38 374L42 406Q55 508 80.5 581Q106 654 146.5 701Q187 748 243 770.5Q299 793 371 793Q524 793 585.5 724.5Q647 656 630 516L626 484H463Q468 526 466.5 557.5Q465 589 455 610.5Q445 632 424.5 642.5Q404 653 372 653H362Q295 653 258 589Q221 525 207 407ZM550 950 471 840H315L385 950Z" glyph-name="Cacute" horiz-adv-x="650" unicode="&#262;" /><glyph d="M203 374Q196 315 196.5 269Q197 223 207.5 191.5Q218 160 239 143.5Q260 127 294 127H304Q341 127 364.5 136.5Q388 146 402 163.5Q416 181 422.5 207Q429 233 434 266H597L595 251Q585 179 561 129Q537 79 499.5 47.5Q462 16 410.5 1.5Q359 -13 295 -13Q223 -13 169 9Q115 31 81.5 78.5Q48 126 36.5 199Q25 272 38 374L42 406Q55 508 80.5 581Q106 654 146.5 701Q187 748 243 770.5Q299 793 371 793Q524 793 585.5 724.5Q647 656 630 516L626 484H463Q468 526 466.5 557.5Q465 589 455 610.5Q445 632 424.5 642.5Q404 653 372 653H362Q295 653 258 589Q221 525 207 407ZM343 950 400 900 467 950H612L473 840H313L204 950Z" glyph-name="Ccaron" horiz-adv-x="650" unicode="&#268;" /><glyph d="M203 374Q196 315 196.5 269Q197 223 207.5 191.5Q218 160 239 143.5Q260 127 294 127H304Q341 127 364.5 136.5Q388 146 402 163.5Q416 181 422.5 207Q429 233 434 266H597L595 251Q586 183 564 134.5Q542 86 507.5 54.5Q473 23 426.5 7Q380 -9 322 -12L308 -40Q347 -43 372.5 -60.5Q398 -78 398 -118Q398 -163 363.5 -189Q329 -215 272 -215Q230 -215 202.5 -207Q175 -199 161 -190L193 -124Q204 -132 224 -136.5Q244 -141 267 -141Q313 -141 313 -116Q313 -95 268 -95Q261 -95 254 -96Q247 -97 242 -98Q235 -99 229 -100L218 -72L251 -11Q189 -5 144 21Q99 47 71 94Q43 141 34.5 210.5Q26 280 38 374L42 406Q55 508 80.5 581Q106 654 146.5 701Q187 748 243 770.5Q299 793 371 793Q524 793 585.5 724.5Q647 656 630 516L626 484H463Q468 526 466.5 557.5Q465 589 455 610.5Q445 632 424.5 642.5Q404 653 372 653H362Q295 653 258 589Q221 525 207 407Z" glyph-name="Ccedilla" horiz-adv-x="650" unicode="&#199;" /><glyph d="M203 374Q196 315 196.5 269Q197 223 207.5 191.5Q218 160 239 143.5Q260 127 294 127H304Q341 127 364.5 136.5Q388 146 402 163.5Q416 181 422.5 207Q429 233 434 266H597L595 251Q585 179 561 129Q537 79 499.5 47.5Q462 16 410.5 1.5Q359 -13 295 -13Q223 -13 169 9Q115 31 81.5 78.5Q48 126 36.5 199Q25 272 38 374L42 406Q55 508 80.5 581Q106 654 146.5 701Q187 748 243 770.5Q299 793 371 793Q524 793 585.5 724.5Q647 656 630 516L626 484H463Q468 526 466.5 557.5Q465 589 455 610.5Q445 632 424.5 642.5Q404 653 372 653H362Q295 653 258 589Q221 525 207 407ZM458 840 401 890 334 840H189L328 950H488L597 840Z" glyph-name="Ccircumflex" horiz-adv-x="650" unicode="&#264;" /><glyph d="M203 374Q196 315 196.5 269Q197 223 207.5 191.5Q218 160 239 143.5Q260 127 294 127H304Q341 127 364.5 136.5Q388 146 402 163.5Q416 181 422.5 207Q429 233 434 266H597L595 251Q585 179 561 129Q537 79 499.5 47.5Q462 16 410.5 1.5Q359 -13 295 -13Q223 -13 169 9Q115 31 81.5 78.5Q48 126 36.5 199Q25 272 38 374L42 406Q55 508 80.5 581Q106 654 146.5 701Q187 748 243 770.5Q299 793 371 793Q524 793 585.5 724.5Q647 656 630 516L626 484H463Q468 526 466.5 557.5Q465 589 455 610.5Q445 632 424.5 642.5Q404 653 372 653H362Q295 653 258 589Q221 525 207 407ZM460 845H327L340 945H473Z" glyph-name="Cdotaccent" horiz-adv-x="650" unicode="&#266;" /><glyph d="M250 140Q301 140 337 153Q373 166 397.5 194.5Q422 223 436.5 267.5Q451 312 459 374L463 406Q470 464 467.5 508Q465 552 450 581Q435 610 405.5 625Q376 640 329 640H253L187 140ZM624 374Q611 269 582 197.5Q553 126 507 82Q461 38 396.5 19Q332 0 248 0H7L109 780H337Q421 780 481.5 760Q542 740 579 696Q616 652 628.5 580.5Q641 509 628 406Z" glyph-name="D" horiz-adv-x="663" unicode="D" /><glyph d="M250 140Q301 140 337 153Q373 166 397.5 194.5Q422 223 436.5 267.5Q451 312 459 374L463 406Q470 464 467.5 508Q465 552 450 581Q435 610 405.5 625Q376 640 329 640H253L187 140ZM624 374Q611 269 582 197.5Q553 126 507 82Q461 38 396.5 19Q332 0 248 0H7L109 780H337Q421 780 481.5 760Q542 740 579 696Q616 652 628.5 580.5Q641 509 628 406ZM324 950 381 900 448 950H593L454 840H294L185 950Z" glyph-name="Dcaron" horiz-adv-x="663" unicode="&#270;" /><glyph d="M310 140Q361 140 397 153Q433 166 457.5 194.5Q482 223 496.5 267.5Q511 312 519 374L523 406Q530 464 527.5 508Q525 552 510 581Q495 610 465.5 625Q436 640 389 640H313L289 459H454L438 338H273L247 140ZM684 374Q671 269 642 197.5Q613 126 567 82Q521 38 456.5 19Q392 0 308 0H67L111 338H7L23 459H127L169 780H397Q481 780 541.5 760Q602 740 639 696Q676 652 688.5 580.5Q701 509 688 406Z" glyph-name="Dcroat" horiz-adv-x="723" unicode="&#272;" /><glyph d="M250 140Q301 140 337 153Q373 166 397.5 194.5Q422 223 436.5 267.5Q451 312 459 374L463 406Q470 464 467.5 508Q465 552 450 581Q435 610 405.5 625Q376 640 329 640H253L187 140ZM624 374Q611 269 582 197.5Q553 126 507 82Q461 38 396.5 19Q332 0 248 0H7L109 780H337Q421 780 481.5 760Q542 740 579 696Q616 652 628.5 580.5Q641 509 628 406ZM441 845H308L321 945H454Z" glyph-name="Ddotaccent" horiz-adv-x="663" unicode="&#7690;" /><glyph d="M586 780 568 640H253L230 468H495L477 328H212L187 140H502L484 0H7L109 780Z" glyph-name="E" horiz-adv-x="573" unicode="E" /><glyph d="M586 780 568 640H253L230 468H495L477 328H212L187 140H502L484 0H7L109 780ZM514 950 435 840H279L349 950Z" glyph-name="Eacute" horiz-adv-x="573" unicode="&#201;" /><glyph d="M586 780 568 640H253L230 468H495L477 328H212L187 140H502L484 0H7L109 780ZM360 825Q306 825 271.5 835Q237 845 217.5 862Q198 879 192 901.5Q186 924 189 950H296Q295 930 311.5 920Q328 910 364 910Q400 910 421.5 920Q443 930 444 950H555Q552 924 541.5 901.5Q531 879 509 862Q487 845 451 835Q415 825 360 825Z" glyph-name="Ebreve" horiz-adv-x="573" unicode="&#276;" /><glyph d="M586 780 568 640H253L230 468H495L477 328H212L187 140H502L484 0H7L109 780ZM307 950 364 900 431 950H576L437 840H277L168 950Z" glyph-name="Ecaron" horiz-adv-x="573" unicode="&#282;" /><glyph d="M586 780 568 640H253L230 468H495L477 328H212L187 140H502L484 0H7L109 780ZM422 840 365 890 298 840H153L292 950H452L561 840Z" glyph-name="Ecircumflex" horiz-adv-x="573" unicode="&#202;" /><glyph d="M586 780 568 640H253L230 468H495L477 328H212L187 140H502L484 0H7L109 780ZM512 845H379L392 945H525ZM337 845H204L217 945H350Z" glyph-name="Edieresis" horiz-adv-x="573" unicode="&#203;" /><glyph d="M586 780 568 640H253L230 468H495L477 328H212L187 140H502L484 0H7L109 780ZM424 845H291L304 945H437Z" glyph-name="Edotaccent" horiz-adv-x="573" unicode="&#278;" /><glyph d="M586 780 568 640H253L230 468H495L477 328H212L187 140H502L484 0H7L109 780ZM395 950 435 840H279L230 950Z" glyph-name="Egrave" horiz-adv-x="573" unicode="&#200;" /><glyph d="M586 780 568 640H253L230 468H495L477 328H212L187 140H502L484 0H7L109 780ZM222 943H520L507 847H209Z" glyph-name="Emacron" horiz-adv-x="573" unicode="&#274;" /><glyph d="M278 780 466 296 483 458 525 780H680L575 -23Q568 -75 549.5 -111Q531 -147 502.5 -169.5Q474 -192 437 -202.5Q400 -213 355 -213Q317 -213 296 -208Q275 -203 268 -200L285 -70Q289 -72 302.5 -74.5Q316 -77 335 -77Q364 -77 386.5 -66Q409 -55 417 -19L221 484L204 322L162 0H7L109 780Z" glyph-name="Eng" horiz-adv-x="683" unicode="&#330;" /><glyph d="M586 780 568 640H253L230 468H495L477 328H212L187 140H502L484 0Q472 -4 459 -10.5Q446 -17 435.5 -26.5Q425 -36 418.5 -48Q412 -60 412 -75Q412 -105 451 -105Q465 -105 476 -101.5Q487 -98 494 -94L517 -190Q500 -200 472 -207.5Q444 -215 416 -215Q356 -215 322.5 -192Q289 -169 289 -120Q289 -84 304.5 -53.5Q320 -23 346 0H7L109 780Z" glyph-name="Eogonek" horiz-adv-x="573" unicode="&#280;" /><glyph d="M462 651Q453 652 442 652.5Q431 653 420 653Q328 653 284.5 622Q241 591 233 528L164 0H2L72 533Q80 597 102 645.5Q124 694 165.5 727Q207 760 270 776.5Q333 793 424 793Q569 793 657 756L645 656L506 464L539 460Q592 454 636 435.5Q680 417 711 387.5Q742 358 756.5 317Q771 276 764 225L761 202Q746 89 677.5 38Q609 -13 498 -13Q357 -13 298.5 49.5Q240 112 257 243L260 266H422Q415 227 418 200Q421 173 432 157Q443 141 460 134Q477 127 497 127H507Q539 127 564 144Q589 161 595 206L597 221Q602 263 578 289.5Q554 316 490 324L300 347L313 444Z" glyph-name="Eszett" horiz-adv-x="805" unicode="&#7838;" /><glyph d="M310 140Q361 140 397 153Q433 166 457.5 194.5Q482 223 496.5 267.5Q511 312 519 374L523 406Q530 464 527.5 508Q525 552 510 581Q495 610 465.5 625Q436 640 389 640H313L289 459H454L438 338H273L247 140ZM684 374Q671 269 642 197.5Q613 126 567 82Q521 38 456.5 19Q392 0 308 0H67L111 338H7L23 459H127L169 780H397Q481 780 541.5 760Q602 740 639 696Q676 652 688.5 580.5Q701 509 688 406Z" glyph-name="Eth" horiz-adv-x="723" unicode="&#208;" /><glyph d="M22 309 41 450H106Q121 540 146.5 605Q172 670 207.5 712Q243 754 288.5 773.5Q334 793 388 793Q505 793 552 729.5Q599 666 582 532L578 500H440Q451 580 439.5 616Q428 652 390 652H381Q339 652 313.5 600Q288 548 272 450H475L387 309H254Q247 221 259.5 174.5Q272 128 312 128H321Q391 128 407 250H545L543 235Q526 108 465.5 47.5Q405 -13 308 -13Q248 -13 203.5 5Q159 23 131 62Q103 101 92.5 162Q82 223 88 309Z" glyph-name="Euro" horiz-adv-x="600" unicode="&#8364;" /><glyph d="M582 780 564 640H253L230 468H491L473 328H212L169 0H7L109 780Z" glyph-name="F" horiz-adv-x="549" unicode="F" /><glyph d="M582 780 564 640H253L230 468H491L473 328H212L169 0H7L109 780ZM424 845H291L304 945H437Z" glyph-name="Fdotaccent" horiz-adv-x="549" unicode="&#7710;" /><glyph d="M314 -13Q242 -13 185 9Q128 31 91 78.5Q54 126 39.5 199Q25 272 38 374L42 406Q55 508 81.5 581Q108 654 149.5 701Q191 748 247.5 770.5Q304 793 376 793Q529 793 593 724.5Q657 656 640 516L636 484H473Q484 569 463 611Q442 653 377 653H367Q300 653 260.5 589Q221 525 207 407L203 374Q189 256 214.5 191.5Q240 127 315 127H325Q362 127 388 134.5Q414 142 431 154L448 282H345L363 422H628L583 77Q565 61 539 45Q513 29 478.5 16Q444 3 403 -5Q362 -13 314 -13Z" glyph-name="G" horiz-adv-x="673" unicode="G" /><glyph d="M314 -13Q242 -13 185 9Q128 31 91 78.5Q54 126 39.5 199Q25 272 38 374L42 406Q55 508 81.5 581Q108 654 149.5 701Q191 748 247.5 770.5Q304 793 376 793Q529 793 593 724.5Q657 656 640 516L636 484H473Q484 569 463 611Q442 653 377 653H367Q300 653 260.5 589Q221 525 207 407L203 374Q189 256 214.5 191.5Q240 127 315 127H325Q362 127 388 134.5Q414 142 431 154L448 282H345L363 422H628L583 77Q565 61 539 45Q513 29 478.5 16Q444 3 403 -5Q362 -13 314 -13ZM401 825Q347 825 312.5 835Q278 845 258.5 862Q239 879 233 901.5Q227 924 230 950H337Q336 930 352.5 920Q369 910 405 910Q441 910 462.5 920Q484 930 485 950H596Q593 924 582.5 901.5Q572 879 550 862Q528 845 492 835Q456 825 401 825Z" glyph-name="Gbreve" horiz-adv-x="673" unicode="&#286;" /><glyph d="M314 -13Q242 -13 185 9Q128 31 91 78.5Q54 126 39.5 199Q25 272 38 374L42 406Q55 508 81.5 581Q108 654 149.5 701Q191 748 247.5 770.5Q304 793 376 793Q529 793 593 724.5Q657 656 640 516L636 484H473Q484 569 463 611Q442 653 377 653H367Q300 653 260.5 589Q221 525 207 407L203 374Q189 256 214.5 191.5Q240 127 315 127H325Q362 127 388 134.5Q414 142 431 154L448 282H345L363 422H628L583 77Q565 61 539 45Q513 29 478.5 16Q444 3 403 -5Q362 -13 314 -13ZM463 840 406 890 339 840H194L333 950H493L602 840Z" glyph-name="Gcircumflex" horiz-adv-x="673" unicode="&#284;" /><glyph d="M314 -13Q242 -13 185 9Q128 31 91 78.5Q54 126 39.5 199Q25 272 38 374L42 406Q55 508 81.5 581Q108 654 149.5 701Q191 748 247.5 770.5Q304 793 376 793Q529 793 593 724.5Q657 656 640 516L636 484H473Q484 569 463 611Q442 653 377 653H367Q300 653 260.5 589Q221 525 207 407L203 374Q189 256 214.5 191.5Q240 127 315 127H325Q362 127 388 134.5Q414 142 431 154L448 282H345L363 422H628L583 77Q565 61 539 45Q513 29 478.5 16Q444 3 403 -5Q362 -13 314 -13ZM355 -101Q345 -171 306 -198.5Q267 -226 192 -226L199 -171Q227 -171 253.5 -164.5Q280 -158 288 -136H209L221 -44H363Z" glyph-name="Gcommaaccent" horiz-adv-x="673" unicode="&#290;" /><glyph d="M314 -13Q242 -13 185 9Q128 31 91 78.5Q54 126 39.5 199Q25 272 38 374L42 406Q55 508 81.5 581Q108 654 149.5 701Q191 748 247.5 770.5Q304 793 376 793Q529 793 593 724.5Q657 656 640 516L636 484H473Q484 569 463 611Q442 653 377 653H367Q300 653 260.5 589Q221 525 207 407L203 374Q189 256 214.5 191.5Q240 127 315 127H325Q362 127 388 134.5Q414 142 431 154L448 282H345L363 422H628L583 77Q565 61 539 45Q513 29 478.5 16Q444 3 403 -5Q362 -13 314 -13ZM465 845H332L345 945H478Z" glyph-name="Gdotaccent" horiz-adv-x="673" unicode="&#288;" /><glyph d="M660 780 558 0H396L439 328H212L169 0H7L109 780H271L230 468H457L498 780Z" glyph-name="H" horiz-adv-x="663" unicode="H" /><glyph d="M230 468H457L469 564H242ZM660 780 558 0H396L439 328H212L169 0H7L109 780H271L258 685H485L498 780Z" glyph-name="Hbar" horiz-adv-x="663" unicode="&#294;" /><glyph d="M660 780 558 0H396L439 328H212L169 0H7L109 780H271L230 468H457L498 780ZM457 840 400 890 333 840H188L327 950H487L596 840Z" glyph-name="Hcircumflex" horiz-adv-x="663" unicode="&#292;" /><glyph d="M174 0H12L114 780H276Z" glyph-name="I" horiz-adv-x="283" unicode="I" /><glyph d="M448 780H610L532 181Q525 128 506.5 91Q488 54 458.5 31Q429 8 391 -2.5Q353 -13 307 -13Q271 -13 248 -8Q225 -3 217 0L235 136Q239 134 253 130.5Q267 127 286 127Q319 127 342.5 140.5Q366 154 372 199ZM174 0H12L114 780H276Z" glyph-name="IJ" horiz-adv-x="608" unicode="&#306;" /><glyph d="M174 0H12L114 780H276ZM360 950 281 840H125L195 950Z" glyph-name="Iacute" horiz-adv-x="283" unicode="&#205;" /><glyph d="M174 0H12L114 780H276ZM206 825Q152 825 117.5 835Q83 845 63.5 862Q44 879 38 901.5Q32 924 35 950H142Q141 930 157.5 920Q174 910 210 910Q246 910 267.5 920Q289 930 290 950H401Q398 924 387.5 901.5Q377 879 355 862Q333 845 297 835Q261 825 206 825Z" glyph-name="Ibreve" horiz-adv-x="283" unicode="&#300;" /><glyph d="M174 0H12L114 780H276ZM268 840 211 890 144 840H-1L138 950H298L407 840Z" glyph-name="Icircumflex" horiz-adv-x="283" unicode="&#206;" /><glyph d="M174 0H12L114 780H276ZM358 845H225L238 945H371ZM183 845H50L63 945H196Z" glyph-name="Idieresis" horiz-adv-x="283" unicode="&#207;" /><glyph d="M174 0H12L114 780H276ZM270 845H137L150 945H283Z" glyph-name="Idotaccent" horiz-adv-x="283" unicode="&#304;" /><glyph d="M174 0H12L114 780H276ZM241 950 281 840H125L76 950Z" glyph-name="Igrave" horiz-adv-x="283" unicode="&#204;" /><glyph d="M174 0H12L114 780H276ZM68 943H366L353 847H55Z" glyph-name="Imacron" horiz-adv-x="283" unicode="&#298;" /><glyph d="M174 0Q162 -4 149 -10.5Q136 -17 125.5 -26.5Q115 -36 108.5 -48Q102 -60 102 -75Q102 -105 141 -105Q155 -105 166 -101.5Q177 -98 184 -94L207 -190Q190 -200 162 -207.5Q134 -215 106 -215Q46 -215 12.5 -192Q-21 -169 -21 -120Q-21 -95 -13.5 -73Q-6 -51 8 -31L114 780H276Z" glyph-name="Iogonek" horiz-adv-x="283" unicode="&#302;" /><glyph d="M174 0H12L114 780H276ZM402 947Q395 881 362 854.5Q329 828 288 828Q264 828 243 835.5Q222 843 204 852Q186 861 170 868.5Q154 876 140 876Q126 876 115.5 869Q105 862 103 843H18Q25 909 58 935.5Q91 962 132 962Q156 962 177 954.5Q198 947 216 938Q234 929 250 921.5Q266 914 280 914Q294 914 304.5 921Q315 928 317 947Z" glyph-name="Itilde" horiz-adv-x="283" unicode="&#296;" /><glyph d="M539 780 469 239Q461 176 443 129Q425 82 395 50.5Q365 19 321 3Q277 -13 217 -13Q152 -13 108 3.5Q64 20 38.5 51.5Q13 83 4.5 129Q-4 175 4 234L8 266H162Q153 193 164 160Q175 127 219 127Q241 127 256 133.5Q271 140 281.5 154.5Q292 169 298 193Q304 217 309 252L377 780Z" glyph-name="J" horiz-adv-x="537" unicode="J" /><glyph d="M539 780 469 239Q461 176 443 129Q425 82 395 50.5Q365 19 321 3Q277 -13 217 -13Q152 -13 108 3.5Q64 20 38.5 51.5Q13 83 4.5 129Q-4 175 4 234L8 266H162Q153 193 164 160Q175 127 219 127Q241 127 256 133.5Q271 140 281.5 154.5Q292 169 298 193Q304 217 309 252L377 780ZM531 840 474 890 407 840H262L401 950H561L670 840Z" glyph-name="Jcircumflex" horiz-adv-x="537" unicode="&#308;" /><glyph d="M230 479 462 780H659L398 467L557 0H378L278 322L197 225L169 0H7L109 780H271Z" glyph-name="K" horiz-adv-x="625" unicode="K" /><glyph d="M230 479 462 780H659L398 467L557 0H378L278 322L197 225L169 0H7L109 780H271ZM328 -101Q318 -171 279 -198.5Q240 -226 165 -226L172 -171Q200 -171 226.5 -164.5Q253 -158 261 -136H182L194 -44H336Z" glyph-name="Kcommaaccent" horiz-adv-x="625" unicode="&#310;" /><glyph d="M7 0 109 780H271L187 140H475L457 0Z" glyph-name="L" horiz-adv-x="521" unicode="L" /><glyph d="M7 0 109 780H271L187 140H475L457 0ZM355 950 276 840H120L190 950Z" glyph-name="Lacute" horiz-adv-x="521" unicode="&#313;" /><glyph d="M482 800 430 596H360L387 800ZM7 0 109 780H271L187 140H475L457 0Z" glyph-name="Lcaron" horiz-adv-x="521" unicode="&#317;" /><glyph d="M7 0 109 780H271L187 140H475L457 0ZM288 -101Q278 -171 239 -198.5Q200 -226 125 -226L132 -171Q160 -171 186.5 -164.5Q213 -158 221 -136H142L154 -44H296Z" glyph-name="Lcommaaccent" horiz-adv-x="521" unicode="&#315;" /><glyph d="M473 315H306L328 482H495ZM7 0 109 780H271L187 140H475L457 0Z" glyph-name="Ldot" horiz-adv-x="521" unicode="&#319;" /><glyph d="M5 323 116 374 169 780H331L288 454L481 543L463 409L270 319L247 140H535L517 0H67L98 239L-13 188Z" glyph-name="Lslash" horiz-adv-x="581" unicode="&#321;" /><glyph d="M468 0H303L229 499L211 322L169 0H7L109 780H345L416 281L618 780H867L765 0H603L645 322L673 499Z" glyph-name="M" horiz-adv-x="869" unicode="M" /><glyph d="M468 0H303L229 499L211 322L169 0H7L109 780H345L416 281L618 780H867L765 0H603L645 322L673 499ZM563 845H430L443 945H576Z" glyph-name="Mdotaccent" horiz-adv-x="869" unicode="&#7744;" /><glyph d="M278 780 466 296 483 458 525 780H680L578 0H409L221 484L204 322L162 0H7L109 780Z" glyph-name="N" horiz-adv-x="683" unicode="N" /><glyph d="M278 780 466 296 483 458 525 780H680L578 0H409L221 484L204 322L162 0H7L109 780ZM562 950 483 840H327L397 950Z" glyph-name="Nacute" horiz-adv-x="683" unicode="&#323;" /><glyph d="M278 780 466 296 483 458 525 780H680L578 0H409L221 484L204 322L162 0H7L109 780ZM355 950 412 900 479 950H624L485 840H325L216 950Z" glyph-name="Ncaron" horiz-adv-x="683" unicode="&#327;" /><glyph d="M278 780 466 296 483 458 525 780H680L578 0H409L221 484L204 322L162 0H7L109 780ZM352 -101Q342 -171 303 -198.5Q264 -226 189 -226L196 -171Q224 -171 250.5 -164.5Q277 -158 285 -136H206L218 -44H360Z" glyph-name="Ncommaaccent" horiz-adv-x="683" unicode="&#325;" /><glyph d="M278 780 466 296 483 458 525 780H680L578 0H409L221 484L204 322L162 0H7L109 780ZM604 947Q597 881 564 854.5Q531 828 490 828Q466 828 445 835.5Q424 843 406 852Q388 861 372 868.5Q356 876 342 876Q328 876 317.5 869Q307 862 305 843H220Q227 909 260 935.5Q293 962 334 962Q358 962 379 954.5Q400 947 418 938Q436 929 452 921.5Q468 914 482 914Q496 914 506.5 921Q517 928 519 947Z" glyph-name="Ntilde" horiz-adv-x="683" unicode="&#209;" /><glyph d="M309 127Q383 127 418.5 191.5Q454 256 469 374L473 406Q480 465 480 511Q480 557 469.5 588.5Q459 620 436.5 636.5Q414 653 377 653H367Q293 653 257.5 588.5Q222 524 207 406L203 374Q195 315 195 269Q195 223 205.5 191.5Q216 160 238.5 143.5Q261 127 299 127ZM376 793Q452 793 507.5 771Q563 749 596 701.5Q629 654 640 581Q651 508 638 406L634 374Q621 272 596 199Q571 126 530.5 79Q490 32 433 9.5Q376 -13 300 -13Q224 -13 168.5 9Q113 31 80 78.5Q47 126 36 199Q25 272 38 374L42 406Q55 508 80 581Q105 654 145.5 701Q186 748 243 770.5Q300 793 376 793Z" glyph-name="O" horiz-adv-x="673" unicode="O" /><glyph d="M43 406Q56 511 85 582.5Q114 654 160 698Q206 742 270.5 761Q335 780 419 780H955L937 640H622L599 468H864L846 328H581L556 140H871L853 0H330Q246 0 185 20Q124 40 87.5 84Q51 128 38.5 199.5Q26 271 39 374ZM417 640Q366 640 330 627Q294 614 269.5 585.5Q245 557 230.5 512.5Q216 468 208 406L204 374Q197 316 199.5 272Q202 228 217 199Q232 170 261.5 155Q291 140 338 140H394L460 640Z" glyph-name="OE" horiz-adv-x="942" unicode="&#338;" /><glyph d="M309 127Q383 127 418.5 191.5Q454 256 469 374L473 406Q480 465 480 511Q480 557 469.5 588.5Q459 620 436.5 636.5Q414 653 377 653H367Q293 653 257.5 588.5Q222 524 207 406L203 374Q195 315 195 269Q195 223 205.5 191.5Q216 160 238.5 143.5Q261 127 299 127ZM376 793Q452 793 507.5 771Q563 749 596 701.5Q629 654 640 581Q651 508 638 406L634 374Q621 272 596 199Q571 126 530.5 79Q490 32 433 9.5Q376 -13 300 -13Q224 -13 168.5 9Q113 31 80 78.5Q47 126 36 199Q25 272 38 374L42 406Q55 508 80 581Q105 654 145.5 701Q186 748 243 770.5Q300 793 376 793ZM554 950 475 840H319L389 950Z" glyph-name="Oacute" horiz-adv-x="673" unicode="&#211;" /><glyph d="M309 127Q383 127 418.5 191.5Q454 256 469 374L473 406Q480 465 480 511Q480 557 469.5 588.5Q459 620 436.5 636.5Q414 653 377 653H367Q293 653 257.5 588.5Q222 524 207 406L203 374Q195 315 195 269Q195 223 205.5 191.5Q216 160 238.5 143.5Q261 127 299 127ZM376 793Q452 793 507.5 771Q563 749 596 701.5Q629 654 640 581Q651 508 638 406L634 374Q621 272 596 199Q571 126 530.5 79Q490 32 433 9.5Q376 -13 300 -13Q224 -13 168.5 9Q113 31 80 78.5Q47 126 36 199Q25 272 38 374L42 406Q55 508 80 581Q105 654 145.5 701Q186 748 243 770.5Q300 793 376 793ZM400 825Q346 825 311.5 835Q277 845 257.5 862Q238 879 232 901.5Q226 924 229 950H336Q335 930 351.5 920Q368 910 404 910Q440 910 461.5 920Q483 930 484 950H595Q592 924 581.5 901.5Q571 879 549 862Q527 845 491 835Q455 825 400 825Z" glyph-name="Obreve" horiz-adv-x="673" unicode="&#334;" /><glyph d="M309 127Q383 127 418.5 191.5Q454 256 469 374L473 406Q480 465 480 511Q480 557 469.5 588.5Q459 620 436.5 636.5Q414 653 377 653H367Q293 653 257.5 588.5Q222 524 207 406L203 374Q195 315 195 269Q195 223 205.5 191.5Q216 160 238.5 143.5Q261 127 299 127ZM376 793Q452 793 507.5 771Q563 749 596 701.5Q629 654 640 581Q651 508 638 406L634 374Q621 272 596 199Q571 126 530.5 79Q490 32 433 9.5Q376 -13 300 -13Q224 -13 168.5 9Q113 31 80 78.5Q47 126 36 199Q25 272 38 374L42 406Q55 508 80 581Q105 654 145.5 701Q186 748 243 770.5Q300 793 376 793ZM462 840 405 890 338 840H193L332 950H492L601 840Z" glyph-name="Ocircumflex" horiz-adv-x="673" unicode="&#212;" /><glyph d="M309 127Q383 127 418.5 191.5Q454 256 469 374L473 406Q480 465 480 511Q480 557 469.5 588.5Q459 620 436.5 636.5Q414 653 377 653H367Q293 653 257.5 588.5Q222 524 207 406L203 374Q195 315 195 269Q195 223 205.5 191.5Q216 160 238.5 143.5Q261 127 299 127ZM376 793Q452 793 507.5 771Q563 749 596 701.5Q629 654 640 581Q651 508 638 406L634 374Q621 272 596 199Q571 126 530.5 79Q490 32 433 9.5Q376 -13 300 -13Q224 -13 168.5 9Q113 31 80 78.5Q47 126 36 199Q25 272 38 374L42 406Q55 508 80 581Q105 654 145.5 701Q186 748 243 770.5Q300 793 376 793ZM552 845H419L432 945H565ZM377 845H244L257 945H390Z" glyph-name="Odieresis" horiz-adv-x="673" unicode="&#214;" /><glyph d="M309 127Q383 127 418.5 191.5Q454 256 469 374L473 406Q480 465 480 511Q480 557 469.5 588.5Q459 620 436.5 636.5Q414 653 377 653H367Q293 653 257.5 588.5Q222 524 207 406L203 374Q195 315 195 269Q195 223 205.5 191.5Q216 160 238.5 143.5Q261 127 299 127ZM376 793Q452 793 507.5 771Q563 749 596 701.5Q629 654 640 581Q651 508 638 406L634 374Q621 272 596 199Q571 126 530.5 79Q490 32 433 9.5Q376 -13 300 -13Q224 -13 168.5 9Q113 31 80 78.5Q47 126 36 199Q25 272 38 374L42 406Q55 508 80 581Q105 654 145.5 701Q186 748 243 770.5Q300 793 376 793ZM435 950 475 840H319L270 950Z" glyph-name="Ograve" horiz-adv-x="673" unicode="&#210;" /><glyph d="M309 127Q383 127 418.5 191.5Q454 256 469 374L473 406Q480 465 480 511Q480 557 469.5 588.5Q459 620 436.5 636.5Q414 653 377 653H367Q293 653 257.5 588.5Q222 524 207 406L203 374Q195 315 195 269Q195 223 205.5 191.5Q216 160 238.5 143.5Q261 127 299 127ZM376 793Q452 793 507.5 771Q563 749 596 701.5Q629 654 640 581Q651 508 638 406L634 374Q621 272 596 199Q571 126 530.5 79Q490 32 433 9.5Q376 -13 300 -13Q224 -13 168.5 9Q113 31 80 78.5Q47 126 36 199Q25 272 38 374L42 406Q55 508 80 581Q105 654 145.5 701Q186 748 243 770.5Q300 793 376 793ZM629 950 550 840H411L480 950ZM454 950 383 840H244L305 950Z" glyph-name="Ohungarumlaut" horiz-adv-x="673" unicode="&#336;" /><glyph d="M309 127Q383 127 418.5 191.5Q454 256 469 374L473 406Q480 465 480 511Q480 557 469.5 588.5Q459 620 436.5 636.5Q414 653 377 653H367Q293 653 257.5 588.5Q222 524 207 406L203 374Q195 315 195 269Q195 223 205.5 191.5Q216 160 238.5 143.5Q261 127 299 127ZM376 793Q452 793 507.5 771Q563 749 596 701.5Q629 654 640 581Q651 508 638 406L634 374Q621 272 596 199Q571 126 530.5 79Q490 32 433 9.5Q376 -13 300 -13Q224 -13 168.5 9Q113 31 80 78.5Q47 126 36 199Q25 272 38 374L42 406Q55 508 80 581Q105 654 145.5 701Q186 748 243 770.5Q300 793 376 793ZM262 943H560L547 847H249Z" glyph-name="Omacron" horiz-adv-x="673" unicode="&#332;" /><glyph d="M309 127Q383 127 418.5 191.5Q454 256 469 374L473 406Q477 435 479 461Q481 487 480 510L217 168Q241 127 299 127ZM203 374Q199 345 197 319Q195 293 196 270L459 612Q435 653 377 653H367Q293 653 257.5 588.5Q222 524 207 406ZM376 793Q494 793 558 741L588 780H687L610 679Q660 587 638 406L634 374Q621 272 596 199Q571 126 530.5 79Q490 32 433 9.5Q376 -13 300 -13Q242 -13 196.5 -0.5Q151 12 118 39L88 0H-11L66 101Q16 193 38 374L42 406Q55 508 80 581Q105 654 145.5 701Q186 748 243 770.5Q300 793 376 793Z" glyph-name="Oslash" horiz-adv-x="670" unicode="&#216;" /><glyph d="M309 127Q383 127 418.5 191.5Q454 256 469 374L473 406Q480 465 480 511Q480 557 469.5 588.5Q459 620 436.5 636.5Q414 653 377 653H367Q293 653 257.5 588.5Q222 524 207 406L203 374Q195 315 195 269Q195 223 205.5 191.5Q216 160 238.5 143.5Q261 127 299 127ZM376 793Q452 793 507.5 771Q563 749 596 701.5Q629 654 640 581Q651 508 638 406L634 374Q621 272 596 199Q571 126 530.5 79Q490 32 433 9.5Q376 -13 300 -13Q224 -13 168.5 9Q113 31 80 78.5Q47 126 36 199Q25 272 38 374L42 406Q55 508 80 581Q105 654 145.5 701Q186 748 243 770.5Q300 793 376 793ZM596 947Q589 881 556 854.5Q523 828 482 828Q458 828 437 835.5Q416 843 398 852Q380 861 364 868.5Q348 876 334 876Q320 876 309.5 869Q299 862 297 843H212Q219 909 252 935.5Q285 962 326 962Q350 962 371 954.5Q392 947 410 938Q428 929 444 921.5Q460 914 474 914Q488 914 498.5 921Q509 928 511 947Z" glyph-name="Otilde" horiz-adv-x="673" unicode="&#213;" /><glyph d="M325 420Q341 420 359.5 423.5Q378 427 394.5 437.5Q411 448 423 467.5Q435 487 439 519L441 534Q445 567 438 587.5Q431 608 417.5 620Q404 632 386.5 636Q369 640 353 640H253L223 420ZM169 0H7L109 780H372Q424 780 470.5 769Q517 758 550 731Q583 704 598.5 657Q614 610 605 538L602 515Q591 438 562 391.5Q533 345 493 320.5Q453 296 405.5 288Q358 280 310 280H206Z" glyph-name="P" horiz-adv-x="609" unicode="P" /><glyph d="M325 420Q341 420 359.5 423.5Q378 427 394.5 437.5Q411 448 423 467.5Q435 487 439 519L441 534Q445 567 438 587.5Q431 608 417.5 620Q404 632 386.5 636Q369 640 353 640H253L223 420ZM169 0H7L109 780H372Q424 780 470.5 769Q517 758 550 731Q583 704 598.5 657Q614 610 605 538L602 515Q591 438 562 391.5Q533 345 493 320.5Q453 296 405.5 288Q358 280 310 280H206ZM421 845H288L301 945H434Z" glyph-name="Pdotaccent" horiz-adv-x="609" unicode="&#7766;" /><glyph d="M398 164Q427 194 443 247Q459 300 469 374L473 406Q480 465 480 511Q480 557 469.5 588.5Q459 620 436.5 636.5Q414 653 377 653H367Q293 653 257.5 588.5Q222 524 207 406L203 374Q196 318 195.5 274Q195 230 204 198.5Q213 167 232 149Q251 131 284 128L250 262H372ZM376 793Q452 793 507.5 771Q563 749 596 701.5Q629 654 640 581Q651 508 638 406L634 374Q615 223 568.5 134Q522 45 438 12L468 -100H342L320 -13H300Q224 -13 168.5 9Q113 31 80 78.5Q47 126 36 199Q25 272 38 374L42 406Q55 508 80 581Q105 654 145.5 701Q186 748 243 770.5Q300 793 376 793Z" glyph-name="Q" horiz-adv-x="673" unicode="Q" /><glyph d="M325 420Q341 420 359.5 423.5Q378 427 394.5 437.5Q411 448 423 467.5Q435 487 439 519L441 534Q445 567 438 587.5Q431 608 417.5 620Q404 632 386.5 636Q369 640 353 640H253L223 420ZM169 0H7L109 780H372Q424 780 470.5 769Q517 758 550 731Q583 704 598.5 657Q614 610 605 538L602 515Q588 419 547 369.5Q506 320 451 300L534 0H364L295 280H206Z" glyph-name="R" horiz-adv-x="623" unicode="R" /><glyph d="M325 420Q341 420 359.5 423.5Q378 427 394.5 437.5Q411 448 423 467.5Q435 487 439 519L441 534Q445 567 438 587.5Q431 608 417.5 620Q404 632 386.5 636Q369 640 353 640H253L223 420ZM169 0H7L109 780H372Q424 780 470.5 769Q517 758 550 731Q583 704 598.5 657Q614 610 605 538L602 515Q588 419 547 369.5Q506 320 451 300L534 0H364L295 280H206ZM516 950 437 840H281L351 950Z" glyph-name="Racute" horiz-adv-x="623" unicode="&#340;" /><glyph d="M325 420Q341 420 359.5 423.5Q378 427 394.5 437.5Q411 448 423 467.5Q435 487 439 519L441 534Q445 567 438 587.5Q431 608 417.5 620Q404 632 386.5 636Q369 640 353 640H253L223 420ZM169 0H7L109 780H372Q424 780 470.5 769Q517 758 550 731Q583 704 598.5 657Q614 610 605 538L602 515Q588 419 547 369.5Q506 320 451 300L534 0H364L295 280H206ZM309 950 366 900 433 950H578L439 840H279L170 950Z" glyph-name="Rcaron" horiz-adv-x="623" unicode="&#344;" /><glyph d="M325 420Q341 420 359.5 423.5Q378 427 394.5 437.5Q411 448 423 467.5Q435 487 439 519L441 534Q445 567 438 587.5Q431 608 417.5 620Q404 632 386.5 636Q369 640 353 640H253L223 420ZM169 0H7L109 780H372Q424 780 470.5 769Q517 758 550 731Q583 704 598.5 657Q614 610 605 538L602 515Q588 419 547 369.5Q506 320 451 300L534 0H364L295 280H206ZM326 -101Q316 -171 277 -198.5Q238 -226 163 -226L170 -171Q198 -171 224.5 -164.5Q251 -158 259 -136H180L192 -44H334Z" glyph-name="Rcommaaccent" horiz-adv-x="623" unicode="&#342;" /><glyph d="M279 327Q153 350 102 408.5Q51 467 62 552L65 575Q79 684 150.5 738.5Q222 793 343 793Q499 793 563.5 725Q628 657 611 527L608 504H446Q456 579 434 616Q412 653 344 653H334Q293 653 264 633Q235 613 230 576L228 561Q226 544 230 528.5Q234 513 248 500Q262 487 288.5 476.5Q315 466 357 458Q478 435 534 378Q590 321 578 228L575 205Q561 96 487 41.5Q413 -13 289 -13Q140 -13 69.5 52Q-1 117 16 243L19 266H181Q176 228 181.5 202Q187 176 201 159Q215 142 237.5 134.5Q260 127 288 127H298Q399 127 410 204L412 219Q415 238 410 254.5Q405 271 390 284.5Q375 298 348 308.5Q321 319 279 327Z" glyph-name="S" horiz-adv-x="631" unicode="S" /><glyph d="M279 327Q153 350 102 408.5Q51 467 62 552L65 575Q79 684 150.5 738.5Q222 793 343 793Q499 793 563.5 725Q628 657 611 527L608 504H446Q456 579 434 616Q412 653 344 653H334Q293 653 264 633Q235 613 230 576L228 561Q226 544 230 528.5Q234 513 248 500Q262 487 288.5 476.5Q315 466 357 458Q478 435 534 378Q590 321 578 228L575 205Q561 96 487 41.5Q413 -13 289 -13Q140 -13 69.5 52Q-1 117 16 243L19 266H181Q176 228 181.5 202Q187 176 201 159Q215 142 237.5 134.5Q260 127 288 127H298Q399 127 410 204L412 219Q415 238 410 254.5Q405 271 390 284.5Q375 298 348 308.5Q321 319 279 327ZM533 950 454 840H298L368 950Z" glyph-name="Sacute" horiz-adv-x="631" unicode="&#346;" /><glyph d="M279 327Q153 350 102 408.5Q51 467 62 552L65 575Q79 684 150.5 738.5Q222 793 343 793Q499 793 563.5 725Q628 657 611 527L608 504H446Q456 579 434 616Q412 653 344 653H334Q293 653 264 633Q235 613 230 576L228 561Q226 544 230 528.5Q234 513 248 500Q262 487 288.5 476.5Q315 466 357 458Q478 435 534 378Q590 321 578 228L575 205Q561 96 487 41.5Q413 -13 289 -13Q140 -13 69.5 52Q-1 117 16 243L19 266H181Q176 228 181.5 202Q187 176 201 159Q215 142 237.5 134.5Q260 127 288 127H298Q399 127 410 204L412 219Q415 238 410 254.5Q405 271 390 284.5Q375 298 348 308.5Q321 319 279 327ZM326 950 383 900 450 950H595L456 840H296L187 950Z" glyph-name="Scaron" horiz-adv-x="631" unicode="&#352;" /><glyph d="M279 327Q153 350 102 408.5Q51 467 62 552L65 575Q79 684 150.5 738.5Q222 793 343 793Q499 793 563.5 725Q628 657 611 527L608 504H446Q456 579 434 616Q412 653 344 653H334Q293 653 264 633Q235 613 230 576L228 561Q226 544 230 528.5Q234 513 248 500Q262 487 288.5 476.5Q315 466 357 458Q478 435 534 378Q590 321 578 228L575 205Q561 97 488.5 43Q416 -11 295 -13L281 -40Q320 -43 345.5 -60.5Q371 -78 371 -118Q371 -163 336.5 -189Q302 -215 245 -215Q203 -215 175.5 -207Q148 -199 134 -190L166 -124Q177 -132 197 -136.5Q217 -141 240 -141Q286 -141 286 -116Q286 -95 241 -95Q234 -95 227 -96Q220 -97 215 -98Q208 -99 202 -100L191 -72L225 -9Q109 4 55.5 67.5Q2 131 16 243L19 266H181Q176 228 181.5 202Q187 176 201 159Q215 142 237.5 134.5Q260 127 288 127H298Q399 127 410 204L412 219Q415 238 410 254.5Q405 271 390 284.5Q375 298 348 308.5Q321 319 279 327Z" glyph-name="Scedilla" horiz-adv-x="631" unicode="&#350;" /><glyph d="M279 327Q153 350 102 408.5Q51 467 62 552L65 575Q79 684 150.5 738.5Q222 793 343 793Q499 793 563.5 725Q628 657 611 527L608 504H446Q456 579 434 616Q412 653 344 653H334Q293 653 264 633Q235 613 230 576L228 561Q226 544 230 528.5Q234 513 248 500Q262 487 288.5 476.5Q315 466 357 458Q478 435 534 378Q590 321 578 228L575 205Q561 96 487 41.5Q413 -13 289 -13Q140 -13 69.5 52Q-1 117 16 243L19 266H181Q176 228 181.5 202Q187 176 201 159Q215 142 237.5 134.5Q260 127 288 127H298Q399 127 410 204L412 219Q415 238 410 254.5Q405 271 390 284.5Q375 298 348 308.5Q321 319 279 327ZM441 840 384 890 317 840H172L311 950H471L580 840Z" glyph-name="Scircumflex" horiz-adv-x="631" unicode="&#348;" /><glyph d="M279 327Q153 350 102 408.5Q51 467 62 552L65 575Q79 684 150.5 738.5Q222 793 343 793Q499 793 563.5 725Q628 657 611 527L608 504H446Q456 579 434 616Q412 653 344 653H334Q293 653 264 633Q235 613 230 576L228 561Q226 544 230 528.5Q234 513 248 500Q262 487 288.5 476.5Q315 466 357 458Q478 435 534 378Q590 321 578 228L575 205Q561 96 487 41.5Q413 -13 289 -13Q140 -13 69.5 52Q-1 117 16 243L19 266H181Q176 228 181.5 202Q187 176 201 159Q215 142 237.5 134.5Q260 127 288 127H298Q399 127 410 204L412 219Q415 238 410 254.5Q405 271 390 284.5Q375 298 348 308.5Q321 319 279 327ZM323 -101Q313 -171 274 -198.5Q235 -226 160 -226L167 -171Q195 -171 221.5 -164.5Q248 -158 256 -136H177L189 -44H331Z" glyph-name="Scommaaccent" horiz-adv-x="631" unicode="&#536;" /><glyph d="M310 0H148L232 640H52L70 780H593L575 640H394Z" glyph-name="T" horiz-adv-x="557" unicode="T" /><glyph d="M370 459H489L473 338H354L310 0H148L192 338H73L89 459H208L232 640H52L70 780H593L575 640H394Z" glyph-name="Tbar" horiz-adv-x="557" unicode="&#358;" /><glyph d="M310 0H148L232 640H52L70 780H593L575 640H394ZM289 950 346 900 413 950H558L419 840H259L150 950Z" glyph-name="Tcaron" horiz-adv-x="557" unicode="&#356;" /><glyph d="M310 0H148L232 640H52L70 780H593L575 640H394ZM286 -101Q276 -171 237 -198.5Q198 -226 123 -226L130 -171Q158 -171 184.5 -164.5Q211 -158 219 -136H140L152 -44H294Z" glyph-name="Tcommaaccent" horiz-adv-x="557" unicode="&#354;" /><glyph d="M310 0H148L232 640H52L70 780H593L575 640H394ZM406 845H273L286 945H419Z" glyph-name="Tdotaccent" horiz-adv-x="557" unicode="&#7786;" /><glyph d="M7 0 109 780H271L253 640H354Q406 640 452.5 629Q499 618 532 591Q565 564 580.5 517Q596 470 587 398L584 375Q573 298 544 251.5Q515 205 475 180.5Q435 156 387.5 148Q340 140 292 140H188L169 0ZM307 280Q323 280 341.5 283.5Q360 287 376.5 297.5Q393 308 405 327.5Q417 347 421 379L423 394Q427 427 420 447.5Q413 468 399.5 480Q386 492 368.5 496Q351 500 335 500H235L205 280Z" glyph-name="Thorn" horiz-adv-x="609" unicode="&#222;" /><glyph d="M293 -13Q213 -13 159.5 3.5Q106 20 75.5 53Q45 86 35.5 134.5Q26 183 34 247L104 780H266L197 252Q193 221 195 197.5Q197 174 208.5 158.5Q220 143 241 135Q262 127 297 127Q366 127 396 158Q426 189 434 252L503 780H665L595 247Q587 184 568.5 135.5Q550 87 515.5 54Q481 21 426.5 4Q372 -13 293 -13Z" glyph-name="U" horiz-adv-x="663" unicode="U" /><glyph d="M293 -13Q213 -13 159.5 3.5Q106 20 75.5 53Q45 86 35.5 134.5Q26 183 34 247L104 780H266L197 252Q193 221 195 197.5Q197 174 208.5 158.5Q220 143 241 135Q262 127 297 127Q366 127 396 158Q426 189 434 252L503 780H665L595 247Q587 184 568.5 135.5Q550 87 515.5 54Q481 21 426.5 4Q372 -13 293 -13ZM549 950 470 840H314L384 950Z" glyph-name="Uacute" horiz-adv-x="663" unicode="&#218;" /><glyph d="M293 -13Q213 -13 159.5 3.5Q106 20 75.5 53Q45 86 35.5 134.5Q26 183 34 247L104 780H266L197 252Q193 221 195 197.5Q197 174 208.5 158.5Q220 143 241 135Q262 127 297 127Q366 127 396 158Q426 189 434 252L503 780H665L595 247Q587 184 568.5 135.5Q550 87 515.5 54Q481 21 426.5 4Q372 -13 293 -13ZM395 825Q341 825 306.5 835Q272 845 252.5 862Q233 879 227 901.5Q221 924 224 950H331Q330 930 346.5 920Q363 910 399 910Q435 910 456.5 920Q478 930 479 950H590Q587 924 576.5 901.5Q566 879 544 862Q522 845 486 835Q450 825 395 825Z" glyph-name="Ubreve" horiz-adv-x="663" unicode="&#364;" /><glyph d="M293 -13Q213 -13 159.5 3.5Q106 20 75.5 53Q45 86 35.5 134.5Q26 183 34 247L104 780H266L197 252Q193 221 195 197.5Q197 174 208.5 158.5Q220 143 241 135Q262 127 297 127Q366 127 396 158Q426 189 434 252L503 780H665L595 247Q587 184 568.5 135.5Q550 87 515.5 54Q481 21 426.5 4Q372 -13 293 -13ZM457 840 400 890 333 840H188L327 950H487L596 840Z" glyph-name="Ucircumflex" horiz-adv-x="663" unicode="&#219;" /><glyph d="M293 -13Q213 -13 159.5 3.5Q106 20 75.5 53Q45 86 35.5 134.5Q26 183 34 247L104 780H266L197 252Q193 221 195 197.5Q197 174 208.5 158.5Q220 143 241 135Q262 127 297 127Q366 127 396 158Q426 189 434 252L503 780H665L595 247Q587 184 568.5 135.5Q550 87 515.5 54Q481 21 426.5 4Q372 -13 293 -13ZM547 845H414L427 945H560ZM372 845H239L252 945H385Z" glyph-name="Udieresis" horiz-adv-x="663" unicode="&#220;" /><glyph d="M293 -13Q213 -13 159.5 3.5Q106 20 75.5 53Q45 86 35.5 134.5Q26 183 34 247L104 780H266L197 252Q193 221 195 197.5Q197 174 208.5 158.5Q220 143 241 135Q262 127 297 127Q366 127 396 158Q426 189 434 252L503 780H665L595 247Q587 184 568.5 135.5Q550 87 515.5 54Q481 21 426.5 4Q372 -13 293 -13ZM430 950 470 840H314L265 950Z" glyph-name="Ugrave" horiz-adv-x="663" unicode="&#217;" /><glyph d="M293 -13Q213 -13 159.5 3.5Q106 20 75.5 53Q45 86 35.5 134.5Q26 183 34 247L104 780H266L197 252Q193 221 195 197.5Q197 174 208.5 158.5Q220 143 241 135Q262 127 297 127Q366 127 396 158Q426 189 434 252L503 780H665L595 247Q587 184 568.5 135.5Q550 87 515.5 54Q481 21 426.5 4Q372 -13 293 -13ZM624 950 545 840H406L475 950ZM449 950 378 840H239L300 950Z" glyph-name="Uhungarumlaut" horiz-adv-x="663" unicode="&#368;" /><glyph d="M293 -13Q213 -13 159.5 3.5Q106 20 75.5 53Q45 86 35.5 134.5Q26 183 34 247L104 780H266L197 252Q193 221 195 197.5Q197 174 208.5 158.5Q220 143 241 135Q262 127 297 127Q366 127 396 158Q426 189 434 252L503 780H665L595 247Q587 184 568.5 135.5Q550 87 515.5 54Q481 21 426.5 4Q372 -13 293 -13ZM257 943H555L542 847H244Z" glyph-name="Umacron" horiz-adv-x="663" unicode="&#362;" /><glyph d="M412 0Q400 -3 387 -9.5Q374 -16 363.5 -25.5Q353 -35 346.5 -47.5Q340 -60 340 -75Q340 -105 379 -105Q393 -105 404 -101.5Q415 -98 422 -94L445 -190Q428 -200 400 -207.5Q372 -215 344 -215Q284 -215 250.5 -192Q217 -169 217 -120Q217 -88 229.5 -61.5Q242 -35 262 -12Q191 -9 144 9Q97 27 70 59.5Q43 92 34.5 139Q26 186 34 247L104 780H266L197 252Q193 221 195 197.5Q197 174 208.5 158.5Q220 143 241 135Q262 127 297 127Q366 127 396 158Q426 189 434 252L503 780H665L595 247Q589 197 576.5 156.5Q564 116 542.5 85Q521 54 489 32.5Q457 11 412 0Z" glyph-name="Uogonek" horiz-adv-x="663" unicode="&#370;" /><glyph d="M293 -13Q213 -13 159.5 3.5Q106 20 75.5 53Q45 86 35.5 134.5Q26 183 34 247L104 780H266L197 252Q193 221 195 197.5Q197 174 208.5 158.5Q220 143 241 135Q262 127 297 127Q366 127 396 158Q426 189 434 252L503 780H665L595 247Q587 184 568.5 135.5Q550 87 515.5 54Q481 21 426.5 4Q372 -13 293 -13ZM445 863Q445 883 432 896Q419 909 399 909Q375 909 358.5 893.5Q342 878 342 853Q342 833 355 820Q368 807 388 807Q412 807 428.5 822.5Q445 838 445 863ZM500 870Q500 845 490.5 823.5Q481 802 465.5 786.5Q450 771 428.5 762Q407 753 383 753Q341 753 314 779.5Q287 806 287 846Q287 871 296.5 892.5Q306 914 321.5 929.5Q337 945 358.5 954Q380 963 404 963Q446 963 473 936.5Q500 910 500 870Z" glyph-name="Uring" horiz-adv-x="663" unicode="&#366;" /><glyph d="M293 -13Q213 -13 159.5 3.5Q106 20 75.5 53Q45 86 35.5 134.5Q26 183 34 247L104 780H266L197 252Q193 221 195 197.5Q197 174 208.5 158.5Q220 143 241 135Q262 127 297 127Q366 127 396 158Q426 189 434 252L503 780H665L595 247Q587 184 568.5 135.5Q550 87 515.5 54Q481 21 426.5 4Q372 -13 293 -13ZM591 947Q584 881 551 854.5Q518 828 477 828Q453 828 432 835.5Q411 843 393 852Q375 861 359 868.5Q343 876 329 876Q315 876 304.5 869Q294 862 292 843H207Q214 909 247 935.5Q280 962 321 962Q345 962 366 954.5Q387 947 405 938Q423 929 439 921.5Q455 914 469 914Q483 914 493.5 921Q504 928 506 947Z" glyph-name="Utilde" horiz-adv-x="663" unicode="&#360;" /><glyph d="M160 -2 67 780H241L294 179L506 780H680L383 -2Z" glyph-name="V" horiz-adv-x="641" unicode="V" /><glyph d="M501 585 326 -2H101L72 780H230L248 221L415 780H628L655 220L814 780H971L738 -2H529Z" glyph-name="W" horiz-adv-x="937" unicode="W" /><glyph d="M501 585 326 -2H101L72 780H230L248 221L415 780H628L655 220L814 780H971L738 -2H529ZM686 950 607 840H451L521 950Z" glyph-name="Wacute" horiz-adv-x="937" unicode="&#7810;" /><glyph d="M501 585 326 -2H101L72 780H230L248 221L415 780H628L655 220L814 780H971L738 -2H529ZM594 840 537 890 470 840H325L464 950H624L733 840Z" glyph-name="Wcircumflex" horiz-adv-x="937" unicode="&#372;" /><glyph d="M501 585 326 -2H101L72 780H230L248 221L415 780H628L655 220L814 780H971L738 -2H529ZM684 845H551L564 945H697ZM509 845H376L389 945H522Z" glyph-name="Wdieresis" horiz-adv-x="937" unicode="&#7812;" /><glyph d="M501 585 326 -2H101L72 780H230L248 221L415 780H628L655 220L814 780H971L738 -2H529ZM567 950 607 840H451L402 950Z" glyph-name="Wgrave" horiz-adv-x="937" unicode="&#7808;" /><glyph d="M218 397 72 780H259L345 519L500 780H683L435 396L581 0H394L308 260L153 0H-30Z" glyph-name="X" horiz-adv-x="649" unicode="X" /><glyph d="M345 0H183L214 239L61 780H235L318 437L490 780H670L376 239Z" glyph-name="Y" horiz-adv-x="625" unicode="Y" /><glyph d="M345 0H183L214 239L61 780H235L318 437L490 780H670L376 239ZM531 950 452 840H296L366 950Z" glyph-name="Yacute" horiz-adv-x="625" unicode="&#221;" /><glyph d="M345 0H183L214 239L61 780H235L318 437L490 780H670L376 239ZM439 840 382 890 315 840H170L309 950H469L578 840Z" glyph-name="Ycircumflex" horiz-adv-x="625" unicode="&#374;" /><glyph d="M345 0H183L214 239L61 780H235L318 437L490 780H670L376 239ZM529 845H396L409 945H542ZM354 845H221L234 945H367Z" glyph-name="Ydieresis" horiz-adv-x="625" unicode="&#376;" /><glyph d="M345 0H183L214 239L61 780H235L318 437L490 780H670L376 239ZM412 950 452 840H296L247 950Z" glyph-name="Ygrave" horiz-adv-x="625" unicode="&#7922;" /><glyph d="M345 0H183L214 239L61 780H235L318 437L490 780H670L376 239ZM239 943H537L524 847H226Z" glyph-name="Ymacron" horiz-adv-x="625" unicode="&#562;" /><glyph d="M387 643 244 640H84L102 780H601L587 672L204 137L346 140H527L509 0H-10L4 108Z" glyph-name="Z" horiz-adv-x="599" unicode="Z" /><glyph d="M387 643 244 640H84L102 780H601L587 672L204 137L346 140H527L509 0H-10L4 108ZM516 950 437 840H281L351 950Z" glyph-name="Zacute" horiz-adv-x="599" unicode="&#377;" /><glyph d="M387 643 244 640H84L102 780H601L587 672L204 137L346 140H527L509 0H-10L4 108ZM309 950 366 900 433 950H578L439 840H279L170 950Z" glyph-name="Zcaron" horiz-adv-x="599" unicode="&#381;" /><glyph d="M387 643 244 640H84L102 780H601L587 672L204 137L346 140H527L509 0H-10L4 108ZM426 845H293L306 945H439Z" glyph-name="Zdotaccent" horiz-adv-x="599" unicode="&#379;" /><glyph d="M208 115Q252 115 276.5 131Q301 147 315 163L327 252L229 237Q194 232 179.5 214.5Q165 197 162 179L160 166Q157 145 167.5 130Q178 115 208 115ZM320 59Q285 26 248 6.5Q211 -13 155 -13Q110 -13 78.5 0.5Q47 14 28 36Q9 58 2 87Q-5 116 -1 148L1 163Q7 207 23.5 235.5Q40 264 66.5 282Q93 300 128.5 309.5Q164 319 209 326L339 346L340 354Q345 390 329 406.5Q313 423 274 423Q233 423 215.5 402.5Q198 382 196 355H47L49 370Q54 408 67 439.5Q80 471 106.5 494Q133 517 175 530Q217 543 280 543Q343 543 387 528.5Q431 514 457.5 488Q484 462 493 424.5Q502 387 496 341L471 149L461 0H320Z" glyph-name="a" horiz-adv-x="549" unicode="a" /><glyph d="M208 115Q252 115 276.5 131Q301 147 315 163L327 252L229 237Q194 232 179.5 214.5Q165 197 162 179L160 166Q157 145 167.5 130Q178 115 208 115ZM320 59Q285 26 248 6.5Q211 -13 155 -13Q110 -13 78.5 0.5Q47 14 28 36Q9 58 2 87Q-5 116 -1 148L1 163Q7 207 23.5 235.5Q40 264 66.5 282Q93 300 128.5 309.5Q164 319 209 326L339 346L340 354Q345 390 329 406.5Q313 423 274 423Q233 423 215.5 402.5Q198 382 196 355H47L49 370Q54 408 67 439.5Q80 471 106.5 494Q133 517 175 530Q217 543 280 543Q343 543 387 528.5Q431 514 457.5 488Q484 462 493 424.5Q502 387 496 341L471 149L461 0H320ZM512 780 381 596H225L340 780Z" glyph-name="aacute" horiz-adv-x="549" unicode="&#225;" /><glyph d="M208 115Q252 115 276.5 131Q301 147 315 163L327 252L229 237Q194 232 179.5 214.5Q165 197 162 179L160 166Q157 145 167.5 130Q178 115 208 115ZM320 59Q285 26 248 6.5Q211 -13 155 -13Q110 -13 78.5 0.5Q47 14 28 36Q9 58 2 87Q-5 116 -1 148L1 163Q7 207 23.5 235.5Q40 264 66.5 282Q93 300 128.5 309.5Q164 319 209 326L339 346L340 354Q345 390 329 406.5Q313 423 274 423Q233 423 215.5 402.5Q198 382 196 355H47L49 370Q54 408 67 439.5Q80 471 106.5 494Q133 517 175 530Q217 543 280 543Q343 543 387 528.5Q431 514 457.5 488Q484 462 493 424.5Q502 387 496 341L471 149L461 0H320ZM301 582Q248 582 214 597Q180 612 161.5 638.5Q143 665 138.5 701Q134 737 140 780H251Q245 735 264 718.5Q283 702 315 702Q347 702 370 718.5Q393 735 399 780H514Q509 737 495 701Q481 665 455.5 638.5Q430 612 391.5 597Q353 582 301 582Z" glyph-name="abreve" horiz-adv-x="549" unicode="&#259;" /><glyph d="M208 115Q252 115 276.5 131Q301 147 315 163L327 252L229 237Q194 232 179.5 214.5Q165 197 162 179L160 166Q157 145 167.5 130Q178 115 208 115ZM320 59Q285 26 248 6.5Q211 -13 155 -13Q110 -13 78.5 0.5Q47 14 28 36Q9 58 2 87Q-5 116 -1 148L1 163Q7 207 23.5 235.5Q40 264 66.5 282Q93 300 128.5 309.5Q164 319 209 326L339 346L340 354Q345 390 329 406.5Q313 423 274 423Q233 423 215.5 402.5Q198 382 196 355H47L49 370Q54 408 67 439.5Q80 471 106.5 494Q133 517 175 530Q217 543 280 543Q343 543 387 528.5Q431 514 457.5 488Q484 462 493 424.5Q502 387 496 341L471 149L461 0H320ZM378 596 317 679 234 596H93L251 780H403L513 596Z" glyph-name="acircumflex" horiz-adv-x="549" unicode="&#226;" /><glyph d="M488 780 357 596H201L316 780Z" glyph-name="acute" horiz-adv-x="500" unicode="&#180;" /><glyph d="M468 950 389 840H233L303 950Z" glyph-name="acute.cap" horiz-adv-x="500" unicode="&#58402;" /><glyph d="M208 115Q252 115 276.5 131Q301 147 315 163L327 252L229 237Q194 232 179.5 214.5Q165 197 162 179L160 166Q157 145 167.5 130Q178 115 208 115ZM320 59Q285 26 248 6.5Q211 -13 155 -13Q110 -13 78.5 0.5Q47 14 28 36Q9 58 2 87Q-5 116 -1 148L1 163Q7 207 23.5 235.5Q40 264 66.5 282Q93 300 128.5 309.5Q164 319 209 326L339 346L340 354Q345 390 329 406.5Q313 423 274 423Q233 423 215.5 402.5Q198 382 196 355H47L49 370Q54 408 67 439.5Q80 471 106.5 494Q133 517 175 530Q217 543 280 543Q343 543 387 528.5Q431 514 457.5 488Q484 462 493 424.5Q502 387 496 341L471 149L461 0H320ZM495 605H328L350 772H517ZM280 605H113L135 772H302Z" glyph-name="adieresis" horiz-adv-x="549" unicode="&#228;" /><glyph d="M600 423Q557 423 528.5 398Q500 373 491 322H674Q682 423 600 423ZM208 115Q248 115 276 130.5Q304 146 324 173Q322 190 322.5 208Q323 226 326 246L327 252L229 237Q194 232 179.5 214.5Q165 197 162 179L160 166Q157 145 167.5 130Q178 115 208 115ZM476 208Q469 153 494.5 130Q520 107 565 107Q613 107 635.5 124Q658 141 663 170H812L810 155Q805 119 787.5 88.5Q770 58 739.5 35.5Q709 13 665.5 0Q622 -13 565 -13Q487 -13 436 9.5Q385 32 357 74Q308 27 256 7Q204 -13 155 -13Q110 -13 78.5 0.5Q47 14 28 36Q9 58 2 87Q-5 116 -1 148L1 163Q7 207 23.5 235.5Q40 264 66.5 282Q93 300 128.5 309.5Q164 319 209 326L339 346L340 354Q345 390 329 406.5Q313 423 274 423Q233 423 215.5 402.5Q198 382 196 355H47L49 370Q54 408 67 439.5Q80 471 106.5 494Q133 517 175 530Q217 543 280 543Q343 543 382.5 528.5Q422 514 442 488Q469 514 507.5 528.5Q546 543 600 543Q669 543 715.5 521.5Q762 500 788.5 462Q815 424 823 371Q831 318 823 255L817 208Z" glyph-name="ae" horiz-adv-x="869" unicode="&#230;" /><glyph d="M208 115Q252 115 276.5 131Q301 147 315 163L327 252L229 237Q194 232 179.5 214.5Q165 197 162 179L160 166Q157 145 167.5 130Q178 115 208 115ZM320 59Q285 26 248 6.5Q211 -13 155 -13Q110 -13 78.5 0.5Q47 14 28 36Q9 58 2 87Q-5 116 -1 148L1 163Q7 207 23.5 235.5Q40 264 66.5 282Q93 300 128.5 309.5Q164 319 209 326L339 346L340 354Q345 390 329 406.5Q313 423 274 423Q233 423 215.5 402.5Q198 382 196 355H47L49 370Q54 408 67 439.5Q80 471 106.5 494Q133 517 175 530Q217 543 280 543Q343 543 387 528.5Q431 514 457.5 488Q484 462 493 424.5Q502 387 496 341L471 149L461 0H320ZM314 780 381 596H225L142 780Z" glyph-name="agrave" horiz-adv-x="549" unicode="&#224;" /><glyph d="M306 -118Q306 -163 271.5 -189Q237 -215 180 -215Q138 -215 110.5 -207Q83 -199 69 -190L101 -124Q112 -132 132 -136.5Q152 -141 175 -141Q221 -141 221 -116Q221 -95 176 -95Q162 -95 147.5 -98Q133 -101 127 -103L134 -50Q146 -45 163 -42.5Q180 -40 203 -40Q250 -40 278 -59Q306 -78 306 -118Z" glyph-name="altcedilla" horiz-adv-x="602" unicode="&#58390;" /><glyph d="M208 115Q252 115 276.5 131Q301 147 315 163L327 252L229 237Q194 232 179.5 214.5Q165 197 162 179L160 166Q157 145 167.5 130Q178 115 208 115ZM320 59Q285 26 248 6.5Q211 -13 155 -13Q110 -13 78.5 0.5Q47 14 28 36Q9 58 2 87Q-5 116 -1 148L1 163Q7 207 23.5 235.5Q40 264 66.5 282Q93 300 128.5 309.5Q164 319 209 326L339 346L340 354Q345 390 329 406.5Q313 423 274 423Q233 423 215.5 402.5Q198 382 196 355H47L49 370Q54 408 67 439.5Q80 471 106.5 494Q133 517 175 530Q217 543 280 543Q343 543 387 528.5Q431 514 457.5 488Q484 462 493 424.5Q502 387 496 341L471 149L461 0H320ZM174 757H474L456 619H156Z" glyph-name="amacron" horiz-adv-x="549" unicode="&#257;" /><glyph d="M248 600Q245 574 253 547Q261 520 273 503Q310 524 336.5 545Q363 566 367 598L368 606Q371 630 358 646.5Q345 663 319 663H313Q287 663 269.5 647.5Q252 632 249 608ZM248 123Q260 123 273 125.5Q286 128 298 131.5Q310 135 319.5 139.5Q329 144 333 148L211 319Q191 302 178 281Q165 260 161 232L160 224Q154 176 174 149.5Q194 123 242 123ZM204 -13Q93 -13 39 46Q-15 105 -3 207L-1 224Q8 301 45 348Q82 395 135 424Q108 462 94 503.5Q80 545 88 602L90 616Q95 652 112 684Q129 716 158 740.5Q187 765 228.5 779Q270 793 326 793Q385 793 426 777.5Q467 762 491 736.5Q515 711 523.5 678Q532 645 526 609L524 596Q518 555 500.5 525Q483 495 459 472Q435 449 405 431.5Q375 414 344 398L445 257Q462 283 476.5 315Q491 347 497 388L498 395H664Q652 316 621 249Q590 182 537 129L630 0H440L412 37Q366 14 315.5 0.5Q265 -13 204 -13Z" glyph-name="ampersand" horiz-adv-x="691" unicode="&amp;" /><glyph d="M183 360 282 -120H119L20 360L245 840H408Z" glyph-name="anglebracketleft" horiz-adv-x="365" unicode="&#12296;" /><glyph d="M192 390 278 0H115L29 390L217 780H380Z" glyph-name="anglebracketleft.cap" horiz-adv-x="365" unicode="&#58519;" /><glyph d="M178 360 79 840H242L341 360L116 -120H-47Z" glyph-name="anglebracketright" horiz-adv-x="365" unicode="&#12297;" /><glyph d="M178 390 92 780H255L341 390L153 0H-10Z" glyph-name="anglebracketright.cap" horiz-adv-x="365" unicode="&#58520;" /><glyph d="M208 115Q252 115 276.5 131Q301 147 315 163L327 252L229 237Q194 232 179.5 214.5Q165 197 162 179L160 166Q157 145 167.5 130Q178 115 208 115ZM461 0Q449 -4 436 -10.5Q423 -17 412.5 -26.5Q402 -36 395.5 -48Q389 -60 389 -75Q389 -105 428 -105Q442 -105 453 -101.5Q464 -98 471 -94L494 -190Q477 -200 449 -207.5Q421 -215 393 -215Q333 -215 299.5 -192Q266 -169 266 -120Q266 -85 281 -55.5Q296 -26 320 -3V59Q285 26 248 6.5Q211 -13 155 -13Q110 -13 78.5 0.5Q47 14 28 36Q9 58 2 87Q-5 116 -1 148L1 163Q7 207 23.5 235.5Q40 264 66.5 282Q93 300 128.5 309.5Q164 319 209 326L339 346L340 354Q345 390 329 406.5Q313 423 274 423Q233 423 215.5 402.5Q198 382 196 355H47L49 370Q54 408 67 439.5Q80 471 106.5 494Q133 517 175 530Q217 543 280 543Q343 543 387 528.5Q431 514 457.5 488Q484 462 493 424.5Q502 387 496 341L471 149Z" glyph-name="aogonek" horiz-adv-x="549" unicode="&#261;" /><glyph d="M176 374Q215 374 244.5 364Q274 354 299 341.5Q324 329 346.5 319Q369 309 394 309Q413 309 429 314Q445 319 457 326Q469 333 478 341.5Q487 350 494 357L558 283Q546 264 530.5 247Q515 230 495 217Q475 204 450.5 196Q426 188 396 188Q357 188 327.5 198Q298 208 273 220.5Q248 233 225 243Q202 253 176 253Q157 253 142 248Q127 243 115 236Q103 229 94 220.5Q85 212 78 205L14 279Q26 298 41.5 315Q57 332 77 345Q97 358 121.5 366Q146 374 176 374ZM205 590Q244 590 273.5 580Q303 570 328 557.5Q353 545 375.5 535Q398 525 423 525Q442 525 458 530Q474 535 486 542Q498 549 507 557.5Q516 566 523 573L587 499Q575 480 559.5 463Q544 446 524 433Q504 420 479.5 412Q455 404 425 404Q386 404 356.5 414Q327 424 302 436.5Q277 449 254 459Q231 469 205 469Q186 469 171 464Q156 459 144 452Q132 445 123 436.5Q114 428 107 421L43 495Q55 514 70.5 531Q86 548 106 561Q126 574 150.5 582Q175 590 205 590Z" glyph-name="approxequal" horiz-adv-x="600" unicode="&#8776;" /><glyph d="M208 115Q252 115 276.5 131Q301 147 315 163L327 252L229 237Q194 232 179.5 214.5Q165 197 162 179L160 166Q157 145 167.5 130Q178 115 208 115ZM320 59Q285 26 248 6.5Q211 -13 155 -13Q110 -13 78.5 0.5Q47 14 28 36Q9 58 2 87Q-5 116 -1 148L1 163Q7 207 23.5 235.5Q40 264 66.5 282Q93 300 128.5 309.5Q164 319 209 326L339 346L340 354Q345 390 329 406.5Q313 423 274 423Q233 423 215.5 402.5Q198 382 196 355H47L49 370Q54 408 67 439.5Q80 471 106.5 494Q133 517 175 530Q217 543 280 543Q343 543 387 528.5Q431 514 457.5 488Q484 462 493 424.5Q502 387 496 341L471 149L461 0H320ZM367 693Q367 713 354 726Q341 739 321 739Q297 739 280.5 723.5Q264 708 264 683Q264 663 277 650Q290 637 310 637Q334 637 350.5 652.5Q367 668 367 693ZM422 700Q422 675 412.5 653.5Q403 632 387.5 616.5Q372 601 350.5 592Q329 583 305 583Q263 583 236 609.5Q209 636 209 676Q209 701 218.5 722.5Q228 744 243.5 759.5Q259 775 280.5 784Q302 793 326 793Q368 793 395 766.5Q422 740 422 700Z" glyph-name="aring" horiz-adv-x="549" unicode="&#229;" /><glyph d="M70 575 390 255V780H530V255L850 575V377L460 -13L70 377Z" glyph-name="arrowdown" horiz-adv-x="920" unicode="&#8595;" /><glyph d="M645 780 325 460H850V320H325L645 0H447L57 390L447 780Z" glyph-name="arrowleft" horiz-adv-x="920" unicode="&#8592;" /><glyph d="M473 780 863 390 473 0H275L595 320H70V460H595L275 780Z" glyph-name="arrowright" horiz-adv-x="920" unicode="&#8594;" /><glyph d="M70 403 460 793 850 403V205L530 525V0H390V525L70 205Z" glyph-name="arrowup" horiz-adv-x="920" unicode="&#8593;" /><glyph d="M567 264H415L334 602L163 264H3L276 780H430Z" glyph-name="asciicircum" horiz-adv-x="600" unicode="^" /><glyph d="M192 482Q231 482 260.5 472Q290 462 315 449.5Q340 437 362.5 427Q385 417 410 417Q429 417 445 422Q461 427 473 434Q485 441 494 449.5Q503 458 510 465L574 391Q562 372 546.5 355Q531 338 511 325Q491 312 466.5 304Q442 296 412 296Q373 296 343.5 306Q314 316 289 328.5Q264 341 241 351Q218 361 192 361Q173 361 158 356Q143 351 131 344Q119 337 110 328.5Q101 320 94 313L30 387Q42 406 57.5 423Q73 440 93 453Q113 466 137.5 474Q162 482 192 482Z" glyph-name="asciitilde" horiz-adv-x="600" unicode="~" /><glyph d="M292 415 231 526 301 572 370 467ZM440 621 306 584 292 659 423 706ZM66 467 163 572 221 526 131 415ZM75 706 195 659 160 584 37 621ZM307 800 284 666H205L218 800Z" glyph-name="asterisk" horiz-adv-x="413" unicode="*" /><glyph d="M563 374Q555 388 536 404.5Q517 421 482 421Q440 421 417 394Q394 367 387 316L382 278Q375 227 391.5 198Q408 169 452 169Q484 169 507.5 185.5Q531 202 542 216ZM474 -110Q565 -110 646 -81Q727 -52 798 0L850 -82Q796 -123 743.5 -148.5Q691 -174 642 -188.5Q593 -203 549 -208Q505 -213 469 -213Q355 -213 263.5 -179.5Q172 -146 111.5 -83Q51 -20 24.5 71Q-2 162 13 278L18 316Q34 434 80 523.5Q126 613 195 673Q264 733 352 763Q440 793 539 793Q635 793 719 770Q803 747 862.5 698.5Q922 650 951 576Q980 502 967 400L962 362Q950 272 920 213.5Q890 155 847 121Q804 87 750.5 73.5Q697 60 639 60H544L541 119Q517 87 481.5 67Q446 47 400 47Q351 47 317 64Q283 81 263 112Q243 143 237 185.5Q231 228 238 278L243 316Q250 366 266.5 408Q283 450 310 480Q337 510 373 526.5Q409 543 455 543Q508 543 540.5 523Q573 503 590 471L606 530H728L702 393L672 162Q714 162 745.5 171.5Q777 181 799.5 204Q822 227 835.5 265.5Q849 304 857 362L862 400Q873 484 848.5 539.5Q824 595 777.5 628.5Q731 662 669 676Q607 690 544 690H534Q452 690 382.5 667Q313 644 259.5 597.5Q206 551 170.5 481Q135 411 123 316L118 278Q105 182 126 109.5Q147 37 194 -11.5Q241 -60 310.5 -85Q380 -110 464 -110Z" glyph-name="at" horiz-adv-x="991" unicode="@" /><glyph d="M576 474Q568 488 549 504.5Q530 521 495 521Q453 521 430 494Q407 467 400 416L395 378Q388 327 404.5 298Q421 269 465 269Q497 269 520.5 285.5Q544 302 555 316ZM487 -10Q578 -10 659 19Q740 48 811 100L863 18Q809 -23 756.5 -48.5Q704 -74 655 -88.5Q606 -103 562 -108Q518 -113 482 -113Q368 -113 276.5 -79.5Q185 -46 124.5 17Q64 80 37.5 171Q11 262 26 378L31 416Q47 534 93 623.5Q139 713 208 773Q277 833 365 863Q453 893 552 893Q648 893 732 870Q816 847 875.5 798.5Q935 750 964 676Q993 602 980 500L975 462Q963 372 933 313.5Q903 255 860 221Q817 187 763.5 173.5Q710 160 652 160H557L554 219Q530 187 494.5 167Q459 147 413 147Q364 147 330 164Q296 181 276 212Q256 243 250 285.5Q244 328 251 378L256 416Q263 466 279.5 508Q296 550 323 580Q350 610 386 626.5Q422 643 468 643Q521 643 553.5 623Q586 603 603 571L619 630H741L715 493L685 262Q727 262 758.5 271.5Q790 281 812.5 304Q835 327 848.5 365.5Q862 404 870 462L875 500Q886 584 861.5 639.5Q837 695 790.5 728.5Q744 762 682 776Q620 790 557 790H547Q465 790 395.5 767Q326 744 272.5 697.5Q219 651 183.5 581Q148 511 136 416L131 378Q118 282 139 209.5Q160 137 207 88.5Q254 40 323.5 15Q393 -10 477 -10Z" glyph-name="at.cap" horiz-adv-x="991" unicode="&#58643;" /><glyph d="M208 115Q252 115 276.5 131Q301 147 315 163L327 252L229 237Q194 232 179.5 214.5Q165 197 162 179L160 166Q157 145 167.5 130Q178 115 208 115ZM320 59Q285 26 248 6.5Q211 -13 155 -13Q110 -13 78.5 0.5Q47 14 28 36Q9 58 2 87Q-5 116 -1 148L1 163Q7 207 23.5 235.5Q40 264 66.5 282Q93 300 128.5 309.5Q164 319 209 326L339 346L340 354Q345 390 329 406.5Q313 423 274 423Q233 423 215.5 402.5Q198 382 196 355H47L49 370Q54 408 67 439.5Q80 471 106.5 494Q133 517 175 530Q217 543 280 543Q343 543 387 528.5Q431 514 457.5 488Q484 462 493 424.5Q502 387 496 341L471 149L461 0H320ZM527 772Q524 730 512 700Q500 670 482.5 650.5Q465 631 444 622Q423 613 401 613Q375 613 353.5 621Q332 629 313 639Q294 649 277.5 657Q261 665 245 665Q233 665 222 656.5Q211 648 211 628H106Q109 670 121 700Q133 730 150.5 749.5Q168 769 189 778Q210 787 232 787Q257 787 279 779Q301 771 320 761Q339 751 355.5 743Q372 735 388 735Q400 735 411 743.5Q422 752 422 772Z" glyph-name="atilde" horiz-adv-x="549" unicode="&#227;" /><glyph d="M265 123Q312 123 336.5 154.5Q361 186 369 246L374 284Q391 407 300 407Q281 407 266.5 402Q252 397 240.5 389.5Q229 382 221.5 373.5Q214 365 208 358L184 175Q191 160 210.5 141.5Q230 123 265 123ZM225 488Q248 514 281 528.5Q314 543 362 543Q413 543 448.5 524.5Q484 506 505.5 472.5Q527 439 533.5 391Q540 343 532 284L527 246Q519 189 502.5 141Q486 93 458.5 59Q431 25 392 6Q353 -13 302 -13Q245 -13 209 8.5Q173 30 155 65L137 0H-5L23 150L108 800H266Z" glyph-name="b" horiz-adv-x="574" unicode="b" /><glyph d="M76 840H230L334 -120H180Z" glyph-name="backslash" horiz-adv-x="412" unicode="\" /><glyph d="M225 780 315 0H161L71 780Z" glyph-name="backslash.cap" horiz-adv-x="381" unicode="&#58466;" /><glyph d="M238 168V362H432V168ZM209 391V139H461V391ZM600 530V0H70V530Z" glyph-name="ballotboxwithx" horiz-adv-x="680" unicode="&#9746;" /><glyph d="M115 840H269L143 -120H-11Z" glyph-name="bar" horiz-adv-x="261" unicode="|" /><glyph d="M107 780H261L159 0H5Z" glyph-name="bar.cap" horiz-adv-x="261" unicode="&#58467;" /><glyph d="M259 845H126L139 945H272ZM265 123Q312 123 336.5 154.5Q361 186 369 246L374 284Q391 407 300 407Q281 407 266.5 402Q252 397 240.5 389.5Q229 382 221.5 373.5Q214 365 208 358L184 175Q191 160 210.5 141.5Q230 123 265 123ZM225 488Q248 514 281 528.5Q314 543 362 543Q413 543 448.5 524.5Q484 506 505.5 472.5Q527 439 533.5 391Q540 343 532 284L527 246Q519 189 502.5 141Q486 93 458.5 59Q431 25 392 6Q353 -13 302 -13Q245 -13 209 8.5Q173 30 155 65L137 0H-5L23 150L108 800H266Z" glyph-name="bdotaccent" horiz-adv-x="574" unicode="&#7683;" /><glyph d="M57 390Q57 474 88.5 547Q120 620 175 675Q230 730 303 761.5Q376 793 460 793Q544 793 617 761.5Q690 730 745 675Q800 620 831.5 547Q863 474 863 390Q863 306 831.5 233Q800 160 745 105Q690 50 617 18.5Q544 -13 460 -13Q376 -13 303 18.5Q230 50 175 105Q120 160 88.5 233Q57 306 57 390Z" glyph-name="blackcircle" horiz-adv-x="920" unicode="&#9679;" /><glyph d="M70 0V530H600V0Z" glyph-name="blacksmallsquare" horiz-adv-x="680" unicode="&#9642;" /><glyph d="M70 0V780H850V0Z" glyph-name="blacksquare" horiz-adv-x="920" unicode="&#9632;" /><glyph d="M375 702Q338 702 316.5 686.5Q295 671 289 626L269 476Q263 428 244 402.5Q225 377 190 360Q220 343 232.5 317.5Q245 292 239 244L220 103Q213 53 230 35.5Q247 18 285 18L267 -120H240Q197 -120 160.5 -111.5Q124 -103 98.5 -82.5Q73 -62 61.5 -27.5Q50 7 57 58L78 217Q83 258 66 274.5Q49 291 13 291L31 429Q69 429 90 447Q111 465 117 511L137 662Q143 712 162.5 746Q182 780 211.5 801Q241 822 280 831Q319 840 366 840H393Z" glyph-name="braceleft" horiz-adv-x="365" unicode="{" /><glyph d="M367 642Q330 642 308.5 626.5Q287 611 281 566L273 506Q267 458 248 432.5Q229 407 194 390Q224 373 236.5 347.5Q249 322 243 274L236 223Q229 173 246 155.5Q263 138 301 138L283 0H256Q213 0 176.5 8.5Q140 17 114.5 37.5Q89 58 77.5 92.5Q66 127 73 178L82 247Q87 288 70 304.5Q53 321 17 321L35 459Q73 459 94 477Q115 495 121 541L129 602Q135 652 154.5 686Q174 720 203.5 741Q233 762 272 771Q311 780 358 780H385Z" glyph-name="braceleft.cap" horiz-adv-x="365" unicode="&#58517;" /><glyph d="M-14 18Q23 18 44.5 33.5Q66 49 72 94L92 244Q98 292 117 317.5Q136 343 171 360Q141 377 128.5 402.5Q116 428 122 476L141 617Q148 667 131 684.5Q114 702 76 702L94 840H121Q164 840 200.5 831.5Q237 823 262.5 802.5Q288 782 299.5 747.5Q311 713 304 662L283 503Q278 462 295 445.5Q312 429 348 429L330 291Q292 291 271 273Q250 255 244 209L224 58Q218 8 198.5 -26Q179 -60 149.5 -81Q120 -102 80.5 -111Q41 -120 -5 -120H-32Z" glyph-name="braceright" horiz-adv-x="365" unicode="}" /><glyph d="M2 138Q39 138 60.5 153.5Q82 169 88 214L96 274Q102 322 121 347.5Q140 373 175 390Q145 407 132.5 432.5Q120 458 126 506L133 557Q140 607 123 624.5Q106 642 68 642L86 780H113Q156 780 192.5 771.5Q229 763 254.5 742.5Q280 722 291.5 687.5Q303 653 296 602L287 533Q282 492 299 475.5Q316 459 352 459L334 321Q296 321 275 303Q254 285 248 239L240 178Q234 128 214.5 94Q195 60 165.5 39Q136 18 96.5 9Q57 0 11 0H-16Z" glyph-name="braceright.cap" horiz-adv-x="365" unicode="&#58518;" /><glyph d="M393 840 375 702H258L168 18H285L267 -120H-7L119 840Z" glyph-name="bracketleft" horiz-adv-x="365" unicode="[" /><glyph d="M385 780 367 642H250L184 138H301L283 0H9L111 780Z" glyph-name="bracketleft.cap" horiz-adv-x="365" unicode="&#58515;" /><glyph d="M-32 -120 -14 18H103L193 702H76L94 840H368L242 -120Z" glyph-name="bracketright" horiz-adv-x="365" unicode="]" /><glyph d="M-16 0 2 138H119L185 642H68L86 780H360L258 0Z" glyph-name="bracketright.cap" horiz-adv-x="365" unicode="&#58516;" /><glyph d="M277 582Q224 582 190 597Q156 612 137.5 638.5Q119 665 114.5 701Q110 737 116 780H227Q221 735 240 718.5Q259 702 291 702Q323 702 346 718.5Q369 735 375 780H490Q485 737 471 701Q457 665 431.5 638.5Q406 612 367.5 597Q329 582 277 582Z" glyph-name="breve" horiz-adv-x="500" unicode="&#728;" /><glyph d="M314 825Q260 825 225.5 835Q191 845 171.5 862Q152 879 146 901.5Q140 924 143 950H250Q249 930 265.5 920Q282 910 318 910Q354 910 375.5 920Q397 930 398 950H509Q506 924 495.5 901.5Q485 879 463 862Q441 845 405 835Q369 825 314 825Z" glyph-name="breve.cap" horiz-adv-x="500" unicode="&#58406;" /><glyph d="M49 336H203L143 -120H-11ZM115 840H269L209 384H55Z" glyph-name="brokenbar" horiz-adv-x="261" unicode="&#166;" /><glyph d="M53 366H207L159 0H5ZM107 780H261L213 414H59Z" glyph-name="brokenbar.cap" horiz-adv-x="261" unicode="&#58469;" /><glyph d="M358 189H37L79 511H400Z" glyph-name="bullet" horiz-adv-x="445" unicode="&#8226;" /><glyph d="M364 229H43L85 551H406Z" glyph-name="bullet.cap" horiz-adv-x="445" unicode="&#58470;" /><glyph d="M171 246Q163 186 178.5 154.5Q194 123 240 123Q278 123 299.5 145Q321 167 325 196H474L472 181Q460 89 402.5 38Q345 -13 235 -13Q171 -13 125.5 6.5Q80 26 52.5 60.5Q25 95 15 142.5Q5 190 13 246L18 284Q26 342 45 390Q64 438 96.5 472Q129 506 174.5 524.5Q220 543 282 543Q400 543 453 489.5Q506 436 493 339L491 324H342Q347 359 332.5 383Q318 407 277 407Q237 407 210.5 378Q184 349 176 284Z" glyph-name="c" horiz-adv-x="527" unicode="c" /><glyph d="M171 246Q163 186 178.5 154.5Q194 123 240 123Q278 123 299.5 145Q321 167 325 196H474L472 181Q460 89 402.5 38Q345 -13 235 -13Q171 -13 125.5 6.5Q80 26 52.5 60.5Q25 95 15 142.5Q5 190 13 246L18 284Q26 342 45 390Q64 438 96.5 472Q129 506 174.5 524.5Q220 543 282 543Q400 543 453 489.5Q506 436 493 339L491 324H342Q347 359 332.5 383Q318 407 277 407Q237 407 210.5 378Q184 349 176 284ZM508 780 377 596H221L336 780Z" glyph-name="cacute" horiz-adv-x="527" unicode="&#263;" /><glyph d="M228 780 289 697 372 780H513L355 596H203L93 780Z" glyph-name="caron" horiz-adv-x="500" unicode="&#711;" /><glyph d="M261 950 318 900 385 950H530L391 840H231L122 950Z" glyph-name="caron.cap" horiz-adv-x="500" unicode="&#58413;" /><glyph d="M457 800 405 596H335L362 800Z" glyph-name="caronSlovak" horiz-adv-x="500" unicode="&#58387;" /><glyph d="M171 246Q163 186 178.5 154.5Q194 123 240 123Q278 123 299.5 145Q321 167 325 196H474L472 181Q460 89 402.5 38Q345 -13 235 -13Q171 -13 125.5 6.5Q80 26 52.5 60.5Q25 95 15 142.5Q5 190 13 246L18 284Q26 342 45 390Q64 438 96.5 472Q129 506 174.5 524.5Q220 543 282 543Q400 543 453 489.5Q506 436 493 339L491 324H342Q347 359 332.5 383Q318 407 277 407Q237 407 210.5 378Q184 349 176 284ZM248 780 309 697 392 780H533L375 596H223L113 780Z" glyph-name="ccaron" horiz-adv-x="527" unicode="&#269;" /><glyph d="M171 246Q163 186 178.5 154.5Q194 123 240 123Q278 123 299.5 145Q321 167 325 196H474L472 181Q460 92 406.5 41.5Q353 -9 250 -13L236 -40Q275 -43 300.5 -60.5Q326 -78 326 -118Q326 -163 291.5 -189Q257 -215 200 -215Q158 -215 130.5 -207Q103 -199 89 -190L121 -124Q132 -132 152 -136.5Q172 -141 195 -141Q241 -141 241 -116Q241 -95 196 -95Q189 -95 182 -96Q175 -97 170 -98Q163 -99 157 -100L146 -72L180 -9Q82 7 41 76.5Q0 146 13 246L18 284Q26 342 45 390Q64 438 96.5 472Q129 506 174.5 524.5Q220 543 282 543Q400 543 453 489.5Q506 436 493 339L491 324H342Q347 359 332.5 383Q318 407 277 407Q237 407 210.5 378Q184 349 176 284Z" glyph-name="ccedilla" horiz-adv-x="527" unicode="&#231;" /><glyph d="M171 246Q163 186 178.5 154.5Q194 123 240 123Q278 123 299.5 145Q321 167 325 196H474L472 181Q460 89 402.5 38Q345 -13 235 -13Q171 -13 125.5 6.5Q80 26 52.5 60.5Q25 95 15 142.5Q5 190 13 246L18 284Q26 342 45 390Q64 438 96.5 472Q129 506 174.5 524.5Q220 543 282 543Q400 543 453 489.5Q506 436 493 339L491 324H342Q347 359 332.5 383Q318 407 277 407Q237 407 210.5 378Q184 349 176 284ZM374 596 313 679 230 596H89L247 780H399L509 596Z" glyph-name="ccircumflex" horiz-adv-x="527" unicode="&#265;" /><glyph d="M171 246Q163 186 178.5 154.5Q194 123 240 123Q278 123 299.5 145Q321 167 325 196H474L472 181Q460 89 402.5 38Q345 -13 235 -13Q171 -13 125.5 6.5Q80 26 52.5 60.5Q25 95 15 142.5Q5 190 13 246L18 284Q26 342 45 390Q64 438 96.5 472Q129 506 174.5 524.5Q220 543 282 543Q400 543 453 489.5Q506 436 493 339L491 324H342Q347 359 332.5 383Q318 407 277 407Q237 407 210.5 378Q184 349 176 284ZM384 605H217L239 772H406Z" glyph-name="cdotaccent" horiz-adv-x="527" unicode="&#267;" /><glyph d="M101 -124Q112 -132 132 -136.5Q152 -141 175 -141Q221 -141 221 -116Q221 -95 176 -95Q169 -95 162 -96Q155 -97 150 -98Q143 -99 137 -100L126 -72L165 0H237L216 -40Q255 -43 280.5 -60.5Q306 -78 306 -118Q306 -163 271.5 -189Q237 -215 180 -215Q138 -215 110.5 -207Q83 -199 69 -190Z" glyph-name="cedilla" horiz-adv-x="602" unicode="&#184;" /><glyph d="M71 -60 125 89Q66 126 45 197Q24 268 38 371L43 409Q65 575 138 653Q211 731 344 731Q349 731 354 731Q359 731 364 730L404 840H525L476 706Q532 681 560 629Q588 577 577 496L573 466H417Q423 502 419 526Q415 550 404 565Q393 580 374.5 586.5Q356 593 334 593Q283 593 249.5 550Q216 507 203 409L199 379Q187 286 207 237.5Q227 189 290 189Q335 189 361.5 214.5Q388 240 395 294H550L548 281Q531 172 465.5 111.5Q400 51 282 51Q269 51 257 51.5Q245 52 234 53L192 -60Z" glyph-name="cent" horiz-adv-x="600" unicode="&#162;" /><glyph d="M354 596 293 679 210 596H69L227 780H379L489 596Z" glyph-name="circumflex" horiz-adv-x="500" unicode="&#710;" /><glyph d="M376 840 319 890 252 840H107L246 950H406L515 840Z" glyph-name="circumflex.cap" horiz-adv-x="500" unicode="&#58403;" /><glyph d="M349 0Q368 37 381.5 73Q395 109 404.5 147Q414 185 420.5 227Q427 269 431 320L428 321Q415 290 396 261Q377 232 352 209.5Q327 187 296 173.5Q265 160 228 160Q191 160 159 173.5Q127 187 103 210.5Q79 234 65.5 265.5Q52 297 52 334Q52 373 64.5 406Q77 439 100 463Q123 487 155 500.5Q187 514 226 514Q252 514 272.5 507Q293 500 310 491L312 493Q295 518 284.5 547.5Q274 577 274 610Q274 647 287.5 680Q301 713 324.5 737.5Q348 762 380 776Q412 790 450 790Q488 790 520 776Q552 762 575.5 737.5Q599 713 612.5 680Q626 647 626 610Q626 577 615.5 547.5Q605 518 588 493L590 491Q607 500 627.5 507Q648 514 674 514Q713 514 745 500.5Q777 487 800 463Q823 439 835.5 406Q848 373 848 334Q848 297 834.5 265.5Q821 234 797 210.5Q773 187 741 173.5Q709 160 672 160Q635 160 604 173.5Q573 187 548 209.5Q523 232 504 261Q485 290 472 321L469 320Q473 269 479.5 227Q486 185 495.5 147Q505 109 518.5 73Q532 37 551 0Z" glyph-name="club" horiz-adv-x="900" unicode="&#9827;" /><glyph d="M209 307H42L64 474H231ZM168 0H1L23 167H190Z" glyph-name="colon" horiz-adv-x="266" unicode=":" /><glyph d="M226 307H59L81 474H248ZM185 0H18L40 167H207Z" glyph-name="colon.T" horiz-adv-x="300" unicode="&#61828;" /><glyph d="M173 37Q161 -56 112 -99.5Q63 -143 -22 -143L-12 -67Q26 -67 52 -50.5Q78 -34 86 0H1L23 167H190Z" glyph-name="comma" horiz-adv-x="266" unicode="," /><glyph d="M190 37Q178 -56 129 -99.5Q80 -143 -5 -143L5 -67Q43 -67 69 -50.5Q95 -34 103 0H18L40 167H207Z" glyph-name="comma.T" horiz-adv-x="300" unicode="&#61827;" /><glyph d="M258 -101Q248 -171 209 -198.5Q170 -226 95 -226L102 -171Q130 -171 156.5 -164.5Q183 -158 191 -136H112L124 -44H266Z" glyph-name="commaaccent" horiz-adv-x="602" unicode="&#58388;" /><glyph d="M247 865Q254 922 292.5 945.5Q331 969 400 969L395 929Q369 929 344 924.5Q319 920 310 900H386L378 840H244Z" glyph-name="commaaccent.cap" horiz-adv-x="500" unicode="&#58414;" /><glyph d="M463 264Q499 264 516 282.5Q533 301 533 327H666V307Q666 272 653.5 241.5Q641 211 615.5 188.5Q590 166 551 153.5Q512 141 460 141Q403 141 362 158.5Q321 176 294.5 207.5Q268 239 256 281Q244 323 244 373V407Q244 456 256 498.5Q268 541 294.5 572.5Q321 604 362 621.5Q403 639 460 639Q512 639 551 626Q590 613 615.5 590Q641 567 653.5 535Q666 503 666 465V444H533Q533 478 515.5 497Q498 516 463 516Q419 516 402 485.5Q385 455 385 407V373Q385 325 402 294.5Q419 264 463 264ZM113 390Q113 318 140 255Q167 192 214.5 144.5Q262 97 325 70Q388 43 460 43Q532 43 595 70Q658 97 705.5 144.5Q753 192 780 255Q807 318 807 390Q807 462 780 525Q753 588 705.5 635.5Q658 683 595 710Q532 737 460 737Q388 737 325 710Q262 683 214.5 635.5Q167 588 140 525Q113 462 113 390ZM57 390Q57 474 88.5 547Q120 620 175 675Q230 730 303 761.5Q376 793 460 793Q544 793 617 761.5Q690 730 745 675Q800 620 831.5 547Q863 474 863 390Q863 306 831.5 233Q800 160 745 105Q690 50 617 18.5Q544 -13 460 -13Q376 -13 303 18.5Q230 50 175 105Q120 160 88.5 233Q57 306 57 390Z" glyph-name="copyright" horiz-adv-x="920" unicode="&#169;" /><glyph d="M287 407Q240 407 215.5 375.5Q191 344 183 284L178 246Q161 123 252 123Q271 123 285.5 128Q300 133 311.5 140.5Q323 148 330.5 156.5Q338 165 344 172L368 355Q364 362 357.5 371.5Q351 381 341.5 388.5Q332 396 318.5 401.5Q305 407 287 407ZM190 -13Q139 -13 103.5 5Q68 23 46.5 57Q25 91 18.5 139Q12 187 20 246L25 284Q32 341 49 389Q66 437 93.5 471Q121 505 160 524Q199 543 250 543Q306 543 339.5 523Q373 503 385 484L427 800H585L499 149L489 0H348V70Q325 33 287.5 10Q250 -13 190 -13Z" glyph-name="d" horiz-adv-x="582" unicode="d" /><glyph d="M307 800 284 666H205L218 800ZM415 572 283 577 294 655 426 660ZM61 660 193 655 182 577 50 572ZM192 566H271L259 437L237 307H158L170 437Z" glyph-name="dagger" horiz-adv-x="413" unicode="&#8224;" /><glyph d="M384 338 252 343 263 421 395 426ZM30 426 162 421 151 343 19 338ZM161 332H240L228 203L206 73H127L139 203ZM415 572 283 577 294 655 426 660ZM61 660 193 655 182 577 50 572ZM192 566H271L267 499L253 432H174L178 499ZM307 800 284 666H205L218 800Z" glyph-name="daggerdbl" horiz-adv-x="413" unicode="&#8225;" /><glyph d="M735 800 683 596H613L640 800ZM287 407Q240 407 215.5 375.5Q191 344 183 284L178 246Q161 123 252 123Q271 123 285.5 128Q300 133 311.5 140.5Q323 148 330.5 156.5Q338 165 344 172L368 355Q364 362 357.5 371.5Q351 381 341.5 388.5Q332 396 318.5 401.5Q305 407 287 407ZM190 -13Q139 -13 103.5 5Q68 23 46.5 57Q25 91 18.5 139Q12 187 20 246L25 284Q32 341 49 389Q66 437 93.5 471Q121 505 160 524Q199 543 250 543Q306 543 339.5 523Q373 503 385 484L427 800H585L499 149L489 0H348V70Q325 33 287.5 10Q250 -13 190 -13Z" glyph-name="dcaron" horiz-adv-x="582" unicode="&#271;" /><glyph d="M287 407Q240 407 215.5 375.5Q191 344 183 284L178 246Q161 123 252 123Q271 123 285.5 128Q300 133 311.5 140.5Q323 148 330.5 156.5Q338 165 344 172L368 355Q364 362 357.5 371.5Q351 381 341.5 388.5Q332 396 318.5 401.5Q305 407 287 407ZM304 721H416L427 800H585L574 721H642L627 609H560L499 149L489 0H348V70Q325 33 287.5 10Q250 -13 190 -13Q139 -13 103.5 5Q68 23 46.5 57Q25 91 18.5 139Q12 187 20 246L25 284Q32 341 49 389Q66 437 93.5 471Q121 505 160 524Q199 543 250 543Q306 543 339.5 523Q373 503 385 484L401 609H289Z" glyph-name="dcroat" horiz-adv-x="582" unicode="&#273;" /><glyph d="M578 845H445L458 945H591ZM287 407Q240 407 215.5 375.5Q191 344 183 284L178 246Q161 123 252 123Q271 123 285.5 128Q300 133 311.5 140.5Q323 148 330.5 156.5Q338 165 344 172L368 355Q364 362 357.5 371.5Q351 381 341.5 388.5Q332 396 318.5 401.5Q305 407 287 407ZM190 -13Q139 -13 103.5 5Q68 23 46.5 57Q25 91 18.5 139Q12 187 20 246L25 284Q32 341 49 389Q66 437 93.5 471Q121 505 160 524Q199 543 250 543Q306 543 339.5 523Q373 503 385 484L427 800H585L499 149L489 0H348V70Q325 33 287.5 10Q250 -13 190 -13Z" glyph-name="ddotaccent" horiz-adv-x="582" unicode="&#7691;" /><glyph d="M300 635Q302 659 287.5 678Q273 697 244 697H234Q206 697 188 679Q170 661 168 635L167 624Q165 600 179.5 581Q194 562 223 562H233Q261 562 279 580Q297 598 299 624ZM245 793Q281 793 310.5 782.5Q340 772 360 752Q380 732 390 703Q400 674 397 636L396 625Q393 587 377.5 557.5Q362 528 338.5 507.5Q315 487 285 476.5Q255 466 222 466Q186 466 156.5 476.5Q127 487 107 507Q87 527 77 556Q67 585 70 623L71 634Q74 672 89.5 701.5Q105 731 128.5 751.5Q152 772 182 782.5Q212 793 245 793Z" glyph-name="degree" horiz-adv-x="400" unicode="&#176;" /><glyph d="M817 390Q764 348 712.5 300.5Q661 253 614 201.5Q567 150 525.5 96.5Q484 43 451 -10H449Q416 43 374.5 96.5Q333 150 286 201.5Q239 253 187.5 300.5Q136 348 83 390Q136 432 187.5 479.5Q239 527 286 578.5Q333 630 374.5 683.5Q416 737 449 790H451Q484 737 525.5 683.5Q567 630 614 578.5Q661 527 712.5 479.5Q764 432 817 390Z" glyph-name="diamond" horiz-adv-x="900" unicode="&#9830;" /><glyph d="M471 605H304L326 772H493ZM256 605H89L111 772H278Z" glyph-name="dieresis" horiz-adv-x="500" unicode="&#168;" /><glyph d="M466 845H333L346 945H479ZM291 845H158L171 945H304Z" glyph-name="dieresis.cap" horiz-adv-x="500" unicode="&#58409;" /><glyph d="M201 266H368L346 99H179ZM401 514H234L256 681H423ZM52 460H568L550 320H34Z" glyph-name="divide" horiz-adv-x="600" unicode="&#247;" /><glyph d="M263 333Q156 352 108 395Q60 438 70 522L72 539Q83 630 154 680.5Q225 731 335 731Q344 731 352.5 731Q361 731 369 730L410 840H531L480 702Q535 675 556 624Q577 573 568 502L566 491H409Q417 543 398.5 572Q380 601 326 601H321Q277 601 253 580Q229 559 229 524Q229 509 235 498Q241 487 254.5 478.5Q268 470 290.5 464Q313 458 346 453Q394 445 433 430.5Q472 416 498 393Q524 370 536 338Q548 306 543 264L541 247Q530 151 459.5 101Q389 51 268 51Q260 51 253 51Q246 51 239 52L198 -60H77L127 77Q70 103 44.5 153Q19 203 31 274L32 281H191Q183 234 206.5 207Q230 180 280 180H285Q331 180 356 200Q381 220 381 256Q381 291 351 306.5Q321 322 263 333Z" glyph-name="dollar" horiz-adv-x="600" unicode="$" /><glyph d="M364 605H197L219 772H386Z" glyph-name="dotaccent" horiz-adv-x="500" unicode="&#729;" /><glyph d="M378 845H245L258 945H391Z" glyph-name="dotaccent.cap" horiz-adv-x="500" unicode="&#58408;" /><glyph d="M119 -49H270L250 -200H99Z" glyph-name="dotbelow" horiz-adv-x="602" unicode="&#58389;" /><glyph d="M74 530H232L163 0H5Z" glyph-name="dotlessi" horiz-adv-x="266" unicode="&#305;" /><glyph d="M74 530H232L160 -23Q153 -75 134.5 -111Q116 -147 87.5 -169.5Q59 -192 22 -202.5Q-15 -213 -60 -213Q-98 -213 -119 -208Q-140 -203 -147 -200L-130 -70Q-126 -72 -112.5 -74.5Q-99 -77 -80 -77Q-48 -77 -25 -64Q-2 -51 4 -6Z" glyph-name="dotlessj" horiz-adv-x="268" unicode="&#567;" /><glyph d="M312 840H466L340 -120H186ZM115 840H269L143 -120H-11Z" glyph-name="doublebar" horiz-adv-x="459" unicode="&#8214;" /><glyph d="M304 780H458L356 0H202ZM107 780H261L159 0H5Z" glyph-name="doublebar.cap" horiz-adv-x="459" unicode="&#58468;" /><glyph d="M194 780 261 596H138L55 780ZM378 780 421 596H298L238 780Z" glyph-name="doublegrave" horiz-adv-x="500" unicode="&#58386;" /><glyph d="M258 950 297 840H158L109 950ZM433 950 464 840H325L284 950Z" glyph-name="doublegrave.cap" horiz-adv-x="500" unicode="&#58412;" /><glyph d="M287 423Q244 423 215.5 398Q187 373 178 322H361Q369 423 287 423ZM163 208Q156 153 181.5 130Q207 107 252 107Q300 107 322.5 124Q345 141 350 170H499L497 155Q492 119 474.5 88.5Q457 58 426.5 35.5Q396 13 352.5 0Q309 -13 252 -13Q181 -13 132.5 6.5Q84 26 54.5 60.5Q25 95 15 142.5Q5 190 13 246L18 284Q25 339 44.5 386.5Q64 434 97 469Q130 504 177 523.5Q224 543 287 543Q356 543 402.5 521.5Q449 500 475.5 462Q502 424 510 371Q518 318 510 255L504 208Z" glyph-name="e" horiz-adv-x="556" unicode="e" /><glyph d="M287 423Q244 423 215.5 398Q187 373 178 322H361Q369 423 287 423ZM163 208Q156 153 181.5 130Q207 107 252 107Q300 107 322.5 124Q345 141 350 170H499L497 155Q492 119 474.5 88.5Q457 58 426.5 35.5Q396 13 352.5 0Q309 -13 252 -13Q181 -13 132.5 6.5Q84 26 54.5 60.5Q25 95 15 142.5Q5 190 13 246L18 284Q25 339 44.5 386.5Q64 434 97 469Q130 504 177 523.5Q224 543 287 543Q356 543 402.5 521.5Q449 500 475.5 462Q502 424 510 371Q518 318 510 255L504 208ZM519 780 388 596H232L347 780Z" glyph-name="eacute" horiz-adv-x="556" unicode="&#233;" /><glyph d="M287 423Q244 423 215.5 398Q187 373 178 322H361Q369 423 287 423ZM163 208Q156 153 181.5 130Q207 107 252 107Q300 107 322.5 124Q345 141 350 170H499L497 155Q492 119 474.5 88.5Q457 58 426.5 35.5Q396 13 352.5 0Q309 -13 252 -13Q181 -13 132.5 6.5Q84 26 54.5 60.5Q25 95 15 142.5Q5 190 13 246L18 284Q25 339 44.5 386.5Q64 434 97 469Q130 504 177 523.5Q224 543 287 543Q356 543 402.5 521.5Q449 500 475.5 462Q502 424 510 371Q518 318 510 255L504 208ZM308 582Q255 582 221 597Q187 612 168.5 638.5Q150 665 145.5 701Q141 737 147 780H258Q252 735 271 718.5Q290 702 322 702Q354 702 377 718.5Q400 735 406 780H521Q516 737 502 701Q488 665 462.5 638.5Q437 612 398.5 597Q360 582 308 582Z" glyph-name="ebreve" horiz-adv-x="556" unicode="&#277;" /><glyph d="M287 423Q244 423 215.5 398Q187 373 178 322H361Q369 423 287 423ZM163 208Q156 153 181.5 130Q207 107 252 107Q300 107 322.5 124Q345 141 350 170H499L497 155Q492 119 474.5 88.5Q457 58 426.5 35.5Q396 13 352.5 0Q309 -13 252 -13Q181 -13 132.5 6.5Q84 26 54.5 60.5Q25 95 15 142.5Q5 190 13 246L18 284Q25 339 44.5 386.5Q64 434 97 469Q130 504 177 523.5Q224 543 287 543Q356 543 402.5 521.5Q449 500 475.5 462Q502 424 510 371Q518 318 510 255L504 208ZM259 780 320 697 403 780H544L386 596H234L124 780Z" glyph-name="ecaron" horiz-adv-x="556" unicode="&#283;" /><glyph d="M287 423Q244 423 215.5 398Q187 373 178 322H361Q369 423 287 423ZM163 208Q156 153 181.5 130Q207 107 252 107Q300 107 322.5 124Q345 141 350 170H499L497 155Q492 119 474.5 88.5Q457 58 426.5 35.5Q396 13 352.5 0Q309 -13 252 -13Q181 -13 132.5 6.5Q84 26 54.5 60.5Q25 95 15 142.5Q5 190 13 246L18 284Q25 339 44.5 386.5Q64 434 97 469Q130 504 177 523.5Q224 543 287 543Q356 543 402.5 521.5Q449 500 475.5 462Q502 424 510 371Q518 318 510 255L504 208ZM385 596 324 679 241 596H100L258 780H410L520 596Z" glyph-name="ecircumflex" horiz-adv-x="556" unicode="&#234;" /><glyph d="M287 423Q244 423 215.5 398Q187 373 178 322H361Q369 423 287 423ZM163 208Q156 153 181.5 130Q207 107 252 107Q300 107 322.5 124Q345 141 350 170H499L497 155Q492 119 474.5 88.5Q457 58 426.5 35.5Q396 13 352.5 0Q309 -13 252 -13Q181 -13 132.5 6.5Q84 26 54.5 60.5Q25 95 15 142.5Q5 190 13 246L18 284Q25 339 44.5 386.5Q64 434 97 469Q130 504 177 523.5Q224 543 287 543Q356 543 402.5 521.5Q449 500 475.5 462Q502 424 510 371Q518 318 510 255L504 208ZM502 605H335L357 772H524ZM287 605H120L142 772H309Z" glyph-name="edieresis" horiz-adv-x="556" unicode="&#235;" /><glyph d="M287 423Q244 423 215.5 398Q187 373 178 322H361Q369 423 287 423ZM163 208Q156 153 181.5 130Q207 107 252 107Q300 107 322.5 124Q345 141 350 170H499L497 155Q492 119 474.5 88.5Q457 58 426.5 35.5Q396 13 352.5 0Q309 -13 252 -13Q181 -13 132.5 6.5Q84 26 54.5 60.5Q25 95 15 142.5Q5 190 13 246L18 284Q25 339 44.5 386.5Q64 434 97 469Q130 504 177 523.5Q224 543 287 543Q356 543 402.5 521.5Q449 500 475.5 462Q502 424 510 371Q518 318 510 255L504 208ZM395 605H228L250 772H417Z" glyph-name="edotaccent" horiz-adv-x="556" unicode="&#279;" /><glyph d="M287 423Q244 423 215.5 398Q187 373 178 322H361Q369 423 287 423ZM163 208Q156 153 181.5 130Q207 107 252 107Q300 107 322.5 124Q345 141 350 170H499L497 155Q492 119 474.5 88.5Q457 58 426.5 35.5Q396 13 352.5 0Q309 -13 252 -13Q181 -13 132.5 6.5Q84 26 54.5 60.5Q25 95 15 142.5Q5 190 13 246L18 284Q25 339 44.5 386.5Q64 434 97 469Q130 504 177 523.5Q224 543 287 543Q356 543 402.5 521.5Q449 500 475.5 462Q502 424 510 371Q518 318 510 255L504 208ZM321 780 388 596H232L149 780Z" glyph-name="egrave" horiz-adv-x="556" unicode="&#232;" /><glyph d="M335 653Q290 653 261.5 630Q233 607 228 562L227 554Q222 513 246 490.5Q270 468 304 468H315Q359 468 386.5 490.5Q414 513 419 558L420 566Q425 606 402.5 629.5Q380 653 345 653ZM285 328Q246 328 216 303Q186 278 180 227L179 219Q173 173 198 150Q223 127 264 127H274Q312 127 342.5 148.5Q373 170 380 223L381 231Q387 280 365 304Q343 328 299 328ZM264 -13Q196 -13 146.5 5Q97 23 66.5 54Q36 85 23.5 125Q11 165 17 209L20 231Q30 302 64 340.5Q98 379 151 397Q131 403 114 418.5Q97 434 85.5 456.5Q74 479 69 506Q64 533 68 562L71 584Q76 620 91.5 657Q107 694 138 724Q169 754 218 773.5Q267 793 338 793Q409 793 458 774Q507 755 536.5 724Q566 693 576.5 654.5Q587 616 582 577L579 555Q571 492 539 451.5Q507 411 459 397Q482 390 499.5 374Q517 358 527.5 334.5Q538 311 541.5 282.5Q545 254 541 221L538 199Q533 162 515.5 124.5Q498 87 465.5 56.5Q433 26 383 6.5Q333 -13 264 -13Z" glyph-name="eight" horiz-adv-x="600" unicode="8" /><glyph d="M88 -109Q105 -109 109 -81L110 -74Q113 -49 94 -49H92Q75 -49 71 -77L70 -84Q67 -109 86 -109ZM109 47Q114 47 118.5 51.5Q123 56 125 68L126 75Q129 99 115 99H113Q108 99 103.5 94.5Q99 90 97 78L96 71Q93 47 107 47ZM81 -213Q49 -213 23.5 -204.5Q-2 -196 -19.5 -180Q-37 -164 -45 -143Q-53 -122 -50 -96L-48 -81Q-43 -49 -26.5 -29.5Q-10 -10 13 -1Q-4 8 -16 28Q-28 48 -23 80L-21 95Q-19 109 -11 127.5Q-3 146 13.5 163Q30 180 55.5 191.5Q81 203 118 203Q159 203 185 190.5Q211 178 226 160Q241 142 245.5 122Q250 102 248 86L246 71Q241 39 224.5 23Q208 7 185 -1Q208 -9 220.5 -31Q233 -53 228 -85L226 -100Q218 -156 178.5 -184.5Q139 -213 81 -213Z" glyph-name="eight.inf" horiz-adv-x="300" unicode="&#58745;" /><glyph d="M1369 300Q1327 300 1298 292.5Q1269 285 1246 267Q1238 261 1232 251.5Q1226 242 1223 233Q1242 246 1269 246Q1311 245 1337 215.5Q1363 186 1356 131L1354 116Q1337 -13 1207 -13Q1169 -13 1143 -0.5Q1117 12 1102 33.5Q1087 55 1082 83Q1077 111 1081 142L1083 157Q1089 204 1107 247.5Q1125 291 1163 331Q1204 375 1258 389Q1312 403 1382 403ZM1218 143Q1210 143 1204 137L1199 132Q1198 130 1198 127Q1197 124 1197 117Q1197 91 1212 91H1214Q1221 91 1226.5 96.5Q1232 102 1234 113L1235 120Q1238 143 1220 143ZM778 0 791 103H863L882 245L844 222L796 307L932 392H1021L983 103H1054L1041 0ZM296 0 974 780H1108L430 0ZM329 390 342 493H414L433 635L395 612L347 697L483 782H572L534 493H605L592 390ZM29 390 42 493H114L133 635L95 612L47 697L183 782H272L234 493H305L292 390Z" glyph-name="elevensixteenths" horiz-adv-x="1400" unicode="&#61984;" /><glyph d="M853 0H686L708 167H875ZM533 0H366L388 167H555ZM213 0H46L68 167H235Z" glyph-name="ellipsis" horiz-adv-x="1000" unicode="&#8230;" /><glyph d="M287 423Q244 423 215.5 398Q187 373 178 322H361Q369 423 287 423ZM163 208Q156 153 181.5 130Q207 107 252 107Q300 107 322.5 124Q345 141 350 170H499L497 155Q492 119 474.5 88.5Q457 58 426.5 35.5Q396 13 352.5 0Q309 -13 252 -13Q181 -13 132.5 6.5Q84 26 54.5 60.5Q25 95 15 142.5Q5 190 13 246L18 284Q25 339 44.5 386.5Q64 434 97 469Q130 504 177 523.5Q224 543 287 543Q356 543 402.5 521.5Q449 500 475.5 462Q502 424 510 371Q518 318 510 255L504 208ZM181 757H481L463 619H163Z" glyph-name="emacron" horiz-adv-x="556" unicode="&#275;" /><glyph d="M45 419H965L947 281H27Z" glyph-name="emdash" horiz-adv-x="1000" unicode="&#8212;" /><glyph d="M50 459H970L952 321H32Z" glyph-name="emdash.cap" horiz-adv-x="1000" unicode="&#58502;" /><glyph glyph-name="emspace" horiz-adv-x="1000" unicode="&#8195;" /><glyph d="M45 419H465L447 281H27Z" glyph-name="endash" horiz-adv-x="500" unicode="&#8211;" /><glyph d="M50 459H470L452 321H32Z" glyph-name="endash.cap" horiz-adv-x="500" unicode="&#58500;" /><glyph d="M480 -23Q473 -75 454.5 -111Q436 -147 407.5 -169.5Q379 -192 342 -202.5Q305 -213 260 -213Q222 -213 201 -208Q180 -203 173 -200L190 -70Q194 -72 207.5 -74.5Q221 -77 240 -77Q272 -77 295 -64Q318 -51 324 -6L369 335Q374 370 360 388.5Q346 407 310 407Q276 407 249.5 390.5Q223 374 210 358L163 0H5L55 381L65 530H206V460Q236 496 279 519.5Q322 543 375 543Q423 543 455 529Q487 515 505.5 490Q524 465 529.5 431.5Q535 398 530 358Z" glyph-name="eng" horiz-adv-x="580" unicode="&#331;" /><glyph glyph-name="enspace" horiz-adv-x="500" unicode="&#8194;" /><glyph d="M287 423Q244 423 215.5 398Q187 373 178 322H361Q369 423 287 423ZM163 208Q156 153 181.5 130Q207 107 252 107Q300 107 322.5 124Q345 141 350 170H499L497 155Q489 101 454 60Q419 19 353 0Q341 -4 328 -10.5Q315 -17 304.5 -26.5Q294 -36 287.5 -48Q281 -60 281 -75Q281 -105 320 -105Q334 -105 345 -101.5Q356 -98 363 -94L386 -190Q369 -200 341 -207.5Q313 -215 285 -215Q225 -215 191.5 -192Q158 -169 158 -120Q158 -88 171 -60.5Q184 -33 205 -10Q148 -4 108 17.5Q68 39 45 73Q22 107 14 151Q6 195 13 246L18 284Q25 339 44.5 386.5Q64 434 97 469Q130 504 177 523.5Q224 543 287 543Q356 543 402.5 521.5Q449 500 475.5 462Q502 424 510 371Q518 318 510 255L504 208Z" glyph-name="eogonek" horiz-adv-x="556" unicode="&#281;" /><glyph d="M38 351H554L536 211H20ZM66 569H582L564 429H48Z" glyph-name="equal" horiz-adv-x="600" unicode="=" /><glyph d="M231 -15 218 -119H-46L-33 -15ZM247 109 234 5H-30L-17 109Z" glyph-name="equal.inf" horiz-adv-x="300" unicode="&#58749;" /><glyph d="M24 242H540L522 102H6ZM52 460H568L550 320H34ZM80 678H596L578 538H62Z" glyph-name="equivalence" horiz-adv-x="600" unicode="&#8801;" /><glyph d="M247 123Q291 123 317 152Q343 181 351 246L356 284Q364 344 346.5 375.5Q329 407 280 407Q236 407 210 378Q184 349 176 284L171 246Q163 186 180.5 154.5Q198 123 247 123ZM89 813Q165 808 233.5 793Q302 778 359 746L487 813L476 724L423 697Q461 659 483 610Q505 561 514 506.5Q523 452 522 395Q521 338 514 284L509 246Q501 187 482 139.5Q463 92 430.5 58Q398 24 351.5 5.5Q305 -13 242 -13Q176 -13 129.5 6.5Q83 26 54.5 60.5Q26 95 15.5 142.5Q5 190 13 246L18 284Q26 342 45.5 390Q65 438 97 472Q129 506 173.5 524.5Q218 543 275 543Q301 543 314.5 540.5Q328 538 343 533Q330 558 310 580Q290 602 267 616L78 518L89 607L179 653Q154 661 127 665.5Q100 670 70 673Z" glyph-name="eth" horiz-adv-x="556" unicode="&#240;" /><glyph d="M168 0H1L23 167H190ZM284 780 170 228H58L88 780Z" glyph-name="exclam" horiz-adv-x="265" unicode="!" /><glyph d="M69 530H236L214 363H47ZM-41 -200 67 302H179L155 -200Z" glyph-name="exclamdown" horiz-adv-x="265" unicode="&#161;" /><glyph d="M102 780H269L247 613H80ZM-14 0 100 552H212L182 0Z" glyph-name="exclamdown.cap" horiz-adv-x="265" unicode="&#58433;" /><glyph d="M278 530H394L376 392H260L209 0H51L102 392H20L38 530H120L132 623Q139 675 157.5 711Q176 747 204.5 769.5Q233 792 270 802.5Q307 813 352 813Q390 813 411 808Q432 803 439 800L422 670Q418 672 404.5 674.5Q391 677 372 677Q340 677 317 664Q294 651 288 606Z" glyph-name="f" horiz-adv-x="411" unicode="f" /><glyph d="M372 845H239L252 945H385ZM278 530H394L376 392H260L209 0H51L102 392H20L38 530H120L132 623Q139 675 157.5 711Q176 747 204.5 769.5Q233 792 270 802.5Q307 813 352 813Q390 813 411 808Q432 803 439 800L422 670Q418 672 404.5 674.5Q391 677 372 677Q340 677 317 664Q294 651 288 606Z" glyph-name="fdotaccent" horiz-adv-x="411" unicode="&#7711;" /><glyph d="M657 605H490L512 772H679ZM485 530H643L574 0H416ZM278 530H394L376 392H260L209 0H51L102 392H20L38 530H120L132 623Q139 675 157.5 711Q176 747 204.5 769.5Q233 792 270 802.5Q307 813 352 813Q390 813 411 808Q432 803 439 800L422 670Q418 672 404.5 674.5Q391 677 372 677Q340 677 317 664Q294 651 288 606Z" glyph-name="fi" horiz-adv-x="677" unicode="&#64257;" /><glyph d="M1369 300Q1327 300 1298 292.5Q1269 285 1246 267Q1238 261 1232 251.5Q1226 242 1223 233Q1242 246 1269 246Q1311 245 1337 215.5Q1363 186 1356 131L1354 116Q1337 -13 1207 -13Q1169 -13 1143 -0.5Q1117 12 1102 33.5Q1087 55 1082 83Q1077 111 1081 142L1083 157Q1089 204 1107 247.5Q1125 291 1163 331Q1204 375 1258 389Q1312 403 1382 403ZM1218 143Q1210 143 1204 137L1199 132Q1198 130 1198 127Q1197 124 1197 117Q1197 91 1212 91H1214Q1221 91 1226.5 96.5Q1232 102 1234 113L1235 120Q1238 143 1220 143ZM778 0 791 103H863L882 245L844 222L796 307L932 392H1021L983 103H1054L1041 0ZM296 0 974 780H1108L430 0ZM449 515Q445 495 450 488Q455 481 463 481H465Q482 481 486 509L487 516Q489 533 483 539.5Q477 546 467 546H465Q450 546 441 535L342 570L379 780H634L621 677H464L456 632Q462 637 476.5 640.5Q491 644 505 644Q564 644 589.5 610Q615 576 607 521L605 506Q588 377 458 377Q395 377 358 411.5Q321 446 328 506L329 515ZM29 390 42 493H114L133 635L95 612L47 697L183 782H272L234 493H305L292 390Z" glyph-name="fifteensixteenths" horiz-adv-x="1400" unicode="&#61986;" /><glyph d="M45 419H565L547 281H27Z" glyph-name="figuredash" horiz-adv-x="600" unicode="&#8210;" /><glyph d="M50 459H570L552 321H32Z" glyph-name="figuredash.cap" horiz-adv-x="600" unicode="&#58503;" /><glyph glyph-name="figurespace" horiz-adv-x="600" unicode="&#8199;" /><glyph d="M182 250Q177 212 181.5 188.5Q186 165 198 151Q210 137 227 132Q244 127 264 127H274Q312 127 343.5 153.5Q375 180 383 243L384 251Q388 282 382 304Q376 326 363 340Q350 354 332.5 360.5Q315 367 296 367H286Q255 367 224 352.5Q193 338 173 306L41 353L116 780H604L585 640H232L201 466Q226 486 260 496Q294 506 335 506Q391 506 434 487.5Q477 469 504 435.5Q531 402 541.5 356.5Q552 311 545 257L542 235Q526 118 456.5 52.5Q387 -13 269 -13Q198 -13 147.5 4.5Q97 22 66 53.5Q35 85 23 129.5Q11 174 19 228L22 250Z" glyph-name="five" horiz-adv-x="600" unicode="5" /><glyph d="M72 -75Q68 -95 73 -102Q78 -109 86 -109H88Q105 -109 109 -81L110 -74Q112 -57 106 -50.5Q100 -44 90 -44H88Q73 -44 64 -55L-35 -20L2 190H257L244 87H87L79 42Q85 47 99.5 50.5Q114 54 128 54Q187 54 212.5 20Q238 -14 230 -69L228 -84Q211 -213 81 -213Q18 -213 -19 -178.5Q-56 -144 -49 -84L-48 -75Z" glyph-name="five.inf" horiz-adv-x="300" unicode="&#58742;" /><glyph d="M1069 300Q1027 300 998 292.5Q969 285 946 267Q938 261 932 251.5Q926 242 923 233Q942 246 969 246Q1011 245 1037 215.5Q1063 186 1056 131L1054 116Q1037 -13 907 -13Q869 -13 843 -0.5Q817 12 802 33.5Q787 55 782 83Q777 111 781 142L783 157Q789 204 807 247.5Q825 291 863 331Q904 375 958 389Q1012 403 1082 403ZM918 143Q910 143 904 137L899 132Q898 130 898 127Q897 124 897 117Q897 91 912 91H914Q921 91 926.5 96.5Q932 102 934 113L935 120Q938 143 920 143ZM478 0 491 103H563L582 245L544 222L496 307L632 392H721L683 103H754L741 0ZM-4 0 674 780H808L130 0ZM149 515Q145 495 150 488Q155 481 163 481H165Q182 481 186 509L187 516Q189 533 183 539.5Q177 546 167 546H165Q150 546 141 535L42 570L79 780H334L321 677H164L156 632Q162 637 176.5 640.5Q191 644 205 644Q264 644 289.5 610Q315 576 307 521L305 506Q288 377 158 377Q95 377 58 411.5Q21 446 28 506L29 515Z" glyph-name="fivesixteenths" horiz-adv-x="1100" unicode="&#61975;" /><glyph d="M521 800H679L574 0H416ZM278 530H394L376 392H260L209 0H51L102 392H20L38 530H120L132 623Q139 675 157.5 711Q176 747 204.5 769.5Q233 792 270 802.5Q307 813 352 813Q390 813 411 808Q432 803 439 800L422 670Q418 672 404.5 674.5Q391 677 372 677Q340 677 317 664Q294 651 288 606Z" glyph-name="fl" horiz-adv-x="677" unicode="&#64258;" /><glyph d="M184 308 236 310H320L341 466L349 525ZM279 0 302 170H-1L14 286L390 780H542L480 310H565L546 170H462L439 0Z" glyph-name="four" horiz-adv-x="600" unicode="4" /><glyph d="M47 -29H84L93 35ZM62 -200 71 -132H-60L-48 -35L119 190H233L204 -29H236L223 -132H191L182 -200Z" glyph-name="four.inf" horiz-adv-x="300" unicode="&#58741;" /><glyph glyph-name="fourperemspace" horiz-adv-x="250" unicode="&#8197;" /><glyph d="M-304 0 374 780H508L-170 0Z" glyph-name="fraction" horiz-adv-x="200" unicode="&#8260;" /><glyph d="M361 355Q357 362 350.5 371.5Q344 381 334.5 388.5Q325 396 311.5 401.5Q298 407 280 407Q233 407 208.5 377.5Q184 348 178 300L173 262Q166 213 185 184Q204 155 248 155Q267 155 282 160Q297 165 308.5 172.5Q320 180 327.5 188.5Q335 197 341 204ZM324 74Q301 48 268 33.5Q235 19 187 19Q136 19 100.5 37Q65 55 43.5 87Q22 119 15 164Q8 209 15 262L20 300Q27 351 43.5 395.5Q60 440 87 473Q114 506 153 524.5Q192 543 243 543Q300 543 336 521.5Q372 500 390 465L408 530H550L522 380L472 0Q458 -108 390 -160.5Q322 -213 218 -213Q146 -213 99 -197.5Q52 -182 26 -155Q0 -128 -8.5 -92Q-17 -56 -11 -15L-9 0H140Q137 -20 138.5 -35.5Q140 -51 148.5 -62Q157 -73 173 -79Q189 -85 216 -85Q260 -85 284 -64Q308 -43 315 7Z" glyph-name="g" horiz-adv-x="574" unicode="g" /><glyph d="M361 355Q357 362 350.5 371.5Q344 381 334.5 388.5Q325 396 311.5 401.5Q298 407 280 407Q233 407 208.5 377.5Q184 348 178 300L173 262Q166 213 185 184Q204 155 248 155Q267 155 282 160Q297 165 308.5 172.5Q320 180 327.5 188.5Q335 197 341 204ZM324 74Q301 48 268 33.5Q235 19 187 19Q136 19 100.5 37Q65 55 43.5 87Q22 119 15 164Q8 209 15 262L20 300Q27 351 43.5 395.5Q60 440 87 473Q114 506 153 524.5Q192 543 243 543Q300 543 336 521.5Q372 500 390 465L408 530H550L522 380L472 0Q458 -108 390 -160.5Q322 -213 218 -213Q146 -213 99 -197.5Q52 -182 26 -155Q0 -128 -8.5 -92Q-17 -56 -11 -15L-9 0H140Q137 -20 138.5 -35.5Q140 -51 148.5 -62Q157 -73 173 -79Q189 -85 216 -85Q260 -85 284 -64Q308 -43 315 7ZM307 582Q254 582 220 597Q186 612 167.5 638.5Q149 665 144.5 701Q140 737 146 780H257Q251 735 270 718.5Q289 702 321 702Q353 702 376 718.5Q399 735 405 780H520Q515 737 501 701Q487 665 461.5 638.5Q436 612 397.5 597Q359 582 307 582Z" glyph-name="gbreve" horiz-adv-x="574" unicode="&#287;" /><glyph d="M361 355Q357 362 350.5 371.5Q344 381 334.5 388.5Q325 396 311.5 401.5Q298 407 280 407Q233 407 208.5 377.5Q184 348 178 300L173 262Q166 213 185 184Q204 155 248 155Q267 155 282 160Q297 165 308.5 172.5Q320 180 327.5 188.5Q335 197 341 204ZM324 74Q301 48 268 33.5Q235 19 187 19Q136 19 100.5 37Q65 55 43.5 87Q22 119 15 164Q8 209 15 262L20 300Q27 351 43.5 395.5Q60 440 87 473Q114 506 153 524.5Q192 543 243 543Q300 543 336 521.5Q372 500 390 465L408 530H550L522 380L472 0Q458 -108 390 -160.5Q322 -213 218 -213Q146 -213 99 -197.5Q52 -182 26 -155Q0 -128 -8.5 -92Q-17 -56 -11 -15L-9 0H140Q137 -20 138.5 -35.5Q140 -51 148.5 -62Q157 -73 173 -79Q189 -85 216 -85Q260 -85 284 -64Q308 -43 315 7ZM384 596 323 679 240 596H99L257 780H409L519 596Z" glyph-name="gcircumflex" horiz-adv-x="574" unicode="&#285;" /><glyph d="M361 355Q357 362 350.5 371.5Q344 381 334.5 388.5Q325 396 311.5 401.5Q298 407 280 407Q233 407 208.5 377.5Q184 348 178 300L173 262Q166 213 185 184Q204 155 248 155Q267 155 282 160Q297 165 308.5 172.5Q320 180 327.5 188.5Q335 197 341 204ZM324 74Q301 48 268 33.5Q235 19 187 19Q136 19 100.5 37Q65 55 43.5 87Q22 119 15 164Q8 209 15 262L20 300Q27 351 43.5 395.5Q60 440 87 473Q114 506 153 524.5Q192 543 243 543Q300 543 336 521.5Q372 500 390 465L408 530H550L522 380L472 0Q458 -108 390 -160.5Q322 -213 218 -213Q146 -213 99 -197.5Q52 -182 26 -155Q0 -128 -8.5 -92Q-17 -56 -11 -15L-9 0H140Q137 -20 138.5 -35.5Q140 -51 148.5 -62Q157 -73 173 -79Q189 -85 216 -85Q260 -85 284 -64Q308 -43 315 7ZM245 668Q255 738 294 765.5Q333 793 408 793L401 738Q387 738 372.5 736Q358 734 346 729.5Q334 725 324.5 718Q315 711 311 700H390L377 596H235Z" glyph-name="gcommaaccent" horiz-adv-x="574" unicode="&#291;" /><glyph d="M361 355Q357 362 350.5 371.5Q344 381 334.5 388.5Q325 396 311.5 401.5Q298 407 280 407Q233 407 208.5 377.5Q184 348 178 300L173 262Q166 213 185 184Q204 155 248 155Q267 155 282 160Q297 165 308.5 172.5Q320 180 327.5 188.5Q335 197 341 204ZM324 74Q301 48 268 33.5Q235 19 187 19Q136 19 100.5 37Q65 55 43.5 87Q22 119 15 164Q8 209 15 262L20 300Q27 351 43.5 395.5Q60 440 87 473Q114 506 153 524.5Q192 543 243 543Q300 543 336 521.5Q372 500 390 465L408 530H550L522 380L472 0Q458 -108 390 -160.5Q322 -213 218 -213Q146 -213 99 -197.5Q52 -182 26 -155Q0 -128 -8.5 -92Q-17 -56 -11 -15L-9 0H140Q137 -20 138.5 -35.5Q140 -51 148.5 -62Q157 -73 173 -79Q189 -85 216 -85Q260 -85 284 -64Q308 -43 315 7ZM394 605H227L249 772H416Z" glyph-name="gdotaccent" horiz-adv-x="574" unicode="&#289;" /><glyph d="M293 434Q350 463 383.5 503.5Q417 544 417 598Q417 633 397.5 655Q378 677 333 677Q309 677 292 669.5Q275 662 263 649.5Q251 637 244.5 620.5Q238 604 235 585L158 0H0L78 594Q84 640 102.5 680Q121 720 153.5 749.5Q186 779 233 796Q280 813 343 813Q413 813 460.5 795.5Q508 778 535.5 748Q563 718 573 678.5Q583 639 577 596L575 581Q567 516 534.5 474.5Q502 433 450 398L475 379Q537 332 565 284.5Q593 237 585 176L583 161Q578 128 565 96.5Q552 65 528 41Q504 17 468.5 2Q433 -13 384 -13Q324 -13 288.5 1.5Q253 16 235 39.5Q217 63 214 92.5Q211 122 215 153L217 168H351Q340 107 385 107Q408 107 417 127Q426 147 426 171Q426 194 414 217.5Q402 241 364 270L280 334Z" glyph-name="germandbls" horiz-adv-x="632" unicode="&#223;" /><glyph d="M290 780 357 596H201L118 780Z" glyph-name="grave" horiz-adv-x="500" unicode="`" /><glyph d="M349 950 389 840H233L184 950Z" glyph-name="grave.cap" horiz-adv-x="500" unicode="&#58401;" /><glyph d="M6 108 26 261 385 391 60 521 80 672 569 467 549 313Z" glyph-name="greater" horiz-adv-x="600" unicode="&gt;" /><glyph d="M540 246 3 85 15 175 552 336ZM339 460 63 545 83 697 578 536 558 383 21 222 41 376Z" glyph-name="greaterequal" horiz-adv-x="600" unicode="&#8805;" /><glyph d="M522 419 402 335 500 251 482 117 285 264 305 416 541 563ZM272 419 152 335 250 251 232 117 35 264 55 416 291 563Z" glyph-name="guillemotleft" horiz-adv-x="565" unicode="&#171;" /><glyph d="M528 469 408 385 506 301 488 167 291 314 311 466 547 613ZM278 469 158 385 256 301 238 167 41 314 61 466 297 613Z" glyph-name="guillemotleft.cap" horiz-adv-x="565" unicode="&#58451;" /><glyph d="M34 261 154 345 56 429 74 563 271 416 251 264 15 117ZM284 261 404 345 306 429 324 563 521 416 501 264 265 117Z" glyph-name="guillemotright" horiz-adv-x="565" unicode="&#187;" /><glyph d="M40 311 160 395 62 479 80 613 277 466 257 314 21 167ZM290 311 410 395 312 479 330 613 527 466 507 314 271 167Z" glyph-name="guillemotright.cap" horiz-adv-x="565" unicode="&#58452;" /><glyph d="M272 419 152 335 250 251 232 117 35 264 55 416 291 563Z" glyph-name="guilsinglleft" horiz-adv-x="316" unicode="&#8249;" /><glyph d="M278 469 158 385 256 301 238 167 41 314 61 466 297 613Z" glyph-name="guilsinglleft.cap" horiz-adv-x="316" unicode="&#58449;" /><glyph d="M34 261 154 345 56 429 74 563 271 416 251 264 15 117Z" glyph-name="guilsinglright" horiz-adv-x="316" unicode="&#8250;" /><glyph d="M40 311 160 395 62 479 80 613 277 466 257 314 21 167Z" glyph-name="guilsinglright.cap" horiz-adv-x="316" unicode="&#58450;" /><glyph d="M110 800H268L226 482Q255 509 292.5 526Q330 543 375 543Q423 543 455 529Q487 515 505.5 490Q524 465 529.5 431.5Q535 398 530 358L483 0H325L369 335Q374 370 360 388.5Q346 407 310 407Q276 407 249.5 390.5Q223 374 210 358L163 0H5Z" glyph-name="h" horiz-adv-x="580" unicode="h" /><glyph glyph-name="hairspace" horiz-adv-x="50" unicode="&#8202;" /><glyph d="M32 721H99L110 800H268L257 721H370L355 609H243L226 482Q255 509 292.5 526Q330 543 375 543Q423 543 455 529Q487 515 505.5 490Q524 465 529.5 431.5Q535 398 530 358L483 0H325L369 335Q374 370 360 388.5Q346 407 310 407Q276 407 249.5 390.5Q223 374 210 358L163 0H5L85 609H17Z" glyph-name="hbar" horiz-adv-x="579" unicode="&#295;" /><glyph d="M258 840 201 890 134 840H-11L128 950H288L397 840ZM110 800H268L226 482Q255 509 292.5 526Q330 543 375 543Q423 543 455 529Q487 515 505.5 490Q524 465 529.5 431.5Q535 398 530 358L483 0H325L369 335Q374 370 360 388.5Q346 407 310 407Q276 407 249.5 390.5Q223 374 210 358L163 0H5Z" glyph-name="hcircumflex" horiz-adv-x="579" unicode="&#293;" /><glyph d="M449 -10Q437 9 414 40Q391 71 360 110Q329 149 292.5 193.5Q256 238 216 283Q190 312 161 348Q132 384 108 423.5Q84 463 68 504Q52 545 52 584Q52 628 65 666Q78 704 103 731.5Q128 759 163.5 774.5Q199 790 243 790Q289 790 323 777Q357 764 381 742.5Q405 721 421 692.5Q437 664 448 633H452Q463 664 479 692.5Q495 721 519 742.5Q543 764 576.5 777Q610 790 657 790Q701 790 736.5 774.5Q772 759 796.5 731.5Q821 704 834.5 666Q848 628 848 584Q848 545 832 504Q816 463 792 423.5Q768 384 739 348Q710 312 684 283Q644 238 607.5 193.5Q571 149 540 110Q509 71 486 40Q463 9 451 -10Z" glyph-name="heart" horiz-adv-x="900" unicode="&#9829;" /><glyph d="M70 0V450L425 790L780 450V0Z" glyph-name="house" horiz-adv-x="850" unicode="&#8962;" /><glyph d="M551 780 420 596H297L412 780ZM368 780 260 596H137L228 780Z" glyph-name="hungarumlaut" horiz-adv-x="500" unicode="&#733;" /><glyph d="M543 950 464 840H325L394 950ZM368 950 297 840H158L219 950Z" glyph-name="hungarumlaut.cap" horiz-adv-x="500" unicode="&#58411;" /><glyph d="M45 419H318L300 281H27Z" glyph-name="hyphen" horiz-adv-x="353" unicode="-" /><glyph d="M50 459H323L305 321H32Z" glyph-name="hyphen.cap" horiz-adv-x="320" unicode="&#58498;" /><glyph d="M246 605H79L101 772H268ZM74 530H232L163 0H5Z" glyph-name="i" horiz-adv-x="266" unicode="i" /><glyph d="M74 530H232L163 0H5ZM371 780 240 596H84L199 780Z" glyph-name="iacute" horiz-adv-x="265" unicode="&#237;" /><glyph d="M74 530H232L163 0H5ZM160 582Q107 582 73 597Q39 612 20.5 638.5Q2 665 -2.5 701Q-7 737 -1 780H110Q104 735 123 718.5Q142 702 174 702Q206 702 229 718.5Q252 735 258 780H373Q368 737 354 701Q340 665 314.5 638.5Q289 612 250.5 597Q212 582 160 582Z" glyph-name="ibreve" horiz-adv-x="265" unicode="&#301;" /><glyph d="M74 530H232L163 0H5ZM237 596 176 679 93 596H-48L110 780H262L372 596Z" glyph-name="icircumflex" horiz-adv-x="265" unicode="&#238;" /><glyph d="M74 530H232L163 0H5ZM354 605H187L209 772H376ZM139 605H-28L-6 772H161Z" glyph-name="idieresis" horiz-adv-x="265" unicode="&#239;" /><glyph d="M246 605H79L101 772H268ZM74 530H232L163 0H5Z" glyph-name="idotaccent" horiz-adv-x="266" unicode="&#59269;" /><glyph d="M74 530H232L163 0H5ZM173 780 240 596H84L1 780Z" glyph-name="igrave" horiz-adv-x="266" unicode="&#236;" /><glyph d="M289 530H447L375 -23Q368 -75 349.5 -111Q331 -147 302.5 -169.5Q274 -192 237 -202.5Q200 -213 155 -213Q117 -213 96 -208Q75 -203 68 -200L85 -70Q89 -72 102.5 -74.5Q116 -77 135 -77Q167 -77 190 -64Q213 -51 219 -6ZM461 605H294L316 772H483ZM246 605H79L101 772H268ZM74 530H232L163 0H5Z" glyph-name="ij" horiz-adv-x="483" unicode="&#307;" /><glyph d="M74 530H232L163 0H5ZM33 757H333L315 619H15Z" glyph-name="imacron" horiz-adv-x="266" unicode="&#299;" /><glyph d="M363 593Q363 611 355 624.5Q347 638 330 646L301 466Q326 498 344.5 528Q363 558 363 593ZM289 0H122L144 167H311ZM196 228 245 645Q219 632 204.5 601Q190 570 183 516H39L42 539Q59 665 118 729Q177 793 295 793Q358 793 399.5 779.5Q441 766 465.5 743.5Q490 721 500 690Q510 659 510 625Q510 573 495 535.5Q480 498 456.5 468.5Q433 439 405 413.5Q377 388 351.5 361Q326 334 306.5 302.5Q287 271 281 228Z" glyph-name="interrobang" horiz-adv-x="497" unicode="&#8253;" /><glyph d="M109 -22Q109 -58 141 -69L167 87Q144 63 126.5 39Q109 15 109 -22ZM178 530H345L323 363H156ZM-36 -48Q-36 5 -21.5 40.5Q-7 76 16 101.5Q39 127 66 147Q93 167 117.5 188.5Q142 210 161 236.5Q180 263 186 302H271L226 -66Q252 -54 266.5 -24Q281 6 289 60H433L430 37Q413 -89 353.5 -151Q294 -213 176 -213Q113 -213 72 -199.5Q31 -186 7 -163.5Q-17 -141 -26.5 -111Q-36 -81 -36 -48Z" glyph-name="interrobangdown" horiz-adv-x="497" unicode="&#59701;" /><glyph d="M137 187Q137 169 144.5 155Q152 141 169 133L198 313Q174 281 155.5 251.5Q137 222 137 187ZM211 780H378L356 613H189ZM-10 155Q-10 206 5 244Q20 282 43.5 311.5Q67 341 95 366.5Q123 392 148.5 419Q174 446 193.5 477.5Q213 509 219 552H304L255 135Q281 147 295 178.5Q309 210 317 264H461L458 241Q441 115 382 51Q323 -13 205 -13Q142 -13 100.5 0.5Q59 14 34.5 36.5Q10 59 0 89.5Q-10 120 -10 155Z" glyph-name="interrobangdown.cap" horiz-adv-x="497" unicode="&#59803;" /><glyph d="M305 794Q357 794 391.5 779Q426 764 444.5 737.5Q463 711 467.5 675Q472 639 466 596H355Q361 641 342 657.5Q323 674 291 674Q259 674 236 657.5Q213 641 207 596H92Q97 639 111 675Q125 711 150.5 737.5Q176 764 214 779Q252 794 305 794Z" glyph-name="invertedbreve" horiz-adv-x="500" unicode="&#58385;" /><glyph d="M323 965Q377 965 411.5 955Q446 945 465.5 928Q485 911 491 888Q497 865 494 840H387Q388 860 371.5 870Q355 880 319 880Q283 880 261.5 870Q240 860 239 840H128Q131 865 141.5 888Q152 911 174 928Q196 945 232 955Q268 965 323 965Z" glyph-name="invertedbreve.cap" horiz-adv-x="500" unicode="&#58407;" /><glyph d="M-32 -120Q-32 -93 -23 -69.5Q-14 -46 1 -26L74 530H232L163 0Q151 -4 138 -10.5Q125 -17 114.5 -26.5Q104 -36 97.5 -48Q91 -60 91 -75Q91 -105 130 -105Q144 -105 155 -101.5Q166 -98 173 -94L196 -190Q179 -200 151 -207.5Q123 -215 95 -215Q35 -215 1.5 -192Q-32 -169 -32 -120ZM246 605H79L101 772H268Z" glyph-name="iogonek" horiz-adv-x="266" unicode="&#303;" /><glyph d="M74 530H232L163 0H5ZM386 772Q383 730 371 700Q359 670 341.5 650.5Q324 631 303 622Q282 613 260 613Q234 613 212.5 621Q191 629 172 639Q153 649 136.5 657Q120 665 104 665Q92 665 81 656.5Q70 648 70 628H-35Q-32 670 -20 700Q-8 730 9.5 749.5Q27 769 48 778Q69 787 91 787Q116 787 138 779Q160 771 179 761Q198 751 214.5 743Q231 735 247 735Q259 735 270 743.5Q281 752 281 772Z" glyph-name="itilde" horiz-adv-x="266" unicode="&#297;" /><glyph d="M74 530H232L160 -23Q153 -75 134.5 -111Q116 -147 87.5 -169.5Q59 -192 22 -202.5Q-15 -213 -60 -213Q-98 -213 -119 -208Q-140 -203 -147 -200L-130 -70Q-126 -72 -112.5 -74.5Q-99 -77 -80 -77Q-48 -77 -25 -64Q-2 -51 4 -6ZM246 605H79L101 772H268Z" glyph-name="j" horiz-adv-x="268" unicode="j" /><glyph d="M74 530H232L160 -23Q153 -75 134.5 -111Q116 -147 87.5 -169.5Q59 -192 22 -202.5Q-15 -213 -60 -213Q-98 -213 -119 -208Q-140 -203 -147 -200L-130 -70Q-126 -72 -112.5 -74.5Q-99 -77 -80 -77Q-48 -77 -25 -64Q-2 -51 4 -6ZM237 596 176 679 93 596H-48L110 780H262L372 596Z" glyph-name="jcircumflex" horiz-adv-x="266" unicode="&#309;" /><glyph d="M106 800H264L205 352L374 530H564L362 329L495 0H317L240 208L178 146L159 0H1Z" glyph-name="k" horiz-adv-x="562" unicode="k" /><glyph d="M297 -101Q287 -171 248 -198.5Q209 -226 134 -226L141 -171Q169 -171 195.5 -164.5Q222 -158 230 -136H151L163 -44H305ZM106 800H264L205 352L374 530H564L362 329L495 0H317L240 208L178 146L159 0H1Z" glyph-name="kcommaaccent" horiz-adv-x="562" unicode="&#311;" /><glyph d="M228 530 205 352 374 530H564L362 329L495 0H317L240 208L178 146L159 0H1L71 530Z" glyph-name="kgreenlandic" horiz-adv-x="562" unicode="&#312;" /><glyph d="M110 800H268L163 0H5Z" glyph-name="l" horiz-adv-x="266" unicode="l" /><glyph d="M110 800H268L163 0H5Z" glyph-name="lacute" horiz-adv-x="266" unicode="&#314;" /><glyph d="M110 800H268L163 0H5ZM419 800 367 596H297L324 800Z" glyph-name="lcaron" horiz-adv-x="266" unicode="&#318;" /><glyph d="M141 -101Q131 -171 92 -198.5Q53 -226 -22 -226L-15 -171Q13 -171 39.5 -164.5Q66 -158 74 -136H-5L7 -44H149ZM110 800H268L163 0H5Z" glyph-name="lcommaaccent" horiz-adv-x="266" unicode="&#316;" /><glyph d="M423 267H256L278 434H445ZM110 800H268L163 0H5Z" glyph-name="ldot" horiz-adv-x="439" unicode="&#320;" /><glyph d="M596 672 576 519 217 389 542 259 522 108 33 313 53 467Z" glyph-name="less" horiz-adv-x="600" unicode="&lt;" /><glyph d="M519 84 24 245 36 336 531 175ZM281 459 557 374 537 222 42 383 62 536 599 697 579 543Z" glyph-name="lessequal" horiz-adv-x="600" unicode="&#8804;" /><glyph d="M583 576 532 194H393L425 436H49L67 576Z" glyph-name="logicalnot" horiz-adv-x="600" unicode="&#172;" /><glyph d="M11 138H247L229 0H-7Z" glyph-name="lowline" horiz-adv-x="320" unicode="&#58641;" /><glyph d="M16 323 113 380 168 800H326L284 479L393 543L376 410L267 346L221 0H63L95 246L-1 190Z" glyph-name="lslash" horiz-adv-x="384" unicode="&#322;" /><glyph d="M464 0H306L351 343Q359 407 294 407Q265 407 243.5 393.5Q222 380 211 366L163 0H5L55 381L65 530H206V470Q232 502 269.5 522.5Q307 543 362 543Q416 543 450.5 521Q485 499 501 463Q533 505 571.5 524Q610 543 663 543Q706 543 736.5 529Q767 515 785.5 491Q804 467 811 434.5Q818 402 813 366L765 0H607L652 343Q660 407 595 407Q566 407 544.5 393.5Q523 380 512 366Z" glyph-name="m" horiz-adv-x="863" unicode="m" /><glyph d="M150 757H450L432 619H132Z" glyph-name="macron" horiz-adv-x="500" unicode="&#175;" /><glyph d="M176 943H474L461 847H163Z" glyph-name="macron.cap" horiz-adv-x="500" unicode="&#58405;" /><glyph d="M464 0H306L351 343Q359 407 294 407Q265 407 243.5 393.5Q222 380 211 366L163 0H5L55 381L65 530H206V470Q232 502 269.5 522.5Q307 543 362 543Q416 543 450.5 521Q485 499 501 463Q533 505 571.5 524Q610 543 663 543Q706 543 736.5 529Q767 515 785.5 491Q804 467 811 434.5Q818 402 813 366L765 0H607L652 343Q660 407 595 407Q566 407 544.5 393.5Q523 380 512 366ZM549 605H382L404 772H571Z" glyph-name="mdotaccent" horiz-adv-x="863" unicode="&#7745;" /><glyph d="M57 265Q57 323 79 373.5Q101 424 138.5 461.5Q176 499 226.5 521Q277 543 335 543Q393 543 443.5 521Q494 499 531.5 461.5Q569 424 591 373.5Q613 323 613 265Q613 207 591 156.5Q569 106 531.5 68.5Q494 31 443.5 9Q393 -13 335 -13Q277 -13 226.5 9Q176 31 138.5 68.5Q101 106 79 156.5Q57 207 57 265Z" glyph-name="mediumblackcircle" horiz-adv-x="670" unicode="&#9899;" /><glyph d="M196 265Q196 236 207 210.5Q218 185 236.5 166.5Q255 148 280.5 137Q306 126 335 126Q364 126 389.5 137Q415 148 433.5 166.5Q452 185 463 210.5Q474 236 474 265Q474 294 463 319.5Q452 345 433.5 363.5Q415 382 389.5 393Q364 404 335 404Q306 404 280.5 393Q255 382 236.5 363.5Q218 345 207 319.5Q196 294 196 265ZM57 265Q57 323 79 373.5Q101 424 138.5 461.5Q176 499 226.5 521Q277 543 335 543Q393 543 443.5 521Q494 499 531.5 461.5Q569 424 591 373.5Q613 323 613 265Q613 207 591 156.5Q569 106 531.5 68.5Q494 31 443.5 9Q393 -13 335 -13Q277 -13 226.5 9Q176 31 138.5 68.5Q101 106 79 156.5Q57 207 57 265Z" glyph-name="mediumwhitecircle" horiz-adv-x="670" unicode="&#9898;" /><glyph d="M52 460H568L550 320H34Z" glyph-name="minus" horiz-adv-x="600" unicode="&#8722;" /><glyph d="M239 47 226 -57H-38L-25 47Z" glyph-name="minus.inf" horiz-adv-x="300" unicode="&#58748;" /><glyph d="M7 219 201 390 52 561 166 661 314 490 508 661 595 561 401 390 550 219 436 119 288 290 94 119Z" glyph-name="multiply" horiz-adv-x="600" unicode="&#215;" /><glyph d="M325 0 369 335Q374 370 360 388.5Q346 407 310 407Q276 407 249.5 390.5Q223 374 210 358L163 0H5L55 381L65 530H206V460Q236 496 279 519.5Q322 543 375 543Q423 543 455 529Q487 515 505.5 490Q524 465 529.5 431.5Q535 398 530 358L483 0Z" glyph-name="n" horiz-adv-x="580" unicode="n" /><glyph d="M325 0 369 335Q374 370 360 388.5Q346 407 310 407Q276 407 249.5 390.5Q223 374 210 358L163 0H5L55 381L65 530H206V460Q236 496 279 519.5Q322 543 375 543Q423 543 455 529Q487 515 505.5 490Q524 465 529.5 431.5Q535 398 530 358L483 0ZM531 780 400 596H244L359 780Z" glyph-name="nacute" horiz-adv-x="580" unicode="&#324;" /><glyph d="M325 0 369 335Q374 370 360 388.5Q346 407 310 407Q276 407 249.5 390.5Q223 374 210 358L163 0H5L55 381L65 530H206V460Q236 496 279 519.5Q322 543 375 543Q423 543 455 529Q487 515 505.5 490Q524 465 529.5 431.5Q535 398 530 358L483 0ZM271 780 332 697 415 780H556L398 596H246L136 780Z" glyph-name="ncaron" horiz-adv-x="580" unicode="&#328;" /><glyph d="M325 0 369 335Q374 370 360 388.5Q346 407 310 407Q276 407 249.5 390.5Q223 374 210 358L163 0H5L55 381L65 530H206V460Q236 496 279 519.5Q322 543 375 543Q423 543 455 529Q487 515 505.5 490Q524 465 529.5 431.5Q535 398 530 358L483 0ZM301 -101Q291 -171 252 -198.5Q213 -226 138 -226L145 -171Q173 -171 199.5 -164.5Q226 -158 234 -136H155L167 -44H309Z" glyph-name="ncommaaccent" horiz-adv-x="580" unicode="&#326;" /><glyph d="M415 487Q417 498 420 515.5Q423 533 423 544Q423 601 399.5 627Q376 653 341 653H331Q286 653 256.5 626.5Q227 600 219 537L218 529Q215 503 220 484Q225 465 236.5 452.5Q248 440 264.5 434Q281 428 300 428H310Q337 428 365.5 443Q394 458 415 487ZM44 129Q129 129 195.5 150.5Q262 172 310 220Q333 243 349.5 271Q366 299 377 334Q353 311 317.5 299Q282 287 242 287Q194 287 156 303.5Q118 320 93.5 351Q69 382 59 425.5Q49 469 57 523L60 545Q76 662 144 727.5Q212 793 336 793Q406 793 455.5 771Q505 749 534 709.5Q563 670 573 616Q583 562 574 498L571 476Q566 437 556 392Q546 347 528.5 301Q511 255 484 209.5Q457 164 418 125Q376 83 331.5 56.5Q287 30 238.5 14.5Q190 -1 137 -7Q84 -13 26 -13Z" glyph-name="nine" horiz-adv-x="600" unicode="9" /><glyph d="M-42 -110Q0 -110 29 -102.5Q58 -95 81 -77Q89 -71 95 -61.5Q101 -52 104 -43Q85 -56 58 -56Q37 -56 19.5 -48Q2 -40 -10 -25.5Q-22 -11 -27.5 10.5Q-33 32 -29 59L-27 74Q-10 203 120 203Q158 203 184 190.5Q210 178 225 156.5Q240 135 245 107Q250 79 246 48L244 33Q238 -14 220 -57.5Q202 -101 164 -141Q123 -185 69 -199Q15 -213 -55 -213ZM109 47Q118 47 123 52Q126 55 128 58Q128 60 129 63Q129 65 129.5 67.5Q130 70 130 73Q130 99 115 99H113Q106 99 100.5 93.5Q95 88 93 77L92 70Q89 47 107 47Z" glyph-name="nine.inf" horiz-adv-x="300" unicode="&#58746;" /><glyph d="M1069 300Q1027 300 998 292.5Q969 285 946 267Q938 261 932 251.5Q926 242 923 233Q942 246 969 246Q1011 245 1037 215.5Q1063 186 1056 131L1054 116Q1037 -13 907 -13Q869 -13 843 -0.5Q817 12 802 33.5Q787 55 782 83Q777 111 781 142L783 157Q789 204 807 247.5Q825 291 863 331Q904 375 958 389Q1012 403 1082 403ZM918 143Q910 143 904 137L899 132Q898 130 898 127Q897 124 897 117Q897 91 912 91H914Q921 91 926.5 96.5Q932 102 934 113L935 120Q938 143 920 143ZM478 0 491 103H563L582 245L544 222L496 307L632 392H721L683 103H754L741 0ZM-4 0 674 780H808L130 0ZM35 480Q77 480 106 487.5Q135 495 158 513Q166 519 172 528.5Q178 538 181 547Q162 534 135 534Q114 534 96.5 542Q79 550 67 564.5Q55 579 49.5 600.5Q44 622 48 649L50 664Q67 793 197 793Q235 793 261 780.5Q287 768 302 746.5Q317 725 322 697Q327 669 323 638L321 623Q315 576 297 532.5Q279 489 241 449Q200 405 146 391Q92 377 22 377ZM186 637Q195 637 200 642Q203 645 205 648Q205 650 206 653Q206 655 206.5 657.5Q207 660 207 663Q207 689 192 689H190Q183 689 177.5 683.5Q172 678 170 667L169 660Q166 637 184 637Z" glyph-name="ninesixteenths" horiz-adv-x="1100" unicode="&#61977;" /><glyph glyph-name="nonbreakingspace" horiz-adv-x="200" unicode="&#160;" /><glyph d="M489 569H582L564 429H387L330 351H554L536 211H228L152 107H37L113 211H20L38 351H215L272 429H48L66 569H374L450 673H565Z" glyph-name="notequal" horiz-adv-x="600" unicode="&#8800;" /><glyph d="M325 0 369 335Q374 370 360 388.5Q346 407 310 407Q276 407 249.5 390.5Q223 374 210 358L163 0H5L55 381L65 530H206V460Q236 496 279 519.5Q322 543 375 543Q423 543 455 529Q487 515 505.5 490Q524 465 529.5 431.5Q535 398 530 358L483 0ZM546 772Q543 730 531 700Q519 670 501.5 650.5Q484 631 463 622Q442 613 420 613Q394 613 372.5 621Q351 629 332 639Q313 649 296.5 657Q280 665 264 665Q252 665 241 656.5Q230 648 230 628H125Q128 670 140 700Q152 730 169.5 749.5Q187 769 208 778Q229 787 251 787Q276 787 298 779Q320 771 339 761Q358 751 374.5 743Q391 735 407 735Q419 735 430 743.5Q441 752 441 772Z" glyph-name="ntilde" horiz-adv-x="580" unicode="&#241;" /><glyph d="M243 331H324L361 449H280ZM323 587H404L465 780H602L541 587H605L587 449H498L461 331H527L509 193H417L357 0H220L280 193H199L139 0H2L62 193H-1L17 331H106L143 449H77L95 587H186L247 780H384Z" glyph-name="numbersign" horiz-adv-x="600" unicode="#" /><glyph d="M696 181 712 300H1076L1060 181ZM986 600Q997 676 938 676Q915 676 900 658.5Q885 641 880 600L876 571Q865 495 924 495Q947 495 962 512.5Q977 530 982 571ZM913 376Q869 376 834 390Q799 404 776 429.5Q753 455 743 491Q733 527 739 571L743 600Q755 688 807.5 741.5Q860 795 949 795Q993 795 1028 781Q1063 767 1086 741.5Q1109 716 1119 680Q1129 644 1123 600L1119 571Q1107 483 1054.5 429.5Q1002 376 913 376ZM278 780 466 296 483 458 525 780H680L578 0H409L221 484L204 322L162 0H7L109 780Z" glyph-name="numero" horiz-adv-x="1126" unicode="&#8470;" /><glyph d="M242 -13Q176 -13 129.5 6.5Q83 26 54.5 60.5Q26 95 15.5 142.5Q5 190 13 246L18 284Q25 342 44.5 390Q64 438 96 472Q128 506 175 524.5Q222 543 285 543Q351 543 397.5 523.5Q444 504 472.5 469.5Q501 435 511 387.5Q521 340 514 284L509 246Q501 187 482 139.5Q463 92 430.5 58Q398 24 351.5 5.5Q305 -13 242 -13ZM247 123Q291 123 317 152Q343 181 351 246L356 284Q364 344 346.5 375.5Q329 407 280 407Q236 407 210 378Q184 349 176 284L171 246Q163 186 180.5 154.5Q198 123 247 123Z" glyph-name="o" horiz-adv-x="556" unicode="o" /><glyph d="M242 -13Q176 -13 129.5 6.5Q83 26 54.5 60.5Q26 95 15.5 142.5Q5 190 13 246L18 284Q25 342 44.5 390Q64 438 96 472Q128 506 175 524.5Q222 543 285 543Q351 543 397.5 523.5Q444 504 472.5 469.5Q501 435 511 387.5Q521 340 514 284L509 246Q501 187 482 139.5Q463 92 430.5 58Q398 24 351.5 5.5Q305 -13 242 -13ZM247 123Q291 123 317 152Q343 181 351 246L356 284Q364 344 346.5 375.5Q329 407 280 407Q236 407 210 378Q184 349 176 284L171 246Q163 186 180.5 154.5Q198 123 247 123ZM516 780 385 596H229L344 780Z" glyph-name="oacute" horiz-adv-x="556" unicode="&#243;" /><glyph d="M242 -13Q176 -13 129.5 6.5Q83 26 54.5 60.5Q26 95 15.5 142.5Q5 190 13 246L18 284Q25 342 44.5 390Q64 438 96 472Q128 506 175 524.5Q222 543 285 543Q351 543 397.5 523.5Q444 504 472.5 469.5Q501 435 511 387.5Q521 340 514 284L509 246Q501 187 482 139.5Q463 92 430.5 58Q398 24 351.5 5.5Q305 -13 242 -13ZM247 123Q291 123 317 152Q343 181 351 246L356 284Q364 344 346.5 375.5Q329 407 280 407Q236 407 210 378Q184 349 176 284L171 246Q163 186 180.5 154.5Q198 123 247 123ZM305 582Q252 582 218 597Q184 612 165.5 638.5Q147 665 142.5 701Q138 737 144 780H255Q249 735 268 718.5Q287 702 319 702Q351 702 374 718.5Q397 735 403 780H518Q513 737 499 701Q485 665 459.5 638.5Q434 612 395.5 597Q357 582 305 582Z" glyph-name="obreve" horiz-adv-x="556" unicode="&#335;" /><glyph d="M242 -13Q176 -13 129.5 6.5Q83 26 54.5 60.5Q26 95 15.5 142.5Q5 190 13 246L18 284Q25 342 44.5 390Q64 438 96 472Q128 506 175 524.5Q222 543 285 543Q351 543 397.5 523.5Q444 504 472.5 469.5Q501 435 511 387.5Q521 340 514 284L509 246Q501 187 482 139.5Q463 92 430.5 58Q398 24 351.5 5.5Q305 -13 242 -13ZM247 123Q291 123 317 152Q343 181 351 246L356 284Q364 344 346.5 375.5Q329 407 280 407Q236 407 210 378Q184 349 176 284L171 246Q163 186 180.5 154.5Q198 123 247 123ZM382 596 321 679 238 596H97L255 780H407L517 596Z" glyph-name="ocircumflex" horiz-adv-x="556" unicode="&#244;" /><glyph d="M242 -13Q176 -13 129.5 6.5Q83 26 54.5 60.5Q26 95 15.5 142.5Q5 190 13 246L18 284Q25 342 44.5 390Q64 438 96 472Q128 506 175 524.5Q222 543 285 543Q351 543 397.5 523.5Q444 504 472.5 469.5Q501 435 511 387.5Q521 340 514 284L509 246Q501 187 482 139.5Q463 92 430.5 58Q398 24 351.5 5.5Q305 -13 242 -13ZM247 123Q291 123 317 152Q343 181 351 246L356 284Q364 344 346.5 375.5Q329 407 280 407Q236 407 210 378Q184 349 176 284L171 246Q163 186 180.5 154.5Q198 123 247 123ZM499 605H332L354 772H521ZM284 605H117L139 772H306Z" glyph-name="odieresis" horiz-adv-x="556" unicode="&#246;" /><glyph d="M625 423Q582 423 553.5 398Q525 373 516 322H699Q707 423 625 423ZM247 123Q291 123 317 152Q343 181 351 246L356 284Q364 344 346.5 375.5Q329 407 280 407Q236 407 210 378Q184 349 176 284L171 246Q163 186 180.5 154.5Q198 123 247 123ZM501 208Q494 153 519.5 130Q545 107 590 107Q638 107 660.5 124Q683 141 688 170H837L835 155Q830 119 812.5 88.5Q795 58 764.5 35.5Q734 13 690.5 0Q647 -13 590 -13Q521 -13 478 5.5Q435 24 412 57Q386 23 345.5 5Q305 -13 242 -13Q176 -13 129.5 6.5Q83 26 54.5 60.5Q26 95 15.5 142.5Q5 190 13 246L18 284Q25 342 44.5 390Q64 438 96 472Q128 506 175 524.5Q222 543 285 543Q350 543 390.5 524Q431 505 454 471Q480 505 521 524Q562 543 625 543Q694 543 740.5 521.5Q787 500 813.5 462Q840 424 848 371Q856 318 848 255L842 208Z" glyph-name="oe" horiz-adv-x="894" unicode="&#339;" /><glyph d="M243 0Q231 -4 218 -10.5Q205 -17 194.5 -26.5Q184 -36 177.5 -48Q171 -60 171 -75Q171 -105 210 -105Q224 -105 235 -101.5Q246 -98 253 -94L276 -190Q259 -200 231 -207.5Q203 -215 175 -215Q115 -215 81.5 -192Q48 -169 48 -120Q48 -84 63.5 -54Q79 -24 104.5 -0.5Q130 23 161 40Q192 57 224 66Z" glyph-name="ogonek" horiz-adv-x="602" unicode="&#731;" /><glyph d="M242 -13Q176 -13 129.5 6.5Q83 26 54.5 60.5Q26 95 15.5 142.5Q5 190 13 246L18 284Q25 342 44.5 390Q64 438 96 472Q128 506 175 524.5Q222 543 285 543Q351 543 397.5 523.5Q444 504 472.5 469.5Q501 435 511 387.5Q521 340 514 284L509 246Q501 187 482 139.5Q463 92 430.5 58Q398 24 351.5 5.5Q305 -13 242 -13ZM247 123Q291 123 317 152Q343 181 351 246L356 284Q364 344 346.5 375.5Q329 407 280 407Q236 407 210 378Q184 349 176 284L171 246Q163 186 180.5 154.5Q198 123 247 123ZM318 780 385 596H229L146 780Z" glyph-name="ograve" horiz-adv-x="556" unicode="&#242;" /><glyph d="M242 -13Q176 -13 129.5 6.5Q83 26 54.5 60.5Q26 95 15.5 142.5Q5 190 13 246L18 284Q25 342 44.5 390Q64 438 96 472Q128 506 175 524.5Q222 543 285 543Q351 543 397.5 523.5Q444 504 472.5 469.5Q501 435 511 387.5Q521 340 514 284L509 246Q501 187 482 139.5Q463 92 430.5 58Q398 24 351.5 5.5Q305 -13 242 -13ZM247 123Q291 123 317 152Q343 181 351 246L356 284Q364 344 346.5 375.5Q329 407 280 407Q236 407 210 378Q184 349 176 284L171 246Q163 186 180.5 154.5Q198 123 247 123ZM579 780 448 596H325L440 780ZM396 780 288 596H165L256 780Z" glyph-name="ohungarumlaut" horiz-adv-x="556" unicode="&#337;" /><glyph d="M242 -13Q176 -13 129.5 6.5Q83 26 54.5 60.5Q26 95 15.5 142.5Q5 190 13 246L18 284Q25 342 44.5 390Q64 438 96 472Q128 506 175 524.5Q222 543 285 543Q351 543 397.5 523.5Q444 504 472.5 469.5Q501 435 511 387.5Q521 340 514 284L509 246Q501 187 482 139.5Q463 92 430.5 58Q398 24 351.5 5.5Q305 -13 242 -13ZM247 123Q291 123 317 152Q343 181 351 246L356 284Q364 344 346.5 375.5Q329 407 280 407Q236 407 210 378Q184 349 176 284L171 246Q163 186 180.5 154.5Q198 123 247 123ZM178 757H478L460 619H160Z" glyph-name="omacron" horiz-adv-x="556" unicode="&#333;" /><glyph d="M10 0 28 140H199L257 582L123 500L59 616L325 781H443L359 140H531L512 0Z" glyph-name="one" horiz-adv-x="600" unicode="1" /><glyph d="M-48 -200 -35 -97H37L56 45L18 22L-30 107L106 192H195L157 -97H228L215 -200Z" glyph-name="one.inf" horiz-adv-x="300" unicode="&#58738;" /><glyph d="M741 0H469L479 78L637 229Q645 237 649.5 244Q654 251 656 260L658 275Q661 299 645 299H643Q634 299 629 290.5Q624 282 622 260H502L503 269Q506 296 514.5 320Q523 344 540 362.5Q557 381 584 392Q611 403 650 403Q691 403 717 390.5Q743 378 758 360Q773 342 777.5 322Q782 302 780 286L778 271Q773 239 758.5 217.5Q744 196 719 172L646 103H754ZM-4 0 674 780H808L130 0ZM29 390 42 493H114L133 635L95 612L47 697L183 782H272L234 493H305L292 390Z" glyph-name="onehalf" horiz-adv-x="800" unicode="&#189;" /><glyph d="M573 171H610L619 235ZM588 0 597 68H466L478 165L645 390H759L730 171H762L749 68H717L708 0ZM-4 0 674 780H808L130 0ZM29 390 42 493H114L133 635L95 612L47 697L183 782H272L234 493H305L292 390Z" glyph-name="onequarter" horiz-adv-x="800" unicode="&#188;" /><glyph d="M1069 300Q1027 300 998 292.5Q969 285 946 267Q938 261 932 251.5Q926 242 923 233Q942 246 969 246Q1011 245 1037 215.5Q1063 186 1056 131L1054 116Q1037 -13 907 -13Q869 -13 843 -0.5Q817 12 802 33.5Q787 55 782 83Q777 111 781 142L783 157Q789 204 807 247.5Q825 291 863 331Q904 375 958 389Q1012 403 1082 403ZM918 143Q910 143 904 137L899 132Q898 130 898 127Q897 124 897 117Q897 91 912 91H914Q921 91 926.5 96.5Q932 102 934 113L935 120Q938 143 920 143ZM478 0 491 103H563L582 245L544 222L496 307L632 392H721L683 103H754L741 0ZM-4 0 674 780H808L130 0ZM29 390 42 493H114L133 635L95 612L47 697L183 782H272L234 493H305L292 390Z" glyph-name="onesixteenth" horiz-adv-x="1100" unicode="&#61973;" /><glyph d="M29 390 42 493H114L133 635L95 612L47 697L183 782H272L234 493H305L292 390Z" glyph-name="onesuperior" horiz-adv-x="300" unicode="&#185;" /><glyph d="M27 281 45 419H298L280 281Z" glyph-name="onethirdemdash" horiz-adv-x="333" unicode="&#58481;" /><glyph d="M32 321 50 459H303L285 321Z" glyph-name="onethirdemdash.cap" horiz-adv-x="333" unicode="&#58499;" /><glyph d="M218 487Q235 487 250 494Q265 501 276 509L284 570L227 561Q207 558 196.5 548.5Q186 539 184 525L183 519Q181 506 188.5 496.5Q196 487 218 487ZM13 181 29 300H391L375 181ZM280 429Q262 407 231.5 392Q201 377 158 377Q122 377 97.5 387Q73 397 59.5 414Q46 431 42 453Q38 475 43 499L45 510Q51 542 64 563.5Q77 585 97 599.5Q117 614 145 622Q173 630 208 635L294 648Q294 669 286.5 679.5Q279 690 255 690Q231 690 221 679.5Q211 669 209 652H79L80 661Q83 688 94 712Q105 736 126.5 754Q148 772 181.5 782.5Q215 793 262 793Q316 793 351 782Q386 771 405 750.5Q424 730 429.5 702Q435 674 431 641L412 499L405 387H280Z" glyph-name="ordfeminine" horiz-adv-x="429" unicode="&#170;" /><glyph d="M13 181 29 300H393L377 181ZM303 600Q314 676 255 676Q232 676 217 658.5Q202 641 197 600L193 571Q182 495 241 495Q264 495 279 512.5Q294 530 299 571ZM230 376Q186 376 151 390Q116 404 93 429.5Q70 455 60 491Q50 527 56 571L60 600Q72 688 124.5 741.5Q177 795 266 795Q310 795 345 781Q380 767 403 741.5Q426 716 436 680Q446 644 440 600L436 571Q424 483 371.5 429.5Q319 376 230 376Z" glyph-name="ordmasculine" horiz-adv-x="443" unicode="&#186;" /><glyph d="M67 0H-19L46 71Q23 105 14.5 149.5Q6 194 13 246L18 284Q25 342 44.5 390Q64 438 96 472Q128 506 175 524.5Q222 543 285 543Q378 543 436 503L460 530H546L481 459Q504 425 512.5 380.5Q521 336 514 284L509 246Q501 187 482 139.5Q463 92 431 58Q399 24 352 5.5Q305 -13 242 -13Q149 -13 91 27ZM247 123Q291 123 317 152Q343 181 351 246L356 284Q359 305 359 323L193 139Q212 123 247 123ZM171 246Q168 225 168 207L334 391Q315 407 280 407Q236 407 210 378Q184 349 176 284Z" glyph-name="oslash" horiz-adv-x="556" unicode="&#248;" /><glyph d="M242 -13Q176 -13 129.5 6.5Q83 26 54.5 60.5Q26 95 15.5 142.5Q5 190 13 246L18 284Q25 342 44.5 390Q64 438 96 472Q128 506 175 524.5Q222 543 285 543Q351 543 397.5 523.5Q444 504 472.5 469.5Q501 435 511 387.5Q521 340 514 284L509 246Q501 187 482 139.5Q463 92 430.5 58Q398 24 351.5 5.5Q305 -13 242 -13ZM247 123Q291 123 317 152Q343 181 351 246L356 284Q364 344 346.5 375.5Q329 407 280 407Q236 407 210 378Q184 349 176 284L171 246Q163 186 180.5 154.5Q198 123 247 123ZM531 772Q528 730 516 700Q504 670 486.5 650.5Q469 631 448 622Q427 613 405 613Q379 613 357.5 621Q336 629 317 639Q298 649 281.5 657Q265 665 249 665Q237 665 226 656.5Q215 648 215 628H110Q113 670 125 700Q137 730 154.5 749.5Q172 769 193 778Q214 787 236 787Q261 787 283 779Q305 771 324 761Q343 751 359.5 743Q376 735 392 735Q404 735 415 743.5Q426 752 426 772Z" glyph-name="otilde" horiz-adv-x="556" unicode="&#245;" /><glyph d="M265 123Q312 123 336.5 154.5Q361 186 369 246L374 284Q391 407 300 407Q281 407 266.5 402Q252 397 240.5 389.5Q229 382 221.5 373.5Q214 365 208 358L184 175Q191 160 210.5 141.5Q230 123 265 123ZM-24 -200 53 381 63 530H204V460Q227 497 264.5 520Q302 543 362 543Q413 543 448.5 524.5Q484 506 505.5 472.5Q527 439 533.5 391Q540 343 532 284L527 246Q519 189 502.5 141Q486 93 458.5 59Q431 25 392 6Q353 -13 302 -13Q246 -13 212.5 7Q179 27 167 46L134 -200Z" glyph-name="p" horiz-adv-x="574" unicode="p" /><glyph d="M319 280H276Q224 280 177.5 291Q131 302 98 329Q65 356 49.5 403Q34 450 43 522L46 545Q56 621 85 667.5Q114 714 154.5 739Q195 764 242.5 772Q290 780 338 780H547L445 0H283Z" glyph-name="paragraph" horiz-adv-x="549" unicode="&#182;" /><glyph d="M39 375Q47 454 67 521.5Q87 589 114.5 647Q142 705 175.5 753Q209 801 245 840H407Q371 797 336 745.5Q301 694 272 635.5Q243 577 222 511.5Q201 446 194 375L191 346Q183 275 188 210.5Q193 146 206.5 88.5Q220 31 239.5 -21Q259 -73 281 -120H121Q100 -77 81 -29.5Q62 18 49 74Q36 130 31.5 196.5Q27 263 36 346Z" glyph-name="parenleft" horiz-adv-x="365" unicode="(" /><glyph d="M48 404Q62 533 111 628Q160 723 222 780H385Q357 750 328 709.5Q299 669 274 620.5Q249 572 231 517Q213 462 207 404L204 375Q198 317 204 262Q210 207 222.5 158.5Q235 110 251.5 69.5Q268 29 283 0H120Q102 28 86 67.5Q70 107 58.5 155Q47 203 43 259Q39 315 45 375Z" glyph-name="parenleft.cap" horiz-adv-x="365" unicode="&#58513;" /><glyph d="M-34 -1Q-27 63 -3 112Q21 161 52 190H178Q164 175 149 154Q134 133 121 108.5Q108 84 98 56Q88 28 85 -1L84 -10Q81 -39 83.5 -67Q86 -95 92 -119.5Q98 -144 106 -164.5Q114 -185 122 -200H6Q-3 -186 -12 -166Q-21 -146 -27 -121Q-33 -96 -35.5 -68Q-38 -40 -35 -10Z" glyph-name="parenleft.inf" horiz-adv-x="205" unicode="&#58750;" /><glyph d="M323 345Q315 266 295 198.5Q275 131 247.5 73Q220 15 186.5 -33Q153 -81 117 -120H-45Q-9 -77 26 -25.5Q61 26 90 84.5Q119 143 139.5 208.5Q160 274 168 345L171 374Q178 445 173.5 509.5Q169 574 155.5 631.5Q142 689 122.5 741Q103 793 81 840H241Q262 797 281 749.5Q300 702 313 646Q326 590 330.5 523Q335 456 326 374Z" glyph-name="parenright" horiz-adv-x="365" unicode=")" /><glyph d="M321 376Q307 247 258 152Q209 57 147 0H-16Q12 30 41 70.5Q70 111 95 159.5Q120 208 138 263Q156 318 162 376L165 405Q171 463 165 518Q159 573 146.5 621.5Q134 670 117.5 710.5Q101 751 86 780H249Q267 752 283 712.5Q299 673 310.5 625Q322 577 326 521Q330 465 324 405Z" glyph-name="parenright.cap" horiz-adv-x="365" unicode="&#58514;" /><glyph d="M139 -9Q132 -73 108 -122Q84 -171 53 -200H-73Q-59 -185 -44 -164Q-29 -143 -16 -118.5Q-3 -94 7 -66Q17 -38 20 -9L21 0Q24 29 21.5 56.5Q19 84 13 109Q7 134 -1.5 154.5Q-10 175 -17 190H99Q108 176 117 156Q126 136 132 111Q138 86 140.5 58Q143 30 140 0Z" glyph-name="parenright.inf" horiz-adv-x="205" unicode="&#58751;" /><glyph d="M265 123Q312 123 336.5 154.5Q361 186 369 246L374 284Q391 407 300 407Q281 407 266.5 402Q252 397 240.5 389.5Q229 382 221.5 373.5Q214 365 208 358L184 175Q191 160 210.5 141.5Q230 123 265 123ZM-24 -200 53 381 63 530H204V460Q227 497 264.5 520Q302 543 362 543Q413 543 448.5 524.5Q484 506 505.5 472.5Q527 439 533.5 391Q540 343 532 284L527 246Q519 189 502.5 141Q486 93 458.5 59Q431 25 392 6Q353 -13 302 -13Q246 -13 212.5 7Q179 27 167 46L134 -200ZM412 605H245L267 772H434Z" glyph-name="pdotaccent" horiz-adv-x="574" unicode="&#7767;" /><glyph d="M58 603Q62 648 81.5 683.5Q101 719 129 743.5Q157 768 191 780.5Q225 793 258 793Q282 793 302 789.5Q322 786 343 778Q418 751 520 751Q558 751 593 754.5Q628 758 658 763Q688 768 710.5 773.5Q733 779 746 783L736 708L348 0H210L557 633Q546 630 527.5 627.5Q509 625 485 625Q474 625 464 625.5Q454 626 437 628Q437 623 436.5 617Q436 611 436 605L435 594Q431 549 411.5 513.5Q392 478 364 453.5Q336 429 302 416.5Q268 404 235 404Q188 404 153 418Q118 432 95.5 456.5Q73 481 63 515.5Q53 550 57 592ZM173 593Q170 561 188.5 541Q207 521 236 521H246Q273 521 294.5 539.5Q316 558 319 593L320 604Q323 636 304.5 656Q286 676 257 676H247Q220 676 198.5 657.5Q177 639 174 604ZM812 187Q815 219 796.5 239Q778 259 749 259H739Q712 259 690.5 240.5Q669 222 666 187L665 176Q662 144 680.5 124Q699 104 728 104H738Q765 104 786.5 122.5Q808 141 811 176ZM927 177Q923 132 903.5 96.5Q884 61 856 36.5Q828 12 794 -0.5Q760 -13 727 -13Q680 -13 645 1Q610 15 587.5 39.5Q565 64 555 98.5Q545 133 549 175L550 186Q554 231 573.5 266.5Q593 302 621 326.5Q649 351 683 363.5Q717 376 750 376Q797 376 832 362Q867 348 889.5 323.5Q912 299 922 264.5Q932 230 928 188Z" glyph-name="percent" horiz-adv-x="981" unicode="%" /><glyph d="M168 0H1L23 167H190Z" glyph-name="period" horiz-adv-x="266" unicode="." /><glyph d="M185 0H18L40 167H207Z" glyph-name="period.T" horiz-adv-x="300" unicode="&#61826;" /><glyph d="M203 267H36L58 434H225Z" glyph-name="periodcentered" horiz-adv-x="266" unicode="&#183;" /><glyph d="M208 307H41L63 474H230Z" glyph-name="periodcentered.cap" horiz-adv-x="266" unicode="&#58497;" /><glyph d="M58 603Q62 648 81.5 683.5Q101 719 129 743.5Q157 768 191 780.5Q225 793 258 793Q282 793 302 789.5Q322 786 343 778Q418 751 520 751Q558 751 593 754.5Q628 758 658 763Q688 768 710.5 773.5Q733 779 746 783L736 708L348 0H210L557 633Q546 630 527.5 627.5Q509 625 485 625Q474 625 464 625.5Q454 626 437 628Q437 623 436.5 617Q436 611 436 605L435 594Q431 549 411.5 513.5Q392 478 364 453.5Q336 429 302 416.5Q268 404 235 404Q188 404 153 418Q118 432 95.5 456.5Q73 481 63 515.5Q53 550 57 592ZM1232 187Q1235 219 1216.5 239Q1198 259 1169 259H1159Q1132 259 1110.5 240.5Q1089 222 1086 187L1085 176Q1082 144 1100.5 124Q1119 104 1148 104H1158Q1185 104 1206.5 122.5Q1228 141 1231 176ZM812 187Q815 219 796.5 239Q778 259 749 259H739Q712 259 690.5 240.5Q669 222 666 187L665 176Q662 144 680.5 124Q699 104 728 104H738Q765 104 786.5 122.5Q808 141 811 176ZM173 593Q170 561 188.5 541Q207 521 236 521H246Q273 521 294.5 539.5Q316 558 319 593L320 604Q323 636 304.5 656Q286 676 257 676H247Q220 676 198.5 657.5Q177 639 174 604ZM1347 177Q1343 132 1323.5 96.5Q1304 61 1276 36.5Q1248 12 1214 -0.5Q1180 -13 1147 -13Q1100 -13 1065 1Q1030 15 1007.5 39.5Q985 64 975 98.5Q965 133 969 175L970 186Q974 231 993.5 266.5Q1013 302 1041 326.5Q1069 351 1103 363.5Q1137 376 1170 376Q1217 376 1252 362Q1287 348 1309.5 323.5Q1332 299 1342 264.5Q1352 230 1348 188ZM927 177Q923 132 903.5 96.5Q884 61 856 36.5Q828 12 794 -0.5Q760 -13 727 -13Q680 -13 645 1Q610 15 587.5 39.5Q565 64 555 98.5Q545 133 549 175L550 186Q554 231 573.5 266.5Q593 302 621 326.5Q649 351 683 363.5Q717 376 750 376Q797 376 832 362Q867 348 889.5 323.5Q912 299 922 264.5Q932 230 928 188Z" glyph-name="perthousand" horiz-adv-x="1401" unicode="&#8240;" /><glyph d="M405 648 380 460H568L550 320H362L337 132H197L222 320H34L52 460H240L265 648Z" glyph-name="plus" horiz-adv-x="600" unicode="+" /><glyph d="M170 127 159 47H239L226 -57H146L135 -137H31L42 -57H-38L-25 47H55L66 127Z" glyph-name="plus.inf" horiz-adv-x="300" unicode="&#58747;" /><glyph d="M29 276H545L527 136H11ZM222 317 236 425H48L66 565H254L268 673H408L394 565H582L564 425H376L362 317Z" glyph-name="plusminus" horiz-adv-x="600" unicode="&#177;" /><glyph d="M485 411Q495 411 504.5 413Q514 415 521.5 421Q529 427 534 437Q539 447 539 463V469Q539 485 534 495Q529 505 521.5 511Q514 517 504.5 519Q495 521 485 521H414V411ZM414 155H274V625H517Q546 625 575 618.5Q604 612 627.5 595Q651 578 666 548.5Q681 519 681 472V460Q681 413 666 383.5Q651 354 627.5 337Q604 320 575 313.5Q546 307 517 307H414ZM113 390Q113 318 140 255Q167 192 214.5 144.5Q262 97 325 70Q388 43 460 43Q532 43 595 70Q658 97 705.5 144.5Q753 192 780 255Q807 318 807 390Q807 462 780 525Q753 588 705.5 635.5Q658 683 595 710Q532 737 460 737Q388 737 325 710Q262 683 214.5 635.5Q167 588 140 525Q113 462 113 390ZM57 390Q57 474 88.5 547Q120 620 175 675Q230 730 303 761.5Q376 793 460 793Q544 793 617 761.5Q690 730 745 675Q800 620 831.5 547Q863 474 863 390Q863 306 831.5 233Q800 160 745 105Q690 50 617 18.5Q544 -13 460 -13Q376 -13 303 18.5Q230 50 175 105Q120 160 88.5 233Q57 306 57 390Z" glyph-name="published" horiz-adv-x="920" unicode="&#8471;" /><glyph glyph-name="punctuationspace" horiz-adv-x="180" unicode="&#8200;" /><glyph d="M282 407Q235 407 210.5 375.5Q186 344 178 284L173 246Q156 123 247 123Q266 123 280.5 128Q295 133 306.5 140.5Q318 148 325.5 156.5Q333 165 339 172L363 355Q359 362 352.5 371.5Q346 381 336.5 388.5Q327 396 313.5 401.5Q300 407 282 407ZM290 -200 322 42Q299 16 266 1.5Q233 -13 185 -13Q134 -13 98.5 5Q63 23 41.5 57Q20 91 13.5 139Q7 187 15 246L20 284Q27 341 44 389Q61 437 88.5 471Q116 505 155 524Q194 543 245 543Q302 543 338 521.5Q374 500 392 465L410 530H552L524 380L448 -200Z" glyph-name="q" horiz-adv-x="581" unicode="q" /><glyph d="M279 0H112L134 167H301ZM290 654Q248 654 228 622Q208 590 198 516H39L42 539Q59 665 118 729Q177 793 295 793Q358 793 399.5 779.5Q441 766 465.5 743.5Q490 721 500 690Q510 659 510 625Q510 573 495 535.5Q480 498 456.5 468.5Q433 439 405 413.5Q377 388 351.5 361Q326 334 306.5 302.5Q287 271 281 228H169Q169 273 182.5 310.5Q196 348 215.5 380Q235 412 258.5 440Q282 468 301.5 494Q321 520 334.5 545.5Q348 571 348 598Q348 624 335 639Q322 654 290 654Z" glyph-name="question" horiz-adv-x="497" unicode="?" /><glyph d="M188 530H355L333 363H166ZM182 -74Q224 -74 244 -44Q264 -14 274 60H433L430 37Q413 -89 354 -151Q295 -213 177 -213Q114 -213 72.5 -199.5Q31 -186 7 -163Q-17 -140 -26.5 -110.5Q-36 -81 -36 -48Q-36 5 -21.5 40.5Q-7 76 16 101.5Q39 127 66 147Q93 167 117.5 188.5Q142 210 161 236.5Q180 263 186 302H298Q298 260 285.5 227Q273 194 253.5 166.5Q234 139 212 115.5Q190 92 170.5 70Q151 48 138.5 26Q126 4 126 -21Q126 -45 138 -59.5Q150 -74 182 -74Z" glyph-name="questiondown" horiz-adv-x="497" unicode="&#191;" /><glyph d="M221 780H388L366 613H199ZM210 126Q252 126 272 158Q292 190 302 264H461L458 241Q441 115 382 51Q323 -13 205 -13Q142 -13 100.5 0.5Q59 14 34.5 36.5Q10 59 0 89.5Q-10 120 -10 155Q-10 206 5 244Q20 282 43.5 311.5Q67 341 95 366.5Q123 392 148.5 419Q174 446 193.5 477.5Q213 509 219 552H331Q331 507 317.5 469.5Q304 432 284.5 400Q265 368 241.5 340Q218 312 198.5 286Q179 260 165.5 234.5Q152 209 152 182Q152 156 165 141Q178 126 210 126Z" glyph-name="questiondown.cap" horiz-adv-x="497" unicode="&#58436;" /><glyph d="M452 780 385 457H264L298 780ZM255 780 204 457H83L100 780Z" glyph-name="quotedbl" horiz-adv-x="446" unicode="&quot;" /><glyph d="M392 37Q380 -56 331 -99.5Q282 -143 197 -143L207 -67Q245 -67 271 -50.5Q297 -34 305 0H220L242 167H409ZM172 37Q160 -56 111 -99.5Q62 -143 -23 -143L-13 -67Q25 -67 51 -50.5Q77 -34 85 0H0L22 167H189Z" glyph-name="quotedblbase" horiz-adv-x="486" unicode="&#8222;" /><glyph d="M83 626Q95 719 144 762.5Q193 806 278 806L268 730Q230 730 204 713.5Q178 697 170 663H255L233 496H66ZM303 626Q315 719 364 762.5Q413 806 498 806L488 730Q450 730 424 713.5Q398 697 390 663H475L453 496H286Z" glyph-name="quotedblleft" horiz-adv-x="486" unicode="&#8220;" /><glyph d="M472 650Q460 557 411 513.5Q362 470 277 470L287 546Q325 546 351 562.5Q377 579 385 613H300L322 780H489ZM252 650Q240 557 191 513.5Q142 470 57 470L67 546Q105 546 131 562.5Q157 579 165 613H80L102 780H269Z" glyph-name="quotedblright" horiz-adv-x="486" unicode="&#8221;" /><glyph d="M83 626Q95 719 144 762.5Q193 806 278 806L268 730Q230 730 204 713.5Q178 697 170 663H255L233 496H66Z" glyph-name="quoteleft" horiz-adv-x="266" unicode="&#8216;" /><glyph d="M252 650Q240 557 191 513.5Q142 470 57 470L67 546Q105 546 131 562.5Q157 579 165 613H80L102 780H269Z" glyph-name="quoteright" horiz-adv-x="266" unicode="&#8217;" /><glyph d="M172 37Q160 -56 111 -99.5Q62 -143 -23 -143L-13 -67Q25 -67 51 -50.5Q77 -34 85 0H0L22 167H189Z" glyph-name="quotesinglbase" horiz-adv-x="266" unicode="&#8218;" /><glyph d="M271 780 204 457H83L100 780Z" glyph-name="quotesingle" horiz-adv-x="265" unicode="&apos;" /><glyph d="M360 543Q366 543 370.5 542.5Q375 542 374 542L353 380H340Q286 380 253.5 366Q221 352 207 335L163 0H5L55 381L65 530H206V460Q234 502 273 522.5Q312 543 360 543Z" glyph-name="r" horiz-adv-x="385" unicode="r" /><glyph d="M360 543Q366 543 370.5 542.5Q375 542 374 542L353 380H340Q286 380 253.5 366Q221 352 207 335L163 0H5L55 381L65 530H206V460Q234 502 273 522.5Q312 543 360 543ZM441 780 310 596H154L269 780Z" glyph-name="racute" horiz-adv-x="385" unicode="&#341;" /><glyph d="M360 543Q366 543 370.5 542.5Q375 542 374 542L353 380H340Q286 380 253.5 366Q221 352 207 335L163 0H5L55 381L65 530H206V460Q234 502 273 522.5Q312 543 360 543ZM181 780 242 697 325 780H466L308 596H156L46 780Z" glyph-name="rcaron" horiz-adv-x="385" unicode="&#345;" /><glyph d="M360 543Q366 543 370.5 542.5Q375 542 374 542L353 380H340Q286 380 253.5 366Q221 352 207 335L163 0H5L55 381L65 530H206V460Q234 502 273 522.5Q312 543 360 543ZM142 -101Q132 -171 93 -198.5Q54 -226 -21 -226L-14 -171Q14 -171 40.5 -164.5Q67 -158 75 -136H-4L8 -44H150Z" glyph-name="rcommaaccent" horiz-adv-x="385" unicode="&#343;" /><glyph d="M186 693Q186 703 181 706.5Q176 710 168 710H144V673H168Q176 673 181 676.5Q186 680 186 690ZM241 689Q241 668 233 655.5Q225 643 213 638L241 579H184L163 632H144V579H89V751H180Q203 751 222 739.5Q241 728 241 694ZM41 665Q41 639 50.5 616.5Q60 594 77 577Q94 560 116.5 550.5Q139 541 165 541Q191 541 213.5 550.5Q236 560 253 577Q270 594 279.5 616.5Q289 639 289 665Q289 691 279.5 713.5Q270 736 253 753Q236 770 213.5 779.5Q191 789 165 789Q139 789 116.5 779.5Q94 770 77 753Q60 736 50.5 713.5Q41 691 41 665ZM17 665Q17 696 28.5 723Q40 750 60 770Q80 790 107 801.5Q134 813 165 813Q196 813 223 801.5Q250 790 270 770Q290 750 301.5 723Q313 696 313 665Q313 634 301.5 607Q290 580 270 560Q250 540 223 528.5Q196 517 165 517Q134 517 107 528.5Q80 540 60 560Q40 580 28.5 607Q17 634 17 665Z" glyph-name="registered" horiz-adv-x="330" unicode="&#174;" /><glyph d="M469 411Q479 411 488.5 413Q498 415 505.5 421Q513 427 518 437Q523 447 523 463V469Q523 485 518 495Q513 505 505.5 511Q498 517 488.5 519Q479 521 469 521H398V411ZM398 155H257V625H500Q529 625 558.5 618.5Q588 612 611.5 595Q635 578 649.5 548.5Q664 519 664 472V460Q664 405 644.5 373.5Q625 342 595 327L664 155H516L468 307H398ZM113 390Q113 318 140 255Q167 192 214.5 144.5Q262 97 325 70Q388 43 460 43Q532 43 595 70Q658 97 705.5 144.5Q753 192 780 255Q807 318 807 390Q807 462 780 525Q753 588 705.5 635.5Q658 683 595 710Q532 737 460 737Q388 737 325 710Q262 683 214.5 635.5Q167 588 140 525Q113 462 113 390ZM57 390Q57 474 88.5 547Q120 620 175 675Q230 730 303 761.5Q376 793 460 793Q544 793 617 761.5Q690 730 745 675Q800 620 831.5 547Q863 474 863 390Q863 306 831.5 233Q800 160 745 105Q690 50 617 18.5Q544 -13 460 -13Q376 -13 303 18.5Q230 50 175 105Q120 160 88.5 233Q57 306 57 390Z" glyph-name="registered.cap" horiz-adv-x="920" unicode="&#59804;" /><glyph d="M489 780 467 613H382Q380 580 403 563Q426 546 463 546L453 470Q372 470 333.5 516Q295 562 306 650L323 780ZM269 780 247 613H162Q160 580 183 563Q206 546 243 546L233 470Q152 470 113.5 516Q75 562 86 650L103 780Z" glyph-name="reversequotedblleft" horiz-adv-x="486" unicode="&#8223;" /><glyph d="M269 780 247 613H162Q160 580 183 563Q206 546 243 546L233 470Q152 470 113.5 516Q75 562 86 650L103 780Z" glyph-name="reversequoteleft" horiz-adv-x="266" unicode="&#8219;" /><glyph d="M343 693Q343 713 330 726Q317 739 297 739Q273 739 256.5 723.5Q240 708 240 683Q240 663 253 650Q266 637 286 637Q310 637 326.5 652.5Q343 668 343 693ZM398 700Q398 675 388.5 653.5Q379 632 363.5 616.5Q348 601 326.5 592Q305 583 281 583Q239 583 212 609.5Q185 636 185 676Q185 701 194.5 722.5Q204 744 219.5 759.5Q235 775 256.5 784Q278 793 302 793Q344 793 371 766.5Q398 740 398 700Z" glyph-name="ring" horiz-adv-x="500" unicode="&#730;" /><glyph d="M364 863Q364 883 351 896Q338 909 318 909Q294 909 277.5 893.5Q261 878 261 853Q261 833 274 820Q287 807 307 807Q331 807 347.5 822.5Q364 838 364 863ZM419 870Q419 845 409.5 823.5Q400 802 384.5 786.5Q369 771 347.5 762Q326 753 302 753Q260 753 233 779.5Q206 806 206 846Q206 871 215.5 892.5Q225 914 240.5 929.5Q256 945 277.5 954Q299 963 323 963Q365 963 392 936.5Q419 910 419 870Z" glyph-name="ring.cap" horiz-adv-x="500" unicode="&#58410;" /><glyph d="M307 420Q323 420 341.5 423.5Q360 427 376.5 437.5Q393 448 405 467.5Q417 487 421 519L423 534Q427 567 420 587.5Q413 608 399.5 620Q386 632 368.5 636Q351 640 335 640H284L254 420ZM213 101 200 0H38L51 101H-19L-1 241H69L74 280H4L22 420H93L140 780H354Q406 780 452.5 769Q499 758 532 731Q565 704 580.5 657Q596 610 587 538L584 515Q573 438 544 391.5Q515 345 475 320.5Q435 296 387.5 288Q340 280 292 280H237L232 241H418L400 101Z" glyph-name="ruble" horiz-adv-x="600" unicode="&#8381;" /><glyph d="M267 324Q313 319 352 308.5Q391 298 418 279Q445 260 458 230.5Q471 201 465 157L463 142Q453 70 394 28.5Q335 -13 229 -13Q104 -13 49.5 31Q-5 75 6 153L8 168H165Q160 140 177 123.5Q194 107 234 107Q274 107 290.5 123.5Q307 140 307 165Q307 186 291.5 197Q276 208 235 213Q130 225 80 262.5Q30 300 41 377L43 392Q48 432 68 460.5Q88 489 118.5 507.5Q149 526 188 534.5Q227 543 272 543Q394 543 445.5 498Q497 453 486 371L484 356H329Q334 388 320.5 405.5Q307 423 267 423Q234 423 214.5 408.5Q195 394 195 368Q195 348 210.5 338Q226 328 267 324Z" glyph-name="s" horiz-adv-x="528" unicode="s" /><glyph d="M267 324Q313 319 352 308.5Q391 298 418 279Q445 260 458 230.5Q471 201 465 157L463 142Q453 70 394 28.5Q335 -13 229 -13Q104 -13 49.5 31Q-5 75 6 153L8 168H165Q160 140 177 123.5Q194 107 234 107Q274 107 290.5 123.5Q307 140 307 165Q307 186 291.5 197Q276 208 235 213Q130 225 80 262.5Q30 300 41 377L43 392Q48 432 68 460.5Q88 489 118.5 507.5Q149 526 188 534.5Q227 543 272 543Q394 543 445.5 498Q497 453 486 371L484 356H329Q334 388 320.5 405.5Q307 423 267 423Q234 423 214.5 408.5Q195 394 195 368Q195 348 210.5 338Q226 328 267 324ZM502 780 371 596H215L330 780Z" glyph-name="sacute" horiz-adv-x="528" unicode="&#347;" /><glyph d="M267 324Q313 319 352 308.5Q391 298 418 279Q445 260 458 230.5Q471 201 465 157L463 142Q453 70 394 28.5Q335 -13 229 -13Q104 -13 49.5 31Q-5 75 6 153L8 168H165Q160 140 177 123.5Q194 107 234 107Q274 107 290.5 123.5Q307 140 307 165Q307 186 291.5 197Q276 208 235 213Q130 225 80 262.5Q30 300 41 377L43 392Q48 432 68 460.5Q88 489 118.5 507.5Q149 526 188 534.5Q227 543 272 543Q394 543 445.5 498Q497 453 486 371L484 356H329Q334 388 320.5 405.5Q307 423 267 423Q234 423 214.5 408.5Q195 394 195 368Q195 348 210.5 338Q226 328 267 324ZM242 780 303 697 386 780H527L369 596H217L107 780Z" glyph-name="scaron" horiz-adv-x="528" unicode="&#353;" /><glyph d="M267 324Q313 319 352 308.5Q391 298 418 279Q445 260 458 230.5Q471 201 465 157L463 142Q453 73 400 33Q347 -7 250 -12L236 -40Q275 -43 300.5 -60.5Q326 -78 326 -118Q326 -163 291.5 -189Q257 -215 200 -215Q158 -215 130.5 -207Q103 -199 89 -190L121 -124Q132 -132 152 -136.5Q172 -141 195 -141Q241 -141 241 -116Q241 -95 196 -95Q189 -95 182 -96Q175 -97 170 -98Q163 -99 157 -100L146 -72L179 -10Q81 -2 39 40.5Q-3 83 6 153L8 168H165Q160 140 177 123.5Q194 107 234 107Q274 107 290.5 123.5Q307 140 307 165Q307 186 291.5 197Q276 208 235 213Q130 225 80 262.5Q30 300 41 377L43 392Q48 432 68 460.5Q88 489 118.5 507.5Q149 526 188 534.5Q227 543 272 543Q394 543 445.5 498Q497 453 486 371L484 356H329Q334 388 320.5 405.5Q307 423 267 423Q234 423 214.5 408.5Q195 394 195 368Q195 348 210.5 338Q226 328 267 324Z" glyph-name="scedilla" horiz-adv-x="528" unicode="&#351;" /><glyph d="M267 324Q313 319 352 308.5Q391 298 418 279Q445 260 458 230.5Q471 201 465 157L463 142Q453 70 394 28.5Q335 -13 229 -13Q104 -13 49.5 31Q-5 75 6 153L8 168H165Q160 140 177 123.5Q194 107 234 107Q274 107 290.5 123.5Q307 140 307 165Q307 186 291.5 197Q276 208 235 213Q130 225 80 262.5Q30 300 41 377L43 392Q48 432 68 460.5Q88 489 118.5 507.5Q149 526 188 534.5Q227 543 272 543Q394 543 445.5 498Q497 453 486 371L484 356H329Q334 388 320.5 405.5Q307 423 267 423Q234 423 214.5 408.5Q195 394 195 368Q195 348 210.5 338Q226 328 267 324ZM368 596 307 679 224 596H83L241 780H393L503 596Z" glyph-name="scircumflex" horiz-adv-x="528" unicode="&#349;" /><glyph d="M267 324Q313 319 352 308.5Q391 298 418 279Q445 260 458 230.5Q471 201 465 157L463 142Q453 70 394 28.5Q335 -13 229 -13Q104 -13 49.5 31Q-5 75 6 153L8 168H165Q160 140 177 123.5Q194 107 234 107Q274 107 290.5 123.5Q307 140 307 165Q307 186 291.5 197Q276 208 235 213Q130 225 80 262.5Q30 300 41 377L43 392Q48 432 68 460.5Q88 489 118.5 507.5Q149 526 188 534.5Q227 543 272 543Q394 543 445.5 498Q497 453 486 371L484 356H329Q334 388 320.5 405.5Q307 423 267 423Q234 423 214.5 408.5Q195 394 195 368Q195 348 210.5 338Q226 328 267 324ZM272 -101Q262 -171 223 -198.5Q184 -226 109 -226L116 -171Q144 -171 170.5 -164.5Q197 -158 205 -136H126L138 -44H280Z" glyph-name="scommaaccent" horiz-adv-x="528" unicode="&#537;" /><glyph d="M276 325Q321 325 342 347Q363 369 363 399Q363 425 343.5 440Q324 455 285 455H276Q231 455 210 433Q189 411 189 381Q189 355 208.5 340Q228 325 267 325ZM122 514Q105 532 97 558.5Q89 585 94 620L96 635Q102 676 122.5 706Q143 736 174.5 755.5Q206 775 245 784Q284 793 327 793Q390 793 433 780.5Q476 768 502 745.5Q528 723 537.5 691.5Q547 660 542 621L540 606H387Q391 638 374.5 656Q358 674 322 674Q285 674 268.5 658Q252 642 252 615Q252 595 269 582.5Q286 570 327 565Q432 553 481.5 515.5Q531 478 521 401L519 386Q513 340 491 311.5Q469 283 430 266Q447 248 455 221.5Q463 195 458 160L456 145Q450 104 429.5 74Q409 44 377.5 24.5Q346 5 307 -4Q268 -13 225 -13Q100 -13 49.5 34Q-1 81 10 159L12 174H165Q161 142 177.5 124Q194 106 230 106Q267 106 283.5 122Q300 138 300 165Q300 185 283 197.5Q266 210 225 215Q120 227 70 264.5Q20 302 31 379L33 394Q39 440 61 468.5Q83 497 122 514Z" glyph-name="section" horiz-adv-x="549" unicode="&#167;" /><glyph d="M173 37Q161 -56 112 -99.5Q63 -143 -22 -143L-12 -67Q26 -67 52 -50.5Q78 -34 86 0H1L23 167H190ZM209 307H42L64 474H231Z" glyph-name="semicolon" horiz-adv-x="266" unicode=";" /><glyph d="M190 37Q178 -56 129 -99.5Q80 -143 -5 -143L5 -67Q43 -67 69 -50.5Q95 -34 103 0H18L40 167H207ZM226 307H59L81 474H248Z" glyph-name="semicolon.T" horiz-adv-x="300" unicode="&#61829;" /><glyph d="M413 530H345L304 691L306 631V530H242V800H337L379 641L420 800H516V530H452V631L454 691ZM103 638Q58 644 36.5 661.5Q15 679 15 720V724Q15 762 39.5 785.5Q64 809 114 809Q166 809 189.5 784.5Q213 760 213 709V702H150Q150 728 142 740Q134 752 114 752H110Q96 752 88 745Q80 738 80 727V725Q80 711 90 704Q100 697 125 693Q170 687 192.5 669.5Q215 652 215 611V606Q215 566 189.5 543Q164 520 114 520Q13 520 13 621V623H76Q76 576 114 576H117Q134 576 141.5 584.5Q149 593 149 604V606Q149 620 139.5 627Q130 634 103 638Z" glyph-name="servicemark" horiz-adv-x="559" unicode="&#8480;" /><glyph d="M89 780H619L606 679L241 0H68L421 642L326 640H211L193 500H52Z" glyph-name="seven" horiz-adv-x="600" unicode="7" /><glyph d="M-16 190H268L258 111L89 -200H-39L122 87H74L69 50H-34Z" glyph-name="seven.inf" horiz-adv-x="300" unicode="&#58744;" /><glyph d="M1069 300Q1027 300 998 292.5Q969 285 946 267Q938 261 932 251.5Q926 242 923 233Q942 246 969 246Q1011 245 1037 215.5Q1063 186 1056 131L1054 116Q1037 -13 907 -13Q869 -13 843 -0.5Q817 12 802 33.5Q787 55 782 83Q777 111 781 142L783 157Q789 204 807 247.5Q825 291 863 331Q904 375 958 389Q1012 403 1082 403ZM918 143Q910 143 904 137L899 132Q898 130 898 127Q897 124 897 117Q897 91 912 91H914Q921 91 926.5 96.5Q932 102 934 113L935 120Q938 143 920 143ZM478 0 491 103H563L582 245L544 222L496 307L632 392H721L683 103H754L741 0ZM-4 0 674 780H808L130 0ZM61 780H345L335 701L166 390H38L199 677H151L146 640H43Z" glyph-name="sevensixteenths" horiz-adv-x="1100" unicode="&#61976;" /><glyph d="M189 293Q187 282 184 264.5Q181 247 181 236Q181 179 204.5 153Q228 127 263 127H273Q318 127 347.5 153.5Q377 180 385 243L386 251Q389 277 384 296Q379 315 367.5 327.5Q356 340 339.5 346Q323 352 304 352H294Q267 352 238.5 337Q210 322 189 293ZM560 651Q475 651 408.5 629.5Q342 608 294 560Q271 537 254.5 509Q238 481 227 446Q251 469 286.5 481Q322 493 362 493Q410 493 448 476.5Q486 460 510.5 429Q535 398 544.5 354.5Q554 311 547 257L544 235Q528 118 460 52.5Q392 -13 268 -13Q197 -13 148 9Q99 31 70 70.5Q41 110 31 164Q21 218 30 282L33 304Q38 343 48 388Q58 433 75.5 479Q93 525 120 570.5Q147 616 186 655Q228 697 272.5 723.5Q317 750 365.5 765.5Q414 781 466.5 787Q519 793 578 793Z" glyph-name="six" horiz-adv-x="600" unicode="6" /><glyph d="M243 100Q201 100 172 92.5Q143 85 120 67Q112 61 106 51.5Q100 42 97 33Q116 46 143 46Q185 45 211 15.5Q237 -14 230 -69L228 -84Q211 -213 81 -213Q43 -213 17 -200.5Q-9 -188 -24 -166.5Q-39 -145 -44 -117Q-49 -89 -45 -58L-43 -43Q-37 4 -19 47.5Q-1 91 37 131Q78 175 132 189Q186 203 256 203ZM92 -57Q84 -57 78 -63L73 -68Q72 -70 72 -73Q71 -76 71 -83Q71 -109 86 -109H88Q95 -109 100.5 -103.5Q106 -98 108 -87L109 -80Q112 -57 94 -57Z" glyph-name="six.inf" horiz-adv-x="300" unicode="&#58743;" /><glyph glyph-name="sixperemspace" horiz-adv-x="167" unicode="&#8198;" /><glyph d="M104 -120H-49L307 840H460Z" glyph-name="slash" horiz-adv-x="414" unicode="/" /><glyph d="M-31 0 263 780H417L123 0Z" glyph-name="slash.cap" horiz-adv-x="381" unicode="&#58465;" /><glyph glyph-name="space" horiz-adv-x="200" unicode=" " /><glyph d="M451 790Q463 771 486 742.5Q509 714 540 682Q571 650 607.5 618Q644 586 684 560Q717 539 746.5 515.5Q776 492 798.5 464.5Q821 437 834.5 405Q848 373 848 334Q848 297 834.5 265.5Q821 234 797 210.5Q773 187 741 173.5Q709 160 672 160Q635 160 604 173.5Q573 187 548 209.5Q523 232 504 261Q485 290 472 321L469 320Q473 269 479.5 227Q486 185 495.5 147Q505 109 518.5 73Q532 37 551 0H349Q368 37 381.5 73Q395 109 404.5 147Q414 185 420.5 227Q427 269 431 320L428 321Q415 290 396 261Q377 232 352 209.5Q327 187 296 173.5Q265 160 228 160Q191 160 159 173.5Q127 187 103 210.5Q79 234 65.5 265.5Q52 297 52 334Q52 373 65.5 405Q79 437 101.5 464.5Q124 492 153.5 515.5Q183 539 216 560Q256 586 292.5 618Q329 650 360 682Q391 714 414 742.5Q437 771 449 790Z" glyph-name="spade" horiz-adv-x="900" unicode="&#9824;" /><glyph d="M238 168V268L360 390L238 512V612H338L460 490L582 612H682V512L560 390L682 268V168H582L460 290L338 168ZM209 641V139H711V641ZM850 780V0H70V780Z" glyph-name="squaremultiply" horiz-adv-x="920" unicode="&#8864;" /><glyph d="M355 654Q331 654 315.5 644Q300 634 291 616.5Q282 599 278.5 574.5Q275 550 275 521Q275 501 276.5 479Q278 457 282 434H459L440 297H300Q303 261 304.5 222Q306 183 304 139H526L507 0H-5L14 139H166Q165 183 160 221.5Q155 260 147 297H34L53 434H120Q118 453 116 472.5Q114 492 114 513Q114 560 124 609.5Q134 659 161 700Q188 741 236 767Q284 793 360 793Q491 793 543.5 728.5Q596 664 577 529L573 500H414Q424 573 410.5 613.5Q397 654 355 654Z" glyph-name="sterling" horiz-adv-x="600" unicode="&#163;" /><glyph d="M414 530 396 392H260L234 195Q229 160 242 141.5Q255 123 301 123Q315 123 331 125.5Q347 128 352 130L335 0Q327 -4 307 -8.5Q287 -13 260 -13Q200 -13 161.5 1Q123 15 101.5 39.5Q80 64 74 98Q68 132 73 172L102 392H20L38 530H120L140 680H298L278 530Z" glyph-name="t" horiz-adv-x="431" unicode="t" /><glyph d="M28 320H92L102 392H20L38 530H120L140 680H298L278 530H414L396 392H260L250 320H346L331 208H235L234 195Q229 160 242 141.5Q255 123 301 123Q315 123 331 125.5Q347 128 352 130L335 0Q327 -4 307 -8.5Q287 -13 260 -13Q200 -13 161.5 1Q123 15 101.5 39.5Q80 64 74 98Q68 132 73 172L77 208H13Z" glyph-name="tbar" horiz-adv-x="431" unicode="&#359;" /><glyph d="M414 530 396 392H260L234 195Q229 160 242 141.5Q255 123 301 123Q315 123 331 125.5Q347 128 352 130L335 0Q327 -4 307 -8.5Q287 -13 260 -13Q200 -13 161.5 1Q123 15 101.5 39.5Q80 64 74 98Q68 132 73 172L102 392H20L38 530H120L140 680H298L278 530ZM465 800 413 596H343L370 800Z" glyph-name="tcaron" horiz-adv-x="431" unicode="&#357;" /><glyph d="M414 530 396 392H260L234 195Q229 160 242 141.5Q255 123 301 123Q315 123 331 125.5Q347 128 352 130L335 0Q327 -4 307 -8.5Q287 -13 260 -13Q200 -13 161.5 1Q123 15 101.5 39.5Q80 64 74 98Q68 132 73 172L102 392H20L38 530H120L140 680H298L278 530ZM258 -101Q248 -171 209 -198.5Q170 -226 95 -226L102 -171Q130 -171 156.5 -164.5Q183 -158 191 -136H112L124 -44H266Z" glyph-name="tcommaaccent" horiz-adv-x="431" unicode="&#355;" /><glyph d="M290 725H157L170 825H303ZM414 530 396 392H260L234 195Q229 160 242 141.5Q255 123 301 123Q315 123 331 125.5Q347 128 352 130L335 0Q327 -4 307 -8.5Q287 -13 260 -13Q200 -13 161.5 1Q123 15 101.5 39.5Q80 64 74 98Q68 132 73 172L102 392H20L38 530H120L140 680H298L278 530Z" glyph-name="tdotaccent" horiz-adv-x="431" unicode="&#7787;" /><glyph glyph-name="thinspace" horiz-adv-x="150" unicode="&#8201;" /><glyph d="M1369 300Q1327 300 1298 292.5Q1269 285 1246 267Q1238 261 1232 251.5Q1226 242 1223 233Q1242 246 1269 246Q1311 245 1337 215.5Q1363 186 1356 131L1354 116Q1337 -13 1207 -13Q1169 -13 1143 -0.5Q1117 12 1102 33.5Q1087 55 1082 83Q1077 111 1081 142L1083 157Q1089 204 1107 247.5Q1125 291 1163 331Q1204 375 1258 389Q1312 403 1382 403ZM1218 143Q1210 143 1204 137L1199 132Q1198 130 1198 127Q1197 124 1197 117Q1197 91 1212 91H1214Q1221 91 1226.5 96.5Q1232 102 1234 113L1235 120Q1238 143 1220 143ZM778 0 791 103H863L882 245L844 222L796 307L932 392H1021L983 103H1054L1041 0ZM296 0 974 780H1108L430 0ZM449 515Q445 495 450 488Q455 481 463 481H465Q482 481 486 509L487 516Q490 541 470 541H422L434 637H481Q490 637 495 641.5Q500 646 502 658L503 665Q506 689 490 689H488Q479 689 474 680.5Q469 672 467 650H347L348 659Q351 686 359.5 710Q368 734 385 752.5Q402 771 429 782Q456 793 495 793Q536 793 562 780.5Q588 768 603 750Q618 732 622.5 712Q627 692 625 676L623 661Q618 629 601.5 613Q585 597 562 589Q585 581 597.5 559Q610 537 605 505L603 490Q595 434 555.5 405.5Q516 377 458 377Q395 377 358 411.5Q321 446 328 506L329 515ZM29 390 42 493H114L133 635L95 612L47 697L183 782H272L234 493H305L292 390Z" glyph-name="thirteensixteenths" horiz-adv-x="1400" unicode="&#61985;" /><glyph d="M265 123Q312 123 336.5 154.5Q361 186 369 246L374 284Q391 407 300 407Q281 407 266.5 402Q252 397 240.5 389.5Q229 382 221.5 373.5Q214 365 208 358L184 175Q191 160 210.5 141.5Q230 123 265 123ZM266 800 225 488Q248 514 281 528.5Q314 543 362 543Q413 543 448.5 524.5Q484 506 505.5 472.5Q527 439 533.5 391Q540 343 532 284L527 246Q519 189 502.5 141Q486 93 458.5 59Q431 25 392 6Q353 -13 302 -13Q246 -13 212.5 7Q179 27 167 46L134 -200H-24L108 800Z" glyph-name="thorn" horiz-adv-x="574" unicode="&#254;" /><glyph d="M182 250Q177 212 181.5 188.5Q186 165 198 151Q210 137 227 132Q244 127 264 127H274Q312 127 342.5 148.5Q373 170 380 223L381 231Q393 328 299 328H193L211 468H315Q359 468 386.5 490.5Q414 513 419 558L420 566Q425 606 403.5 629.5Q382 653 345 653H335Q291 653 262 623.5Q233 594 223 520H63L66 542Q83 665 150 729Q217 793 340 793Q411 793 460 774Q509 755 537.5 724Q566 693 576.5 654.5Q587 616 582 577L579 555Q571 492 539 451.5Q507 411 458 397Q505 383 527.5 334.5Q550 286 541 221L538 199Q533 162 516 124.5Q499 87 467 56.5Q435 26 386.5 6.5Q338 -13 269 -13Q198 -13 147.5 4.5Q97 22 66 53.5Q35 85 23 129.5Q11 174 19 228L22 250Z" glyph-name="three" horiz-adv-x="600" unicode="3" /><glyph d="M72 -75Q68 -95 73 -102Q78 -109 86 -109H88Q105 -109 109 -81L110 -74Q113 -49 93 -49H45L57 47H104Q113 47 118 51.5Q123 56 125 68L126 75Q129 99 113 99H111Q102 99 97 90.5Q92 82 90 60H-30L-29 69Q-26 96 -17.5 120Q-9 144 8 162.5Q25 181 52 192Q79 203 118 203Q159 203 185 190.5Q211 178 226 160Q241 142 245.5 122Q250 102 248 86L246 71Q241 39 224.5 23Q208 7 185 -1Q208 -9 220.5 -31Q233 -53 228 -85L226 -100Q218 -156 178.5 -184.5Q139 -213 81 -213Q18 -213 -19 -178.5Q-56 -144 -49 -84L-48 -75Z" glyph-name="three.inf" horiz-adv-x="300" unicode="&#58740;" /><glyph glyph-name="threeperemspace" horiz-adv-x="333" unicode="&#8196;" /><glyph d="M45 419H715L697 281H27Z" glyph-name="threequarteremdash" horiz-adv-x="750" unicode="&#58482;" /><glyph d="M50 459H720L702 321H32Z" glyph-name="threequarteremdash.cap" horiz-adv-x="750" unicode="&#58501;" /><glyph d="M573 171H610L619 235ZM588 0 597 68H466L478 165L645 390H759L730 171H762L749 68H717L708 0ZM-4 0 674 780H808L130 0ZM149 515Q145 495 150 488Q155 481 163 481H165Q182 481 186 509L187 516Q190 541 170 541H122L134 637H181Q190 637 195 641.5Q200 646 202 658L203 665Q206 689 190 689H188Q179 689 174 680.5Q169 672 167 650H47L48 659Q51 686 59.5 710Q68 734 85 752.5Q102 771 129 782Q156 793 195 793Q236 793 262 780.5Q288 768 303 750Q318 732 322.5 712Q327 692 325 676L323 661Q318 629 301.5 613Q285 597 262 589Q285 581 297.5 559Q310 537 305 505L303 490Q295 434 255.5 405.5Q216 377 158 377Q95 377 58 411.5Q21 446 28 506L29 515Z" glyph-name="threequarters" horiz-adv-x="800" unicode="&#190;" /><glyph d="M1069 300Q1027 300 998 292.5Q969 285 946 267Q938 261 932 251.5Q926 242 923 233Q942 246 969 246Q1011 245 1037 215.5Q1063 186 1056 131L1054 116Q1037 -13 907 -13Q869 -13 843 -0.5Q817 12 802 33.5Q787 55 782 83Q777 111 781 142L783 157Q789 204 807 247.5Q825 291 863 331Q904 375 958 389Q1012 403 1082 403ZM918 143Q910 143 904 137L899 132Q898 130 898 127Q897 124 897 117Q897 91 912 91H914Q921 91 926.5 96.5Q932 102 934 113L935 120Q938 143 920 143ZM478 0 491 103H563L582 245L544 222L496 307L632 392H721L683 103H754L741 0ZM-4 0 674 780H808L130 0ZM149 515Q145 495 150 488Q155 481 163 481H165Q182 481 186 509L187 516Q190 541 170 541H122L134 637H181Q190 637 195 641.5Q200 646 202 658L203 665Q206 689 190 689H188Q179 689 174 680.5Q169 672 167 650H47L48 659Q51 686 59.5 710Q68 734 85 752.5Q102 771 129 782Q156 793 195 793Q236 793 262 780.5Q288 768 303 750Q318 732 322.5 712Q327 692 325 676L323 661Q318 629 301.5 613Q285 597 262 589Q285 581 297.5 559Q310 537 305 505L303 490Q295 434 255.5 405.5Q216 377 158 377Q95 377 58 411.5Q21 446 28 506L29 515Z" glyph-name="threesixteenths" horiz-adv-x="1100" unicode="&#61974;" /><glyph d="M149 515Q145 495 150 488Q155 481 163 481H165Q182 481 186 509L187 516Q190 541 170 541H122L134 637H181Q190 637 195 641.5Q200 646 202 658L203 665Q206 689 190 689H188Q179 689 174 680.5Q169 672 167 650H47L48 659Q51 686 59.5 710Q68 734 85 752.5Q102 771 129 782Q156 793 195 793Q236 793 262 780.5Q288 768 303 750Q318 732 322.5 712Q327 692 325 676L323 661Q318 629 301.5 613Q285 597 262 589Q285 581 297.5 559Q310 537 305 505L303 490Q295 434 255.5 405.5Q216 377 158 377Q95 377 58 411.5Q21 446 28 506L29 515Z" glyph-name="threesuperior" horiz-adv-x="300" unicode="&#179;" /><glyph d="M503 772Q500 730 488 700Q476 670 458.5 650.5Q441 631 420 622Q399 613 377 613Q351 613 329.5 621Q308 629 289 639Q270 649 253.5 657Q237 665 221 665Q209 665 198 656.5Q187 648 187 628H82Q85 670 97 700Q109 730 126.5 749.5Q144 769 165 778Q186 787 208 787Q233 787 255 779Q277 771 296 761Q315 751 331.5 743Q348 735 364 735Q376 735 387 743.5Q398 752 398 772Z" glyph-name="tilde" horiz-adv-x="500" unicode="&#732;" /><glyph d="M510 947Q503 881 470 854.5Q437 828 396 828Q372 828 351 835.5Q330 843 312 852Q294 861 278 868.5Q262 876 248 876Q234 876 223.5 869Q213 862 211 843H126Q133 909 166 935.5Q199 962 240 962Q264 962 285 954.5Q306 947 324 938Q342 929 358 921.5Q374 914 388 914Q402 914 412.5 921Q423 928 425 947Z" glyph-name="tilde.cap" horiz-adv-x="500" unicode="&#58404;" /><glyph d="M413 530H345L304 691L306 631V530H242V800H337L379 641L420 800H516V530H452V631L454 691ZM147 530H83V744H17V800H214V744H147Z" glyph-name="trademark" horiz-adv-x="559" unicode="&#8482;" /><glyph d="M62 780H218L465 162L712 780H868L542 -13H388Z" glyph-name="triagdn" horiz-adv-x="930" unicode="&#9660;" /><glyph d="M850 793V637L232 390L850 143V-13L57 313V467Z" glyph-name="triaglf" horiz-adv-x="930" unicode="&#9668;" /><glyph d="M873 313 80 -13V143L697 390L80 637V793L873 467Z" glyph-name="triagrt" horiz-adv-x="930" unicode="&#9658;" /><glyph d="M868 0H712L465 617L218 0H62L388 793H542Z" glyph-name="triagup" horiz-adv-x="930" unicode="&#9650;" /><glyph d="M634 780 567 457H446L480 780ZM264 457 298 780H437L386 457ZM255 780 204 457H83L100 780Z" glyph-name="tripleprime" horiz-adv-x="628" unicode="&#8244;" /><glyph d="M525 140 507 0H-5L8 101L351 432Q368 448 380 461Q392 474 399.5 486.5Q407 499 411.5 512Q416 525 418 540L419 548Q426 602 404 627.5Q382 653 343 653H333Q287 653 260 623.5Q233 594 223 520H63L66 542Q83 669 149 731Q215 793 340 793Q411 793 459.5 773.5Q508 754 537 722.5Q566 691 576.5 651Q587 611 581 569L578 547Q574 516 566 492Q558 468 544.5 447Q531 426 512 404.5Q493 383 466 358L239 139L310 140Z" glyph-name="two" horiz-adv-x="600" unicode="2" /><glyph d="M215 -200H-57L-47 -122L111 29Q119 37 123.5 44Q128 51 130 60L132 75Q135 99 119 99H117Q108 99 103 90.5Q98 82 96 60H-24L-23 69Q-20 96 -11.5 120Q-3 144 14 162.5Q31 181 58 192Q85 203 124 203Q165 203 191 190.5Q217 178 232 160Q247 142 251.5 122Q256 102 254 86L252 71Q247 39 232.5 17.5Q218 -4 193 -28L120 -97H228Z" glyph-name="two.inf" horiz-adv-x="300" unicode="&#58739;" /><glyph d="M292 390H20L30 468L188 619Q196 627 200.5 634Q205 641 207 650L209 665Q212 689 196 689H194Q185 689 180 680.5Q175 672 173 650H53L54 659Q57 686 65.5 710Q74 734 91 752.5Q108 771 135 782Q162 793 201 793Q242 793 268 780.5Q294 768 309 750Q324 732 328.5 712Q333 692 331 676L329 661Q324 629 309.5 607.5Q295 586 270 562L197 493H305Z" glyph-name="twosuperior" horiz-adv-x="300" unicode="&#178;" /><glyph d="M226 530 182 195Q177 160 191 141.5Q205 123 241 123Q275 123 301.5 139.5Q328 156 341 172L388 530H546L496 149L486 0H345V70Q315 34 272 10.5Q229 -13 176 -13Q128 -13 96 1Q64 15 45.5 39.5Q27 64 21.5 98Q16 132 21 172L68 530Z" glyph-name="u" horiz-adv-x="580" unicode="u" /><glyph d="M226 530 182 195Q177 160 191 141.5Q205 123 241 123Q275 123 301.5 139.5Q328 156 341 172L388 530H546L496 149L486 0H345V70Q315 34 272 10.5Q229 -13 176 -13Q128 -13 96 1Q64 15 45.5 39.5Q27 64 21.5 98Q16 132 21 172L68 530ZM524 780 393 596H237L352 780Z" glyph-name="uacute" horiz-adv-x="580" unicode="&#250;" /><glyph d="M226 530 182 195Q177 160 191 141.5Q205 123 241 123Q275 123 301.5 139.5Q328 156 341 172L388 530H546L496 149L486 0H345V70Q315 34 272 10.5Q229 -13 176 -13Q128 -13 96 1Q64 15 45.5 39.5Q27 64 21.5 98Q16 132 21 172L68 530ZM313 582Q260 582 226 597Q192 612 173.5 638.5Q155 665 150.5 701Q146 737 152 780H263Q257 735 276 718.5Q295 702 327 702Q359 702 382 718.5Q405 735 411 780H526Q521 737 507 701Q493 665 467.5 638.5Q442 612 403.5 597Q365 582 313 582Z" glyph-name="ubreve" horiz-adv-x="580" unicode="&#365;" /><glyph d="M226 530 182 195Q177 160 191 141.5Q205 123 241 123Q275 123 301.5 139.5Q328 156 341 172L388 530H546L496 149L486 0H345V70Q315 34 272 10.5Q229 -13 176 -13Q128 -13 96 1Q64 15 45.5 39.5Q27 64 21.5 98Q16 132 21 172L68 530ZM390 596 329 679 246 596H105L263 780H415L525 596Z" glyph-name="ucircumflex" horiz-adv-x="580" unicode="&#251;" /><glyph d="M226 530 182 195Q177 160 191 141.5Q205 123 241 123Q275 123 301.5 139.5Q328 156 341 172L388 530H546L496 149L486 0H345V70Q315 34 272 10.5Q229 -13 176 -13Q128 -13 96 1Q64 15 45.5 39.5Q27 64 21.5 98Q16 132 21 172L68 530ZM507 605H340L362 772H529ZM292 605H125L147 772H314Z" glyph-name="udieresis" horiz-adv-x="580" unicode="&#252;" /><glyph d="M226 530 182 195Q177 160 191 141.5Q205 123 241 123Q275 123 301.5 139.5Q328 156 341 172L388 530H546L496 149L486 0H345V70Q315 34 272 10.5Q229 -13 176 -13Q128 -13 96 1Q64 15 45.5 39.5Q27 64 21.5 98Q16 132 21 172L68 530ZM326 780 393 596H237L154 780Z" glyph-name="ugrave" horiz-adv-x="580" unicode="&#249;" /><glyph d="M226 530 182 195Q177 160 191 141.5Q205 123 241 123Q275 123 301.5 139.5Q328 156 341 172L388 530H546L496 149L486 0H345V70Q315 34 272 10.5Q229 -13 176 -13Q128 -13 96 1Q64 15 45.5 39.5Q27 64 21.5 98Q16 132 21 172L68 530ZM587 780 456 596H333L448 780ZM404 780 296 596H173L264 780Z" glyph-name="uhungarumlaut" horiz-adv-x="580" unicode="&#369;" /><glyph d="M226 530 182 195Q177 160 191 141.5Q205 123 241 123Q275 123 301.5 139.5Q328 156 341 172L388 530H546L496 149L486 0H345V70Q315 34 272 10.5Q229 -13 176 -13Q128 -13 96 1Q64 15 45.5 39.5Q27 64 21.5 98Q16 132 21 172L68 530ZM186 757H486L468 619H168Z" glyph-name="umacron" horiz-adv-x="580" unicode="&#363;" /><glyph d="M-14 -47H222L204 -185H-32Z" glyph-name="underscore" horiz-adv-x="320" unicode="_" /><glyph d="M-14 -47H502L484 -185H-32Z" glyph-name="underscoremonospace" horiz-adv-x="600" unicode="&#65343;" /><glyph d="M45 419H318L300 281H27Z" glyph-name="uni00AD" horiz-adv-x="353" unicode="&#173;" /><glyph d="M45 419H1165L1147 281H27Z" glyph-name="uni2015" horiz-adv-x="1200" unicode="&#8213;" /><glyph d="M50 459H1170L1152 321H32Z" glyph-name="uni2015.cap" horiz-adv-x="1200" unicode="&#58504;" /><glyph d="M206 672Q208 682 203 685.5Q198 689 192 689H190Q175 689 172 672L149 498Q147 488 152 484.5Q157 481 163 481H165Q180 481 183 498ZM302 494Q295 441 259.5 409Q224 377 158 377Q126 377 100.5 386Q75 395 58 410.5Q41 426 33 447.5Q25 469 28 494L53 676Q61 729 96 761Q131 793 197 793Q228 793 254 784Q280 775 297 759.5Q314 744 322 722.5Q330 701 327 676Z" glyph-name="uni2070" horiz-adv-x="300" unicode="&#8304;" /><glyph d="M124 561H161L170 625ZM139 390 148 458H17L29 555L196 780H310L281 561H313L300 458H268L259 390Z" glyph-name="uni2074" horiz-adv-x="300" unicode="&#8308;" /><glyph d="M149 515Q145 495 150 488Q155 481 163 481H165Q182 481 186 509L187 516Q189 533 183 539.5Q177 546 167 546H165Q150 546 141 535L42 570L79 780H334L321 677H164L156 632Q162 637 176.5 640.5Q191 644 205 644Q264 644 289.5 610Q315 576 307 521L305 506Q288 377 158 377Q95 377 58 411.5Q21 446 28 506L29 515Z" glyph-name="uni2075" horiz-adv-x="300" unicode="&#8309;" /><glyph d="M320 690Q278 690 249 682.5Q220 675 197 657Q189 651 183 641.5Q177 632 174 623Q193 636 220 636Q262 635 288 605.5Q314 576 307 521L305 506Q288 377 158 377Q120 377 94 389.5Q68 402 53 423.5Q38 445 33 473Q28 501 32 532L34 547Q40 594 58 637.5Q76 681 114 721Q155 765 209 779Q263 793 333 793ZM169 533Q161 533 155 527L150 522Q149 520 149 517Q148 514 148 507Q148 481 163 481H165Q172 481 177.5 486.5Q183 492 185 503L186 510Q189 533 171 533Z" glyph-name="uni2076" horiz-adv-x="300" unicode="&#8310;" /><glyph d="M61 780H345L335 701L166 390H38L199 677H151L146 640H43Z" glyph-name="uni2077" horiz-adv-x="300" unicode="&#8311;" /><glyph d="M165 481Q182 481 186 509L187 516Q190 541 171 541H169Q152 541 148 513L147 506Q144 481 163 481ZM186 637Q191 637 195.5 641.5Q200 646 202 658L203 665Q206 689 192 689H190Q185 689 180.5 684.5Q176 680 174 668L173 661Q170 637 184 637ZM158 377Q126 377 100.5 385.5Q75 394 57.5 410Q40 426 32 447Q24 468 27 494L29 509Q34 541 50.5 560.5Q67 580 90 589Q73 598 61 618Q49 638 54 670L56 685Q58 699 66 717.5Q74 736 90.5 753Q107 770 132.5 781.5Q158 793 195 793Q236 793 262 780.5Q288 768 303 750Q318 732 322.5 712Q327 692 325 676L323 661Q318 629 301.5 613Q285 597 262 589Q285 581 297.5 559Q310 537 305 505L303 490Q295 434 255.5 405.5Q216 377 158 377Z" glyph-name="uni2078" horiz-adv-x="300" unicode="&#8312;" /><glyph d="M35 480Q77 480 106 487.5Q135 495 158 513Q166 519 172 528.5Q178 538 181 547Q162 534 135 534Q114 534 96.5 542Q79 550 67 564.5Q55 579 49.5 600.5Q44 622 48 649L50 664Q67 793 197 793Q235 793 261 780.5Q287 768 302 746.5Q317 725 322 697Q327 669 323 638L321 623Q315 576 297 532.5Q279 489 241 449Q200 405 146 391Q92 377 22 377ZM186 637Q195 637 200 642Q203 645 205 648Q205 650 206 653Q206 655 206.5 657.5Q207 660 207 663Q207 689 192 689H190Q183 689 177.5 683.5Q172 678 170 667L169 660Q166 637 184 637Z" glyph-name="uni2079" horiz-adv-x="300" unicode="&#8313;" /><glyph d="M247 717 236 637H316L303 533H223L212 453H108L119 533H39L52 637H132L143 717Z" glyph-name="uni207A" horiz-adv-x="300" unicode="&#8314;" /><glyph d="M316 637 303 533H39L52 637Z" glyph-name="uni207B" horiz-adv-x="300" unicode="&#8315;" /><glyph d="M308 575 295 471H31L44 575ZM324 699 311 595H47L60 699Z" glyph-name="uni207C" horiz-adv-x="300" unicode="&#8316;" /><glyph d="M43 589Q50 653 74 702Q98 751 129 780H255Q241 765 226 744Q211 723 198 698.5Q185 674 175 646Q165 618 162 589L161 580Q158 551 160.5 523Q163 495 169 470.5Q175 446 183 425.5Q191 405 199 390H83Q74 404 65 424Q56 444 50 469Q44 494 41.5 522Q39 550 42 580Z" glyph-name="uni207D" horiz-adv-x="205" unicode="&#8317;" /><glyph d="M216 581Q209 517 185 468Q161 419 130 390H4Q18 405 33 426Q48 447 61 471.5Q74 496 84 524Q94 552 97 581L98 590Q101 619 98.5 646.5Q96 674 90 699Q84 724 75.5 744.5Q67 765 60 780H176Q185 766 194 746Q203 726 209 701Q215 676 217.5 648Q220 620 217 590Z" glyph-name="uni207E" horiz-adv-x="205" unicode="&#8318;" /><glyph d="M155 282Q157 292 152 295.5Q147 299 141 299H139Q124 299 121 282L98 108Q96 98 101 94.5Q106 91 112 91H114Q129 91 132 108ZM251 104Q244 51 208.5 19Q173 -13 107 -13Q75 -13 49.5 -4Q24 5 7 20.5Q-10 36 -18 57.5Q-26 79 -23 104L2 286Q10 339 45 371Q80 403 146 403Q177 403 203 394Q229 385 246 369.5Q263 354 271 332.5Q279 311 276 286Z" glyph-name="uni2080" horiz-adv-x="300" unicode="&#8320;" /><glyph d="M-22 0 -9 103H63L82 245L44 222L-4 307L132 392H221L183 103H254L241 0Z" glyph-name="uni2081" horiz-adv-x="300" unicode="&#8321;" /><glyph d="M241 0H-31L-21 78L137 229Q145 237 149.5 244Q154 251 156 260L158 275Q161 299 145 299H143Q134 299 129 290.5Q124 282 122 260H2L3 269Q6 296 14.5 320Q23 344 40 362.5Q57 381 84 392Q111 403 150 403Q191 403 217 390.5Q243 378 258 360Q273 342 277.5 322Q282 302 280 286L278 271Q273 239 258.5 217.5Q244 196 219 172L146 103H254Z" glyph-name="uni2082" horiz-adv-x="300" unicode="&#8322;" /><glyph d="M98 125Q94 105 99 98Q104 91 112 91H114Q131 91 135 119L136 126Q139 151 119 151H71L83 247H130Q139 247 144 251.5Q149 256 151 268L152 275Q155 299 139 299H137Q128 299 123 290.5Q118 282 116 260H-4L-3 269Q0 296 8.5 320Q17 344 34 362.5Q51 381 78 392Q105 403 144 403Q185 403 211 390.5Q237 378 252 360Q267 342 271.5 322Q276 302 274 286L272 271Q267 239 250.5 223Q234 207 211 199Q234 191 246.5 169Q259 147 254 115L252 100Q244 44 204.5 15.5Q165 -13 107 -13Q44 -13 7 21.5Q-30 56 -23 116L-22 125Z" glyph-name="uni2083" horiz-adv-x="300" unicode="&#8323;" /><glyph d="M73 171H110L119 235ZM88 0 97 68H-34L-22 165L145 390H259L230 171H262L249 68H217L208 0Z" glyph-name="uni2084" horiz-adv-x="300" unicode="&#8324;" /><glyph d="M98 125Q94 105 99 98Q104 91 112 91H114Q131 91 135 119L136 126Q138 143 132 149.5Q126 156 116 156H114Q99 156 90 145L-9 180L28 390H283L270 287H113L105 242Q111 247 125.5 250.5Q140 254 154 254Q213 254 238.5 220Q264 186 256 131L254 116Q237 -13 107 -13Q44 -13 7 21.5Q-30 56 -23 116L-22 125Z" glyph-name="uni2085" horiz-adv-x="300" unicode="&#8325;" /><glyph d="M269 300Q227 300 198 292.5Q169 285 146 267Q138 261 132 251.5Q126 242 123 233Q142 246 169 246Q211 245 237 215.5Q263 186 256 131L254 116Q237 -13 107 -13Q69 -13 43 -0.5Q17 12 2 33.5Q-13 55 -18 83Q-23 111 -19 142L-17 157Q-11 204 7 247.5Q25 291 63 331Q104 375 158 389Q212 403 282 403ZM118 143Q110 143 104 137L99 132Q98 130 98 127Q97 124 97 117Q97 91 112 91H114Q121 91 126.5 96.5Q132 102 134 113L135 120Q138 143 120 143Z" glyph-name="uni2086" horiz-adv-x="300" unicode="&#8326;" /><glyph d="M10 390H294L284 311L115 0H-13L148 287H100L95 250H-8Z" glyph-name="uni2087" horiz-adv-x="300" unicode="&#8327;" /><glyph d="M114 91Q131 91 135 119L136 126Q139 151 120 151H118Q101 151 97 123L96 116Q93 91 112 91ZM135 247Q140 247 144.5 251.5Q149 256 151 268L152 275Q155 299 141 299H139Q134 299 129.5 294.5Q125 290 123 278L122 271Q119 247 133 247ZM107 -13Q75 -13 49.5 -4.5Q24 4 6.5 20Q-11 36 -19 57Q-27 78 -24 104L-22 119Q-17 151 -0.5 170.5Q16 190 39 199Q22 208 10 228Q-2 248 3 280L5 295Q7 309 15 327.5Q23 346 39.5 363Q56 380 81.5 391.5Q107 403 144 403Q185 403 211 390.5Q237 378 252 360Q267 342 271.5 322Q276 302 274 286L272 271Q267 239 250.5 223Q234 207 211 199Q234 191 246.5 169Q259 147 254 115L252 100Q244 44 204.5 15.5Q165 -13 107 -13Z" glyph-name="uni2088" horiz-adv-x="300" unicode="&#8328;" /><glyph d="M-16 90Q26 90 55 97.5Q84 105 107 123Q115 129 121 138.5Q127 148 130 157Q111 144 84 144Q63 144 45.5 152Q28 160 16 174.5Q4 189 -1.5 210.5Q-7 232 -3 259L-1 274Q16 403 146 403Q184 403 210 390.5Q236 378 251 356.5Q266 335 271 307Q276 279 272 248L270 233Q264 186 246 142.5Q228 99 190 59Q149 15 95 1Q41 -13 -29 -13ZM135 247Q144 247 149 252Q152 255 154 258Q154 260 155 263Q155 265 155.5 267.5Q156 270 156 273Q156 299 141 299H139Q132 299 126.5 293.5Q121 288 119 277L118 270Q115 247 133 247Z" glyph-name="uni2089" horiz-adv-x="300" unicode="&#8329;" /><glyph d="M196 327 185 247H265L252 143H172L161 63H57L68 143H-12L1 247H81L92 327Z" glyph-name="uni208A" horiz-adv-x="300" unicode="&#8330;" /><glyph d="M265 247 252 143H-12L1 247Z" glyph-name="uni208B" horiz-adv-x="300" unicode="&#8331;" /><glyph d="M257 185 244 81H-20L-7 185ZM273 309 260 205H-4L9 309Z" glyph-name="uni208C" horiz-adv-x="300" unicode="&#8332;" /><glyph d="M-8 199Q-1 263 23 312Q47 361 78 390H204Q190 375 175 354Q160 333 147 308.5Q134 284 124 256Q114 228 111 199L110 190Q107 161 109.5 133Q112 105 118 80.5Q124 56 132 35.5Q140 15 148 0H32Q23 14 14 34Q5 54 -1 79Q-7 104 -9.5 132Q-12 160 -9 190Z" glyph-name="uni208D" horiz-adv-x="205" unicode="&#8333;" /><glyph d="M165 191Q158 127 134 78Q110 29 79 0H-47Q-33 15 -18 36Q-3 57 10 81.5Q23 106 33 134Q43 162 46 191L47 200Q50 229 47.5 256.5Q45 284 39 309Q33 334 24.5 354.5Q16 375 9 390H125Q134 376 143 356Q152 336 158 311Q164 286 166.5 258Q169 230 166 200Z" glyph-name="uni208E" horiz-adv-x="205" unicode="&#8334;" /><glyph d="M598 125Q594 105 599 98Q604 91 612 91H614Q631 91 635 119L636 126Q639 151 619 151H571L583 247H630Q639 247 644 251.5Q649 256 651 268L652 275Q655 299 639 299H637Q628 299 623 290.5Q618 282 616 260H496L497 269Q500 296 508.5 320Q517 344 534 362.5Q551 381 578 392Q605 403 644 403Q685 403 711 390.5Q737 378 752 360Q767 342 771.5 322Q776 302 774 286L772 271Q767 239 750.5 223Q734 207 711 199Q734 191 746.5 169Q759 147 754 115L752 100Q744 44 704.5 15.5Q665 -13 607 -13Q544 -13 507 21.5Q470 56 477 116L478 125ZM-4 0 674 780H808L130 0ZM29 390 42 493H114L133 635L95 612L47 697L183 782H272L234 493H305L292 390Z" glyph-name="uni2153" horiz-adv-x="800" unicode="&#8531;" /><glyph d="M598 125Q594 105 599 98Q604 91 612 91H614Q631 91 635 119L636 126Q639 151 619 151H571L583 247H630Q639 247 644 251.5Q649 256 651 268L652 275Q655 299 639 299H637Q628 299 623 290.5Q618 282 616 260H496L497 269Q500 296 508.5 320Q517 344 534 362.5Q551 381 578 392Q605 403 644 403Q685 403 711 390.5Q737 378 752 360Q767 342 771.5 322Q776 302 774 286L772 271Q767 239 750.5 223Q734 207 711 199Q734 191 746.5 169Q759 147 754 115L752 100Q744 44 704.5 15.5Q665 -13 607 -13Q544 -13 507 21.5Q470 56 477 116L478 125ZM-4 0 674 780H808L130 0ZM292 390H20L30 468L188 619Q196 627 200.5 634Q205 641 207 650L209 665Q212 689 196 689H194Q185 689 180 680.5Q175 672 173 650H53L54 659Q57 686 65.5 710Q74 734 91 752.5Q108 771 135 782Q162 793 201 793Q242 793 268 780.5Q294 768 309 750Q324 732 328.5 712Q333 692 331 676L329 661Q324 629 309.5 607.5Q295 586 270 562L197 493H305Z" glyph-name="uni2154" horiz-adv-x="800" unicode="&#8532;" /><glyph d="M598 125Q594 105 599 98Q604 91 612 91H614Q631 91 635 119L636 126Q638 143 632 149.5Q626 156 616 156H614Q599 156 590 145L491 180L528 390H783L770 287H613L605 242Q611 247 625.5 250.5Q640 254 654 254Q713 254 738.5 220Q764 186 756 131L754 116Q737 -13 607 -13Q544 -13 507 21.5Q470 56 477 116L478 125ZM-4 0 674 780H808L130 0ZM29 390 42 493H114L133 635L95 612L47 697L183 782H272L234 493H305L292 390Z" glyph-name="uni2155" horiz-adv-x="800" unicode="&#8533;" /><glyph d="M598 125Q594 105 599 98Q604 91 612 91H614Q631 91 635 119L636 126Q638 143 632 149.5Q626 156 616 156H614Q599 156 590 145L491 180L528 390H783L770 287H613L605 242Q611 247 625.5 250.5Q640 254 654 254Q713 254 738.5 220Q764 186 756 131L754 116Q737 -13 607 -13Q544 -13 507 21.5Q470 56 477 116L478 125ZM-4 0 674 780H808L130 0ZM292 390H20L30 468L188 619Q196 627 200.5 634Q205 641 207 650L209 665Q212 689 196 689H194Q185 689 180 680.5Q175 672 173 650H53L54 659Q57 686 65.5 710Q74 734 91 752.5Q108 771 135 782Q162 793 201 793Q242 793 268 780.5Q294 768 309 750Q324 732 328.5 712Q333 692 331 676L329 661Q324 629 309.5 607.5Q295 586 270 562L197 493H305Z" glyph-name="uni2156" horiz-adv-x="800" unicode="&#8534;" /><glyph d="M598 125Q594 105 599 98Q604 91 612 91H614Q631 91 635 119L636 126Q638 143 632 149.5Q626 156 616 156H614Q599 156 590 145L491 180L528 390H783L770 287H613L605 242Q611 247 625.5 250.5Q640 254 654 254Q713 254 738.5 220Q764 186 756 131L754 116Q737 -13 607 -13Q544 -13 507 21.5Q470 56 477 116L478 125ZM-4 0 674 780H808L130 0ZM149 515Q145 495 150 488Q155 481 163 481H165Q182 481 186 509L187 516Q190 541 170 541H122L134 637H181Q190 637 195 641.5Q200 646 202 658L203 665Q206 689 190 689H188Q179 689 174 680.5Q169 672 167 650H47L48 659Q51 686 59.5 710Q68 734 85 752.5Q102 771 129 782Q156 793 195 793Q236 793 262 780.5Q288 768 303 750Q318 732 322.5 712Q327 692 325 676L323 661Q318 629 301.5 613Q285 597 262 589Q285 581 297.5 559Q310 537 305 505L303 490Q295 434 255.5 405.5Q216 377 158 377Q95 377 58 411.5Q21 446 28 506L29 515Z" glyph-name="uni2157" horiz-adv-x="800" unicode="&#8535;" /><glyph d="M598 125Q594 105 599 98Q604 91 612 91H614Q631 91 635 119L636 126Q638 143 632 149.5Q626 156 616 156H614Q599 156 590 145L491 180L528 390H783L770 287H613L605 242Q611 247 625.5 250.5Q640 254 654 254Q713 254 738.5 220Q764 186 756 131L754 116Q737 -13 607 -13Q544 -13 507 21.5Q470 56 477 116L478 125ZM-4 0 674 780H808L130 0ZM124 561H161L170 625ZM139 390 148 458H17L29 555L196 780H310L281 561H313L300 458H268L259 390Z" glyph-name="uni2158" horiz-adv-x="800" unicode="&#8536;" /><glyph d="M769 300Q727 300 698 292.5Q669 285 646 267Q638 261 632 251.5Q626 242 623 233Q642 246 669 246Q711 245 737 215.5Q763 186 756 131L754 116Q737 -13 607 -13Q569 -13 543 -0.5Q517 12 502 33.5Q487 55 482 83Q477 111 481 142L483 157Q489 204 507 247.5Q525 291 563 331Q604 375 658 389Q712 403 782 403ZM618 143Q610 143 604 137L599 132Q598 130 598 127Q597 124 597 117Q597 91 612 91H614Q621 91 626.5 96.5Q632 102 634 113L635 120Q638 143 620 143ZM-4 0 674 780H808L130 0ZM29 390 42 493H114L133 635L95 612L47 697L183 782H272L234 493H305L292 390Z" glyph-name="uni2159" horiz-adv-x="800" unicode="&#8537;" /><glyph d="M769 300Q727 300 698 292.5Q669 285 646 267Q638 261 632 251.5Q626 242 623 233Q642 246 669 246Q711 245 737 215.5Q763 186 756 131L754 116Q737 -13 607 -13Q569 -13 543 -0.5Q517 12 502 33.5Q487 55 482 83Q477 111 481 142L483 157Q489 204 507 247.5Q525 291 563 331Q604 375 658 389Q712 403 782 403ZM618 143Q610 143 604 137L599 132Q598 130 598 127Q597 124 597 117Q597 91 612 91H614Q621 91 626.5 96.5Q632 102 634 113L635 120Q638 143 620 143ZM-4 0 674 780H808L130 0ZM149 515Q145 495 150 488Q155 481 163 481H165Q182 481 186 509L187 516Q189 533 183 539.5Q177 546 167 546H165Q150 546 141 535L42 570L79 780H334L321 677H164L156 632Q162 637 176.5 640.5Q191 644 205 644Q264 644 289.5 610Q315 576 307 521L305 506Q288 377 158 377Q95 377 58 411.5Q21 446 28 506L29 515Z" glyph-name="uni215A" horiz-adv-x="800" unicode="&#8538;" /><glyph d="M614 91Q631 91 635 119L636 126Q639 151 620 151H618Q601 151 597 123L596 116Q593 91 612 91ZM635 247Q640 247 644.5 251.5Q649 256 651 268L652 275Q655 299 641 299H639Q634 299 629.5 294.5Q625 290 623 278L622 271Q619 247 633 247ZM607 -13Q575 -13 549.5 -4.5Q524 4 506.5 20Q489 36 481 57Q473 78 476 104L478 119Q483 151 499.5 170.5Q516 190 539 199Q522 208 510 228Q498 248 503 280L505 295Q507 309 515 327.5Q523 346 539.5 363Q556 380 581.5 391.5Q607 403 644 403Q685 403 711 390.5Q737 378 752 360Q767 342 771.5 322Q776 302 774 286L772 271Q767 239 750.5 223Q734 207 711 199Q734 191 746.5 169Q759 147 754 115L752 100Q744 44 704.5 15.5Q665 -13 607 -13ZM-4 0 674 780H808L130 0ZM29 390 42 493H114L133 635L95 612L47 697L183 782H272L234 493H305L292 390Z" glyph-name="uni215B" horiz-adv-x="800" unicode="&#8539;" /><glyph d="M614 91Q631 91 635 119L636 126Q639 151 620 151H618Q601 151 597 123L596 116Q593 91 612 91ZM635 247Q640 247 644.5 251.5Q649 256 651 268L652 275Q655 299 641 299H639Q634 299 629.5 294.5Q625 290 623 278L622 271Q619 247 633 247ZM607 -13Q575 -13 549.5 -4.5Q524 4 506.5 20Q489 36 481 57Q473 78 476 104L478 119Q483 151 499.5 170.5Q516 190 539 199Q522 208 510 228Q498 248 503 280L505 295Q507 309 515 327.5Q523 346 539.5 363Q556 380 581.5 391.5Q607 403 644 403Q685 403 711 390.5Q737 378 752 360Q767 342 771.5 322Q776 302 774 286L772 271Q767 239 750.5 223Q734 207 711 199Q734 191 746.5 169Q759 147 754 115L752 100Q744 44 704.5 15.5Q665 -13 607 -13ZM-4 0 674 780H808L130 0ZM149 515Q145 495 150 488Q155 481 163 481H165Q182 481 186 509L187 516Q190 541 170 541H122L134 637H181Q190 637 195 641.5Q200 646 202 658L203 665Q206 689 190 689H188Q179 689 174 680.5Q169 672 167 650H47L48 659Q51 686 59.5 710Q68 734 85 752.5Q102 771 129 782Q156 793 195 793Q236 793 262 780.5Q288 768 303 750Q318 732 322.5 712Q327 692 325 676L323 661Q318 629 301.5 613Q285 597 262 589Q285 581 297.5 559Q310 537 305 505L303 490Q295 434 255.5 405.5Q216 377 158 377Q95 377 58 411.5Q21 446 28 506L29 515Z" glyph-name="uni215C" horiz-adv-x="800" unicode="&#8540;" /><glyph d="M614 91Q631 91 635 119L636 126Q639 151 620 151H618Q601 151 597 123L596 116Q593 91 612 91ZM635 247Q640 247 644.5 251.5Q649 256 651 268L652 275Q655 299 641 299H639Q634 299 629.5 294.5Q625 290 623 278L622 271Q619 247 633 247ZM607 -13Q575 -13 549.5 -4.5Q524 4 506.5 20Q489 36 481 57Q473 78 476 104L478 119Q483 151 499.5 170.5Q516 190 539 199Q522 208 510 228Q498 248 503 280L505 295Q507 309 515 327.5Q523 346 539.5 363Q556 380 581.5 391.5Q607 403 644 403Q685 403 711 390.5Q737 378 752 360Q767 342 771.5 322Q776 302 774 286L772 271Q767 239 750.5 223Q734 207 711 199Q734 191 746.5 169Q759 147 754 115L752 100Q744 44 704.5 15.5Q665 -13 607 -13ZM-4 0 674 780H808L130 0ZM149 515Q145 495 150 488Q155 481 163 481H165Q182 481 186 509L187 516Q189 533 183 539.5Q177 546 167 546H165Q150 546 141 535L42 570L79 780H334L321 677H164L156 632Q162 637 176.5 640.5Q191 644 205 644Q264 644 289.5 610Q315 576 307 521L305 506Q288 377 158 377Q95 377 58 411.5Q21 446 28 506L29 515Z" glyph-name="uni215D" horiz-adv-x="800" unicode="&#8541;" /><glyph d="M614 91Q631 91 635 119L636 126Q639 151 620 151H618Q601 151 597 123L596 116Q593 91 612 91ZM635 247Q640 247 644.5 251.5Q649 256 651 268L652 275Q655 299 641 299H639Q634 299 629.5 294.5Q625 290 623 278L622 271Q619 247 633 247ZM607 -13Q575 -13 549.5 -4.5Q524 4 506.5 20Q489 36 481 57Q473 78 476 104L478 119Q483 151 499.5 170.5Q516 190 539 199Q522 208 510 228Q498 248 503 280L505 295Q507 309 515 327.5Q523 346 539.5 363Q556 380 581.5 391.5Q607 403 644 403Q685 403 711 390.5Q737 378 752 360Q767 342 771.5 322Q776 302 774 286L772 271Q767 239 750.5 223Q734 207 711 199Q734 191 746.5 169Q759 147 754 115L752 100Q744 44 704.5 15.5Q665 -13 607 -13ZM-4 0 674 780H808L130 0ZM61 780H345L335 701L166 390H38L199 677H151L146 640H43Z" glyph-name="uni215E" horiz-adv-x="800" unicode="&#8542;" /><glyph d="M-4 0 674 780H808L130 0ZM29 390 42 493H114L133 635L95 612L47 697L183 782H272L234 493H305L292 390Z" glyph-name="uni215F" horiz-adv-x="500" unicode="&#8543;" /><glyph d="M70 0V780H850V639H310L864 86L764 -14L211 540V0Z" glyph-name="uni2196" horiz-adv-x="920" unicode="&#8598;" /><glyph d="M70 780H850V0H709V540L156 -14L56 86L610 639H70Z" glyph-name="uni2197" horiz-adv-x="920" unicode="&#8599;" /><glyph d="M70 141H610L56 694L156 794L709 240V780H850V0H70Z" glyph-name="uni2198" horiz-adv-x="920" unicode="&#8600;" /><glyph d="M850 0H70V780H211V240L764 794L864 694L310 141H850Z" glyph-name="uni2199" horiz-adv-x="920" unicode="&#8601;" /><glyph d="M852 -1 798 -55 7 275 116 386 727 124 466 735 577 845 906 54Z" glyph-name="uni25E2" horiz-adv-x="930" unicode="&#9698;" /><glyph d="M24 54 353 845 464 735 202 124 814 386 923 275 132 -55 78 -1Z" glyph-name="uni25E3" horiz-adv-x="930" unicode="&#9699;" /><glyph d="M132 836 923 507 814 396 202 657 464 46 353 -63 24 728Z" glyph-name="uni25E4" horiz-adv-x="930" unicode="&#9700;" /><glyph d="M577 -63 466 46 727 657 116 396 7 507 798 836 906 728Z" glyph-name="uni25E5" horiz-adv-x="930" unicode="&#9701;" /><glyph d="M180 -10 279 297 19 486H341L440 792L539 486H861L601 297L700 -10L440 180Z" glyph-name="uni2605" horiz-adv-x="880" unicode="&#9733;" /><glyph d="M479 -11 437 191Q437 189 436.5 182.5Q436 176 433.5 166.5Q431 157 425 146Q419 135 408 125Q396 114 384 106Q372 98 362 90Q352 82 346 72Q340 62 340 47Q340 39 342 33Q344 27 346 22Q349 17 352 12Q329 19 317.5 36.5Q306 54 306 74Q306 104 327 125Q349 147 358.5 174.5Q368 202 368 220L196 107L309 279Q308 278 303 273.5Q298 269 290 264.5Q282 260 270 256.5Q258 253 243 253Q229 253 211.5 257Q194 261 181 261Q161 261 149 253.5Q137 246 131 237Q124 226 122 213Q114 227 114 241Q114 270 134.5 290Q155 310 185 310Q202 310 218.5 315Q235 320 248.5 326.5Q262 333 270.5 339.5Q279 346 281 348L79 390L281 432Q279 432 272.5 432.5Q266 433 256.5 435.5Q247 438 236 444Q225 450 215 461Q204 473 196 485Q188 497 180 507Q172 517 162 523Q152 529 137 529Q129 529 123 527Q117 525 112 523Q107 520 102 517Q109 540 126.5 551.5Q144 563 164 563Q194 563 215 542Q237 520 264.5 510.5Q292 501 310 501L197 673L369 560Q368 561 363.5 566Q359 571 354.5 579Q350 587 346.5 599Q343 611 343 626Q343 640 347 657.5Q351 675 351 688Q351 708 343.5 720Q336 732 327 738Q316 745 303 747Q317 755 331 755Q360 755 380 734.5Q400 714 400 684Q400 667 405 650.5Q410 634 416.5 620.5Q423 607 429.5 598Q436 589 438 588L480 790L522 588Q522 589 522.5 596Q523 603 525.5 612.5Q528 622 534 633Q540 644 551 654Q563 665 575 673Q587 681 597 689Q607 697 613 707Q619 717 619 732Q619 740 617 746Q615 752 613 757Q610 762 607 767Q630 760 641.5 742.5Q653 725 653 705Q653 675 632 654Q610 632 600.5 604.5Q591 577 591 559L763 672L650 500Q651 501 656 505.5Q661 510 669 514.5Q677 519 689 522.5Q701 526 716 526Q730 526 747.5 522Q765 518 778 518Q798 518 810 525.5Q822 533 828 542Q835 553 837 566Q845 552 845 538Q845 509 824.5 489Q804 469 774 469Q757 469 740.5 464Q724 459 710.5 452.5Q697 446 688 439.5Q679 433 678 431L880 389L678 347Q679 347 686 346.5Q693 346 702.5 343.5Q712 341 723 335Q734 329 744 318Q755 306 763 294Q771 282 779 272Q787 262 797 256Q807 250 822 250Q830 250 836 252Q842 254 847 256Q852 259 857 262Q850 239 832.5 227.5Q815 216 795 216Q765 216 744 237Q722 259 694.5 268.5Q667 278 649 278L762 106L590 219Q591 218 595.5 213Q600 208 604.5 200Q609 192 612.5 180Q616 168 616 153Q616 139 612 121.5Q608 104 608 91Q608 71 615.5 59Q623 47 632 41Q643 34 656 32Q642 24 628 24Q599 24 579 44.5Q559 65 559 95Q559 112 554 128.5Q549 145 542.5 158.5Q536 172 529.5 180.5Q523 189 521 191Z" glyph-name="uni263C" horiz-adv-x="960" unicode="&#9788;" /><glyph d="M624 728Q557 728 498 701.5Q439 675 395 629Q351 583 325.5 521.5Q300 460 300 390Q300 320 325.5 258.5Q351 197 395 151Q439 105 498 78.5Q557 52 624 52Q673 52 720 67Q669 30 607.5 10Q546 -10 480 -10Q397 -10 324 21.5Q251 53 197 107Q143 161 111.5 234Q80 307 80 390Q80 473 111.5 546Q143 619 197 673Q251 727 324 758.5Q397 790 480 790Q546 790 607.5 769.5Q669 749 720 713Q697 720 673 724Q649 728 624 728Z" glyph-name="uni263E" horiz-adv-x="960" unicode="&#9790;" /><glyph d="M875 410Q879 403 882 391.5Q885 380 885 366Q885 340 873.5 317Q862 294 845 277Q828 260 808.5 250Q789 240 773 240L657 441L806 527ZM311 41Q303 41 290.5 44Q278 47 267 54Q244 67 230 88.5Q216 110 209.5 133Q203 156 204.5 178Q206 200 214 214H446V41ZM267 717Q271 724 280 732.5Q289 741 301 748Q323 761 348.5 762.5Q374 764 397.5 758Q421 752 439.5 739.5Q458 727 466 713L350 512L200 598ZM404 780H597Q611 780 623.5 778.5Q636 777 647.5 772.5Q659 768 669 759Q679 750 689 733L717 684L760 708L699 542L526 573L567 597L495 722Q484 742 468 753Q452 764 438 770Q421 777 404 779ZM184 122 88 290Q82 302 76.5 313.5Q71 325 69.5 337Q68 349 71 362.5Q74 376 84 393L112 442L70 466L244 497L303 331L262 355Q243 321 227 294Q213 271 202 251.5Q191 232 190 230Q179 210 177 191.5Q175 173 177 157Q180 139 186 122ZM864 264 768 97Q760 85 753 75Q746 65 736 57.5Q726 50 713 45.5Q700 41 680 41H623V-8L510 128L623 263V214H768Q790 214 808 222Q826 230 838 240Q852 251 863 266Z" glyph-name="uni267B" horiz-adv-x="960" unicode="&#9851;" /><glyph d="M64 390Q64 472 95 544Q126 616 180 670Q234 724 306 755Q378 786 460 786Q542 786 614 755Q686 724 740 670Q794 616 825 544Q856 472 856 390Q856 308 825 236Q794 164 740 110Q686 56 614 25Q542 -6 460 -6Q378 -6 306 25Q234 56 180 110Q126 164 95 236Q64 308 64 390ZM754 295Q745 284 734 275Q724 267 710.5 261Q697 255 680 255H568V293L480 188L568 83V121H612Q643 121 656 133.5Q669 146 680 164L755 294ZM710 498 594 431 684 275Q696 275 711.5 282.5Q727 290 740.5 303.5Q754 317 762.5 335Q771 353 771 373Q771 384 768.5 393Q766 402 763 407ZM229 184Q224 197 222 211Q220 223 221.5 238Q223 253 232 268L288 365L320 346L274 475L139 451L172 432L150 394Q134 368 138.5 350.5Q143 333 153 314L228 184ZM427 121V255H247Q241 244 240 227Q239 210 243.5 192Q248 174 259 157.5Q270 141 288 131Q297 126 306.5 123.5Q316 121 322 121ZM394 693Q408 691 421 686Q432 681 444 672Q456 663 465 649L521 552L489 533L623 509L670 638L637 619L615 657Q600 683 583 688.5Q566 694 544 694H394ZM240 553 356 486 446 642Q440 653 425.5 662.5Q411 672 393 676.5Q375 681 355 680Q335 679 318 669Q309 664 302 657Q295 650 292 645Z" glyph-name="uni267C" horiz-adv-x="960" unicode="&#9852;" /><glyph d="M98 390Q98 315 126.5 249Q155 183 204 134Q253 85 319 56.5Q385 28 460 28Q535 28 601 56.5Q667 85 716 134Q765 183 793.5 249Q822 315 822 390Q822 465 793.5 531Q765 597 716 646Q667 695 601 723.5Q535 752 460 752Q385 752 319 723.5Q253 695 204 646Q155 597 126.5 531Q98 465 98 390ZM60 390Q60 473 91.5 546Q123 619 177 673Q231 727 304 758.5Q377 790 460 790Q543 790 616 758.5Q689 727 743 673Q797 619 828.5 546Q860 473 860 390Q860 307 828.5 234Q797 161 743 107Q689 53 616 21.5Q543 -10 460 -10Q377 -10 304 21.5Q231 53 177 107Q123 161 91.5 234Q60 307 60 390ZM755 294 680 164Q669 146 656 133.5Q643 121 612 121H568V83L480 188L568 293V255H680Q697 255 710.5 261Q724 267 734 275Q745 284 754 295ZM763 407Q766 402 768.5 393Q771 384 771 373Q771 353 762.5 335Q754 317 740.5 303.5Q727 290 711.5 282.5Q696 275 684 275L594 431L710 498ZM228 184 153 314Q143 333 138.5 350.5Q134 368 150 394L172 432L139 451L274 475L320 346L288 365L232 268Q223 253 221.5 238Q220 223 222 211Q224 197 229 184ZM322 121Q316 121 306.5 123.5Q297 126 288 131Q270 141 259 157.5Q248 174 243.5 192Q239 210 240 227Q241 244 247 255H427V121ZM394 694H544Q566 694 583 688.5Q600 683 615 657L637 619L670 638L623 509L489 533L521 552L465 649Q456 663 444 672Q432 681 421 686Q408 691 394 693ZM292 645Q295 650 302 657Q309 664 318 669Q335 679 355 680Q375 681 393 676.5Q411 672 425.5 662.5Q440 653 446 642L356 486L240 553Z" glyph-name="uni267D" horiz-adv-x="960" unicode="&#9853;" /><glyph d="M226 530 182 195Q177 160 191 141.5Q205 123 241 123Q275 123 301.5 139.5Q328 156 341 172L388 530H546L496 149L486 0Q474 -4 461 -10.5Q448 -17 437.5 -26.5Q427 -36 420.5 -48Q414 -60 414 -75Q414 -105 453 -105Q467 -105 478 -101.5Q489 -98 496 -94L519 -190Q502 -200 474 -207.5Q446 -215 418 -215Q358 -215 324.5 -192Q291 -169 291 -120Q291 -85 306 -55.5Q321 -26 345 -3V70Q315 34 272 10.5Q229 -13 176 -13Q128 -13 96 1Q64 15 45.5 39.5Q27 64 21.5 98Q16 132 21 172L68 530Z" glyph-name="uogonek" horiz-adv-x="580" unicode="&#371;" /><glyph d="M226 530 182 195Q177 160 191 141.5Q205 123 241 123Q275 123 301.5 139.5Q328 156 341 172L388 530H546L496 149L486 0H345V70Q315 34 272 10.5Q229 -13 176 -13Q128 -13 96 1Q64 15 45.5 39.5Q27 64 21.5 98Q16 132 21 172L68 530ZM379 693Q379 713 366 726Q353 739 333 739Q309 739 292.5 723.5Q276 708 276 683Q276 663 289 650Q302 637 322 637Q346 637 362.5 652.5Q379 668 379 693ZM434 700Q434 675 424.5 653.5Q415 632 399.5 616.5Q384 601 362.5 592Q341 583 317 583Q275 583 248 609.5Q221 636 221 676Q221 701 230.5 722.5Q240 744 255.5 759.5Q271 775 292.5 784Q314 793 338 793Q380 793 407 766.5Q434 740 434 700Z" glyph-name="uring" horiz-adv-x="580" unicode="&#367;" /><glyph d="M226 530 182 195Q177 160 191 141.5Q205 123 241 123Q275 123 301.5 139.5Q328 156 341 172L388 530H546L496 149L486 0H345V70Q315 34 272 10.5Q229 -13 176 -13Q128 -13 96 1Q64 15 45.5 39.5Q27 64 21.5 98Q16 132 21 172L68 530ZM539 772Q536 730 524 700Q512 670 494.5 650.5Q477 631 456 622Q435 613 413 613Q387 613 365.5 621Q344 629 325 639Q306 649 289.5 657Q273 665 257 665Q245 665 234 656.5Q223 648 223 628H118Q121 670 133 700Q145 730 162.5 749.5Q180 769 201 778Q222 787 244 787Q269 787 291 779Q313 771 332 761Q351 751 367.5 743Q384 735 400 735Q412 735 423 743.5Q434 752 434 772Z" glyph-name="utilde" horiz-adv-x="580" unicode="&#361;" /><glyph d="M30 530H189L238 127L392 530H560L336 0H115Z" glyph-name="v" horiz-adv-x="549" unicode="v" /><glyph d="M261 0H58L39 530H189L187 171L307 530H499L527 171L614 530H767L608 0H409L382 365Z" glyph-name="w" horiz-adv-x="766" unicode="w" /><glyph d="M261 0H58L39 530H189L187 171L307 530H499L527 171L614 530H767L608 0H409L382 365ZM621 780 490 596H334L449 780Z" glyph-name="wacute" horiz-adv-x="766" unicode="&#7811;" /><glyph d="M261 0H58L39 530H189L187 171L307 530H499L527 171L614 530H767L608 0H409L382 365ZM487 596 426 679 343 596H202L360 780H512L622 596Z" glyph-name="wcircumflex" horiz-adv-x="766" unicode="&#373;" /><glyph d="M261 0H58L39 530H189L187 171L307 530H499L527 171L614 530H767L608 0H409L382 365ZM604 605H437L459 772H626ZM389 605H222L244 772H411Z" glyph-name="wdieresis" horiz-adv-x="766" unicode="&#7813;" /><glyph d="M261 0H58L39 530H189L187 171L307 530H499L527 171L614 530H767L608 0H409L382 365ZM423 780 490 596H334L251 780Z" glyph-name="wgrave" horiz-adv-x="766" unicode="&#7809;" /><glyph d="M196 390Q196 335 216.5 287Q237 239 273 203Q309 167 357 146.5Q405 126 460 126Q515 126 563 146.5Q611 167 647 203Q683 239 703.5 287Q724 335 724 390Q724 445 703.5 493Q683 541 647 577Q611 613 563 633.5Q515 654 460 654Q405 654 357 633.5Q309 613 273 577Q237 541 216.5 493Q196 445 196 390ZM57 390Q57 474 88.5 547Q120 620 175 675Q230 730 303 761.5Q376 793 460 793Q544 793 617 761.5Q690 730 745 675Q800 620 831.5 547Q863 474 863 390Q863 306 831.5 233Q800 160 745 105Q690 50 617 18.5Q544 -13 460 -13Q376 -13 303 18.5Q230 50 175 105Q120 160 88.5 233Q57 306 57 390Z" glyph-name="whitecircle" horiz-adv-x="920" unicode="&#9675;" /><glyph d="M209 391V139H461V391ZM600 530V0H70V530Z" glyph-name="whitesmallsquare" horiz-adv-x="680" unicode="&#9643;" /><glyph d="M209 641V139H711V641ZM70 0V780H850V0Z" glyph-name="whitesquare" horiz-adv-x="920" unicode="&#9633;" /><glyph d="M220 530 280 364 381 530H562L393 267L493 0H310L254 172L149 0H-32L146 273L37 530Z" glyph-name="x" horiz-adv-x="558" unicode="x" /><glyph d="M394 530H569L316 28L218 -200H30L145 28L25 530H194L251 192Z" glyph-name="y" horiz-adv-x="551" unicode="y" /><glyph d="M394 530H569L316 28L218 -200H30L145 28L25 530H194L251 192ZM515 780 384 596H228L343 780Z" glyph-name="yacute" horiz-adv-x="551" unicode="&#253;" /></font>
</defs>
</svg>
