<?xml version="1.0" standalone="no"?><!DOCTYPE svg PUBLIC "-//W3C//DTD SVG 1.1//EN" "http://www.w3.org/Graphics/SVG/1.1/DTD/svg11.dtd" ><svg version="1.1" xmlns="http://www.w3.org/2000/svg"><defs><font horiz-adv-x="0" id="font"><font-face ascent="750" bbox="-271 -214 1362 962" cap-height="780" descent="-250" font-family="Cooper Hewitt" font-stretch="normal" font-style="normal" font-weight="600" units-per-em="1000" x-height="530" /><missing-glyph d="M804 115V665L529 390ZM164 665V115L439 390ZM484 435 763 714H205ZM205 66H763L484 345ZM94 780H874V0H94Z" horiz-adv-x="968" /><glyph d="M168 265H417L351 709ZM411 788 533 0H457L427 200H141L59 0H-20L309 788Z" glyph-name="A" horiz-adv-x="611" unicode="A" /><glyph d="M182 272H396L393 703ZM850 780 842 715H465L468 430H753L745 366H469L472 65H756L748 0H399L397 208H150L48 0H-29L362 780Z" glyph-name="AE" horiz-adv-x="837" unicode="&#198;" /><glyph d="M168 265H417L351 709ZM411 788 533 0H457L427 200H141L59 0H-20L309 788ZM479 950 402 840H330L405 950Z" glyph-name="Aacute" horiz-adv-x="611" unicode="&#193;" /><glyph d="M168 265H417L351 709ZM411 788 533 0H457L427 200H141L59 0H-20L309 788ZM366 829Q291 829 259.5 863.5Q228 898 236 950H289Q284 917 303 896Q322 875 369 875Q416 875 440 896Q464 917 469 950H526Q519 898 480.5 863.5Q442 829 366 829Z" glyph-name="Abreve" horiz-adv-x="611" unicode="&#258;" /><glyph d="M168 265H417L351 709ZM411 788 533 0H457L427 200H141L59 0H-20L309 788ZM437 840 380 909 302 840H228L349 950H413L504 840Z" glyph-name="Acircumflex" horiz-adv-x="611" unicode="&#194;" /><glyph d="M168 265H417L351 709ZM411 788 533 0H457L427 200H141L59 0H-20L309 788ZM486 860H407L416 930H495ZM330 860H251L260 930H339Z" glyph-name="Adieresis" horiz-adv-x="611" unicode="&#196;" /><glyph d="M168 265H417L351 709ZM411 788 533 0H457L427 200H141L59 0H-20L309 788ZM357 950 402 840H330L283 950Z" glyph-name="Agrave" horiz-adv-x="611" unicode="&#192;" /><glyph d="M168 265H417L351 709ZM411 788 533 0H457L427 200H141L59 0H-20L309 788ZM264 922H490L483 868H257Z" glyph-name="Amacron" horiz-adv-x="611" unicode="&#256;" /><glyph d="M412 788 533 0H457L351 709L59 0H-20L309 788Z" glyph-name="Anocross" horiz-adv-x="611" unicode="&#59185;" /><glyph d="M168 265H417L351 709ZM411 788 533 0Q516 -7 498.5 -17.5Q481 -28 466.5 -42Q452 -56 442.5 -74Q433 -92 433 -113Q433 -136 449 -147Q465 -158 492 -158Q524 -158 550 -145L562 -191Q545 -201 521.5 -206Q498 -211 477 -211Q430 -211 403 -191Q376 -171 376 -129Q376 -84 399.5 -51Q423 -18 456 4L427 200H141L59 0H-20L309 788Z" glyph-name="Aogonek" horiz-adv-x="611" unicode="&#260;" /><glyph d="M361 811Q387 811 406.5 826.5Q426 842 426 874Q426 895 413.5 909Q401 923 378 923Q352 923 332.5 907.5Q313 892 313 860Q313 839 325.5 825Q338 811 361 811ZM168 265H417L351 709ZM465 874Q465 844 450 821Q435 798 411 785L533 0H457L427 200H141L59 0H-20L309 787Q274 811 274 860Q274 904 304.5 932.5Q335 961 378 961Q420 961 442.5 936.5Q465 912 465 874Z" glyph-name="Aring" horiz-adv-x="611" unicode="&#197;" /><glyph d="M168 265H417L351 709ZM411 788 533 0H457L427 200H141L59 0H-20L309 788ZM530 936Q525 887 498.5 865Q472 843 437 843Q414 843 397 852Q380 861 365.5 872Q351 883 337.5 892Q324 901 309 901Q292 901 279 890Q266 879 264 854H216Q221 903 247.5 925Q274 947 309 947Q331 947 348.5 938Q366 929 380.5 918Q395 907 408.5 898Q422 889 437 889Q454 889 467 900Q480 911 482 936Z" glyph-name="Atilde" horiz-adv-x="611" unicode="&#195;" /><glyph d="M191 715 154 433H288Q322 433 351.5 440Q381 447 403.5 463Q426 479 440.5 504.5Q455 530 460 566L462 582Q466 618 458 643.5Q450 669 431.5 685Q413 701 386 708Q359 715 326 715ZM145 368 105 65H252Q288 65 319 72.5Q350 80 373.5 96.5Q397 113 412.5 139.5Q428 166 433 204L435 220Q440 258 431 286Q422 314 403.5 332Q385 350 358 359Q331 368 300 368ZM331 780Q380 780 420.5 769Q461 758 489 734Q517 710 530 672Q543 634 536 580L534 564Q526 498 487 456Q448 414 395 401Q422 396 445 381Q468 366 483.5 342Q499 318 506.5 286.5Q514 255 509 218L507 202Q500 146 478 107.5Q456 69 421.5 45Q387 21 342 10.5Q297 0 244 0H25L127 780Z" glyph-name="B" horiz-adv-x="586" unicode="B" /><glyph d="M191 715 154 433H288Q322 433 351.5 440Q381 447 403.5 463Q426 479 440.5 504.5Q455 530 460 566L462 582Q466 618 458 643.5Q450 669 431.5 685Q413 701 386 708Q359 715 326 715ZM145 368 105 65H252Q288 65 319 72.5Q350 80 373.5 96.5Q397 113 412.5 139.5Q428 166 433 204L435 220Q440 258 431 286Q422 314 403.5 332Q385 350 358 359Q331 368 300 368ZM331 780Q380 780 420.5 769Q461 758 489 734Q517 710 530 672Q543 634 536 580L534 564Q526 498 487 456Q448 414 395 401Q422 396 445 381Q468 366 483.5 342Q499 318 506.5 286.5Q514 255 509 218L507 202Q500 146 478 107.5Q456 69 421.5 45Q387 21 342 10.5Q297 0 244 0H25L127 780ZM377 860H298L307 930H386Z" glyph-name="Bdotaccent" horiz-adv-x="586" unicode="&#7682;" /><glyph d="M130 370Q119 287 123 227Q127 167 145 128.5Q163 90 196.5 72Q230 54 279 54H286Q374 54 419.5 105.5Q465 157 478 254H552L550 240Q533 116 468.5 52.5Q404 -11 279 -11Q212 -11 164 10.5Q116 32 87.5 78Q59 124 51 196.5Q43 269 56 370L61 410Q74 511 99 583.5Q124 656 162.5 702Q201 748 253.5 769.5Q306 791 373 791Q624 791 588 525L584 496H510Q526 617 494 671.5Q462 726 374 726H367Q269 726 212.5 651Q156 576 135 410Z" glyph-name="C" horiz-adv-x="618" unicode="C" /><glyph d="M130 370Q119 287 123 227Q127 167 145 128.5Q163 90 196.5 72Q230 54 279 54H286Q374 54 419.5 105.5Q465 157 478 254H552L550 240Q533 116 468.5 52.5Q404 -11 279 -11Q212 -11 164 10.5Q116 32 87.5 78Q59 124 51 196.5Q43 269 56 370L61 410Q74 511 99 583.5Q124 656 162.5 702Q201 748 253.5 769.5Q306 791 373 791Q624 791 588 525L584 496H510Q526 617 494 671.5Q462 726 374 726H367Q269 726 212.5 651Q156 576 135 410ZM496 950 419 840H347L422 950Z" glyph-name="Cacute" horiz-adv-x="618" unicode="&#262;" /><glyph d="M130 370Q119 287 123 227Q127 167 145 128.5Q163 90 196.5 72Q230 54 279 54H286Q374 54 419.5 105.5Q465 157 478 254H552L550 240Q533 116 468.5 52.5Q404 -11 279 -11Q212 -11 164 10.5Q116 32 87.5 78Q59 124 51 196.5Q43 269 56 370L61 410Q74 511 99 583.5Q124 656 162.5 702Q201 748 253.5 769.5Q306 791 373 791Q624 791 588 525L584 496H510Q526 617 494 671.5Q462 726 374 726H367Q269 726 212.5 651Q156 576 135 410ZM327 950 384 881 462 950H536L415 840H351L260 950Z" glyph-name="Ccaron" horiz-adv-x="618" unicode="&#268;" /><glyph d="M130 370Q119 287 123 227Q127 167 145 128.5Q163 90 196.5 72Q230 54 279 54H286Q374 54 419.5 105.5Q465 157 478 254H552L550 240Q533 122 474.5 59Q416 -4 302 -10L277 -58H281Q297 -58 312.5 -61.5Q328 -65 340 -73Q352 -81 359.5 -94.5Q367 -108 367 -127Q367 -172 336.5 -191.5Q306 -211 259 -211Q230 -211 205.5 -203Q181 -195 167 -184L187 -148Q198 -156 216.5 -162.5Q235 -169 258 -169Q320 -169 320 -130Q320 -110 304 -103Q288 -96 265 -96Q259 -96 253.5 -96.5Q248 -97 243 -98Q238 -99 234 -99L221 -80L256 -10Q195 -7 151.5 16.5Q108 40 82.5 86Q57 132 50.5 202.5Q44 273 56 370L61 410Q74 511 99 583.5Q124 656 162.5 702Q201 748 253.5 769.5Q306 791 373 791Q624 791 588 525L584 496H510Q526 617 494 671.5Q462 726 374 726H367Q269 726 212.5 651Q156 576 135 410Z" glyph-name="Ccedilla" horiz-adv-x="618" unicode="&#199;" /><glyph d="M130 370Q119 287 123 227Q127 167 145 128.5Q163 90 196.5 72Q230 54 279 54H286Q374 54 419.5 105.5Q465 157 478 254H552L550 240Q533 116 468.5 52.5Q404 -11 279 -11Q212 -11 164 10.5Q116 32 87.5 78Q59 124 51 196.5Q43 269 56 370L61 410Q74 511 99 583.5Q124 656 162.5 702Q201 748 253.5 769.5Q306 791 373 791Q624 791 588 525L584 496H510Q526 617 494 671.5Q462 726 374 726H367Q269 726 212.5 651Q156 576 135 410ZM454 840 397 909 319 840H245L366 950H430L521 840Z" glyph-name="Ccircumflex" horiz-adv-x="618" unicode="&#264;" /><glyph d="M130 370Q119 287 123 227Q127 167 145 128.5Q163 90 196.5 72Q230 54 279 54H286Q374 54 419.5 105.5Q465 157 478 254H552L550 240Q533 116 468.5 52.5Q404 -11 279 -11Q212 -11 164 10.5Q116 32 87.5 78Q59 124 51 196.5Q43 269 56 370L61 410Q74 511 99 583.5Q124 656 162.5 702Q201 748 253.5 769.5Q306 791 373 791Q624 791 588 525L584 496H510Q526 617 494 671.5Q462 726 374 726H367Q269 726 212.5 651Q156 576 135 410ZM425 860H346L355 930H434Z" glyph-name="Cdotaccent" horiz-adv-x="618" unicode="&#266;" /><glyph d="M231 65Q287 65 333.5 82.5Q380 100 415 137Q450 174 473.5 232Q497 290 507 370L512 410Q522 493 513.5 551Q505 609 479.5 645.5Q454 682 413 698.5Q372 715 317 715H191L105 65ZM581 370Q569 271 539 201Q509 131 464 86Q419 41 359.5 20.5Q300 0 229 0H25L127 780H324Q395 780 449.5 760Q504 740 538.5 696Q573 652 586 581.5Q599 511 586 410Z" glyph-name="D" horiz-adv-x="639" unicode="D" /><glyph d="M297 950 354 881 432 950H506L385 840H321L230 950ZM231 65Q287 65 333.5 82.5Q380 100 415 137Q450 174 473.5 232Q497 290 507 370L512 410Q522 493 513.5 551Q505 609 479.5 645.5Q454 682 413 698.5Q372 715 317 715H191L105 65ZM581 370Q569 271 539 201Q509 131 464 86Q419 41 359.5 20.5Q300 0 229 0H25L127 780H324Q395 780 449.5 760Q504 740 538.5 696Q573 652 586 581.5Q599 511 586 410Z" glyph-name="Dcaron" horiz-adv-x="639" unicode="&#270;" /><glyph d="M291 65Q347 65 393.5 82.5Q440 100 475 137Q510 174 533.5 232Q557 290 567 370L572 410Q582 493 573.5 551Q565 609 539.5 645.5Q514 682 473 698.5Q432 715 377 715H251L213 430H427L418 366H205L165 65ZM641 370Q629 271 599 201Q569 131 524 86Q479 41 419.5 20.5Q360 0 289 0H85L133 366H17L26 430H141L187 780H384Q455 780 509.5 760Q564 740 598.5 696Q633 652 646 581.5Q659 511 646 410Z" glyph-name="Dcroat" horiz-adv-x="699" unicode="&#272;" /><glyph d="M231 65Q287 65 333.5 82.5Q380 100 415 137Q450 174 473.5 232Q497 290 507 370L512 410Q522 493 513.5 551Q505 609 479.5 645.5Q454 682 413 698.5Q372 715 317 715H191L105 65ZM581 370Q569 271 539 201Q509 131 464 86Q419 41 359.5 20.5Q300 0 229 0H25L127 780H324Q395 780 449.5 760Q504 740 538.5 696Q573 652 586 581.5Q599 511 586 410ZM395 860H316L325 930H404Z" glyph-name="Ddotaccent" horiz-adv-x="639" unicode="&#7690;" /><glyph d="M562 780 554 715H190L153 430H466L457 366H144L105 65H468L460 0H25L127 780Z" glyph-name="E" horiz-adv-x="549" unicode="E" /><glyph d="M562 780 554 715H190L153 430H466L457 366H144L105 65H468L460 0H25L127 780ZM473 950 396 840H324L399 950Z" glyph-name="Eacute" horiz-adv-x="549" unicode="&#201;" /><glyph d="M562 780 554 715H190L153 430H466L457 366H144L105 65H468L460 0H25L127 780ZM360 829Q285 829 253.5 863.5Q222 898 230 950H283Q278 917 297 896Q316 875 363 875Q410 875 434 896Q458 917 463 950H520Q513 898 474.5 863.5Q436 829 360 829Z" glyph-name="Ebreve" horiz-adv-x="549" unicode="&#276;" /><glyph d="M562 780 554 715H190L153 430H466L457 366H144L105 65H468L460 0H25L127 780ZM304 950 361 881 439 950H513L392 840H328L237 950Z" glyph-name="Ecaron" horiz-adv-x="549" unicode="&#282;" /><glyph d="M562 780 554 715H190L153 430H466L457 366H144L105 65H468L460 0H25L127 780ZM431 840 374 909 296 840H222L343 950H407L498 840Z" glyph-name="Ecircumflex" horiz-adv-x="549" unicode="&#202;" /><glyph d="M562 780 554 715H190L153 430H466L457 366H144L105 65H468L460 0H25L127 780ZM480 860H401L410 930H489ZM324 860H245L254 930H333Z" glyph-name="Edieresis" horiz-adv-x="549" unicode="&#203;" /><glyph d="M562 780 554 715H190L153 430H466L457 366H144L105 65H468L460 0H25L127 780ZM402 860H323L332 930H411Z" glyph-name="Edotaccent" horiz-adv-x="549" unicode="&#278;" /><glyph d="M562 780 554 715H190L153 430H466L457 366H144L105 65H468L460 0H25L127 780ZM351 950 396 840H324L277 950Z" glyph-name="Egrave" horiz-adv-x="549" unicode="&#200;" /><glyph d="M562 780 554 715H190L153 430H466L457 366H144L105 65H468L460 0H25L127 780ZM258 922H484L477 868H251Z" glyph-name="Emacron" horiz-adv-x="549" unicode="&#274;" /><glyph d="M464 -11 178 658 157 475 95 0H25L127 780H203L485 122L506 305L568 780H638L528 -63Q517 -143 471.5 -177Q426 -211 354 -211Q326 -211 307 -206.5Q288 -202 282 -199L290 -138Q297 -141 315 -144.5Q333 -148 350 -148Q396 -148 425 -127.5Q454 -107 460 -49Z" glyph-name="Eng" horiz-adv-x="659" unicode="&#330;" /><glyph d="M562 780 554 715H190L153 430H466L457 366H144L105 65H468L460 0Q443 -7 425.5 -17.5Q408 -28 393.5 -42Q379 -56 369.5 -74Q360 -92 360 -113Q360 -136 376 -147Q392 -158 419 -158Q451 -158 477 -145L489 -191Q472 -201 448.5 -206Q425 -211 404 -211Q357 -211 330 -191Q303 -171 303 -129Q303 -85 324 -53.5Q345 -22 377 0H25L127 780Z" glyph-name="Eogonek" horiz-adv-x="549" unicode="&#280;" /><glyph d="M508 711Q485 719 458 722.5Q431 726 399 726Q350 726 309.5 716Q269 706 238.5 683.5Q208 661 188.5 624Q169 587 162 533L92 0H20L91 538Q100 607 125 655.5Q150 704 189 734Q228 764 281.5 777.5Q335 791 401 791Q458 791 506.5 781.5Q555 772 590 751L584 706L398 445L486 434Q543 427 585.5 408Q628 389 655.5 359.5Q683 330 694.5 292Q706 254 699 208L696 188Q688 137 666.5 99.5Q645 62 612 37.5Q579 13 537 1Q495 -11 447 -11Q330 -11 275.5 54Q221 119 238 240L240 254H312Q302 200 308.5 162Q315 124 334 100Q353 76 382 65Q411 54 445 54H455Q485 54 513 62Q541 70 564 86.5Q587 103 602.5 129Q618 155 623 190L625 205Q635 281 593 320.5Q551 360 459 371L308 390L314 438Z" glyph-name="Eszett" horiz-adv-x="757" unicode="&#7838;" /><glyph d="M291 65Q347 65 393.5 82.5Q440 100 475 137Q510 174 533.5 232Q557 290 567 370L572 410Q582 493 573.5 551Q565 609 539.5 645.5Q514 682 473 698.5Q432 715 377 715H251L213 430H427L418 366H205L165 65ZM641 370Q629 271 599 201Q569 131 524 86Q479 41 419.5 20.5Q360 0 289 0H85L133 366H17L26 430H141L187 780H384Q455 780 509.5 760Q564 740 598.5 696Q633 652 646 581.5Q659 511 646 410Z" glyph-name="Eth" horiz-adv-x="699" unicode="&#208;" /><glyph d="M23 295 32 360H104Q105 371 106 382Q107 393 109 401Q111 411 112 420H40L48 485H122Q151 637 218 714Q285 791 393 791Q507 791 549 725Q591 659 573 529L569 500H501Q518 621 494 673.5Q470 726 396 726H389Q320 726 271 668.5Q222 611 197 485H463L423 420H186Q185 411 183 401Q181 393 180 382Q179 371 178 360H407L366 295H172Q164 168 197 111Q230 54 299 54H306Q440 54 466 250H536L534 236Q517 112 462 50.5Q407 -11 301 -11Q189 -11 139.5 64.5Q90 140 98 295Z" glyph-name="Euro" horiz-adv-x="600" unicode="&#8364;" /><glyph d="M546 780 538 715H190L153 430H449L440 366H144L97 0H25L127 780Z" glyph-name="F" horiz-adv-x="513" unicode="F" /><glyph d="M403 860H324L333 930H412ZM546 780 538 715H190L153 430H449L440 366H144L97 0H25L127 780Z" glyph-name="Fdotaccent" horiz-adv-x="513" unicode="&#7710;" /><glyph d="M293 -11Q226 -11 175.5 10.5Q125 32 94.5 78Q64 124 53.5 196.5Q43 269 56 370L61 410Q74 511 100 583.5Q126 656 165.5 702Q205 748 258 769.5Q311 791 378 791Q503 791 559.5 724.5Q616 658 598 525L594 496H520Q536 617 501.5 671.5Q467 726 379 726H372Q274 726 215 651Q156 576 135 410L130 370Q119 287 125.5 227Q132 167 153 128.5Q174 90 210 72Q246 54 295 54H302Q362 54 405 72.5Q448 91 472 114L499 320H365L373 384H579L539 79Q521 62 497.5 46Q474 30 444 17.5Q414 5 376.5 -3Q339 -11 293 -11Z" glyph-name="G" horiz-adv-x="648" unicode="G" /><glyph d="M293 -11Q226 -11 175.5 10.5Q125 32 94.5 78Q64 124 53.5 196.5Q43 269 56 370L61 410Q74 511 100 583.5Q126 656 165.5 702Q205 748 258 769.5Q311 791 378 791Q503 791 559.5 724.5Q616 658 598 525L594 496H520Q536 617 501.5 671.5Q467 726 379 726H372Q274 726 215 651Q156 576 135 410L130 370Q119 287 125.5 227Q132 167 153 128.5Q174 90 210 72Q246 54 295 54H302Q362 54 405 72.5Q448 91 472 114L499 320H365L373 384H579L539 79Q521 62 497.5 46Q474 30 444 17.5Q414 5 376.5 -3Q339 -11 293 -11ZM391 829Q316 829 284.5 863.5Q253 898 261 950H314Q309 917 328 896Q347 875 394 875Q441 875 465 896Q489 917 494 950H551Q544 898 505.5 863.5Q467 829 391 829Z" glyph-name="Gbreve" horiz-adv-x="648" unicode="&#286;" /><glyph d="M293 -11Q226 -11 175.5 10.5Q125 32 94.5 78Q64 124 53.5 196.5Q43 269 56 370L61 410Q74 511 100 583.5Q126 656 165.5 702Q205 748 258 769.5Q311 791 378 791Q503 791 559.5 724.5Q616 658 598 525L594 496H520Q536 617 501.5 671.5Q467 726 379 726H372Q274 726 215 651Q156 576 135 410L130 370Q119 287 125.5 227Q132 167 153 128.5Q174 90 210 72Q246 54 295 54H302Q362 54 405 72.5Q448 91 472 114L499 320H365L373 384H579L539 79Q521 62 497.5 46Q474 30 444 17.5Q414 5 376.5 -3Q339 -11 293 -11ZM462 840 405 909 327 840H253L374 950H438L529 840Z" glyph-name="Gcircumflex" horiz-adv-x="648" unicode="&#284;" /><glyph d="M293 -11Q226 -11 175.5 10.5Q125 32 94.5 78Q64 124 53.5 196.5Q43 269 56 370L61 410Q74 511 100 583.5Q126 656 165.5 702Q205 748 258 769.5Q311 791 378 791Q503 791 559.5 724.5Q616 658 598 525L594 496H520Q536 617 501.5 671.5Q467 726 379 726H372Q274 726 215 651Q156 576 135 410L130 370Q119 287 125.5 227Q132 167 153 128.5Q174 90 210 72Q246 54 295 54H302Q362 54 405 72.5Q448 91 472 114L499 320H365L373 384H579L539 79Q521 62 497.5 46Q474 30 444 17.5Q414 5 376.5 -3Q339 -11 293 -11ZM317 -107Q310 -159 279.5 -186.5Q249 -214 198 -214L203 -178Q229 -178 248.5 -165.5Q268 -153 276 -124H234L243 -56H324Z" glyph-name="Gcommaaccent" horiz-adv-x="648" unicode="&#290;" /><glyph d="M293 -11Q226 -11 175.5 10.5Q125 32 94.5 78Q64 124 53.5 196.5Q43 269 56 370L61 410Q74 511 100 583.5Q126 656 165.5 702Q205 748 258 769.5Q311 791 378 791Q503 791 559.5 724.5Q616 658 598 525L594 496H520Q536 617 501.5 671.5Q467 726 379 726H372Q274 726 215 651Q156 576 135 410L130 370Q119 287 125.5 227Q132 167 153 128.5Q174 90 210 72Q246 54 295 54H302Q362 54 405 72.5Q448 91 472 114L499 320H365L373 384H579L539 79Q521 62 497.5 46Q474 30 444 17.5Q414 5 376.5 -3Q339 -11 293 -11ZM433 860H354L363 930H442Z" glyph-name="Gdotaccent" horiz-adv-x="648" unicode="&#288;" /><glyph d="M618 780 516 0H444L492 366H145L97 0H25L127 780H199L153 430H500L546 780Z" glyph-name="H" horiz-adv-x="639" unicode="H" /><glyph d="M500 430 519 575H172L153 430ZM618 780 516 0H444L492 366H145L97 0H25L127 780H199L180 639H527L546 780Z" glyph-name="Hbar" horiz-adv-x="639" unicode="&#294;" /><glyph d="M451 840 394 909 316 840H242L363 950H427L518 840ZM618 780 516 0H444L492 366H145L97 0H25L127 780H199L153 430H500L546 780Z" glyph-name="Hcircumflex" horiz-adv-x="639" unicode="&#292;" /><glyph d="M102 0H30L132 780H204Z" glyph-name="I" horiz-adv-x="230" unicode="I" /><glyph d="M410 780H482L398 139Q387 59 343 24Q299 -11 227 -11Q199 -11 181 -6.5Q163 -2 157 1L166 64Q173 61 190 57.5Q207 54 224 54Q270 54 295 74.5Q320 95 328 153ZM102 0H30L132 780H204Z" glyph-name="IJ" horiz-adv-x="499" unicode="&#306;" /><glyph d="M102 0H30L132 780H204ZM289 950 212 840H140L215 950Z" glyph-name="Iacute" horiz-adv-x="229" unicode="&#205;" /><glyph d="M102 0H30L132 780H204ZM176 829Q101 829 69.5 863.5Q38 898 46 950H99Q94 917 113 896Q132 875 179 875Q226 875 250 896Q274 917 279 950H336Q329 898 290.5 863.5Q252 829 176 829Z" glyph-name="Ibreve" horiz-adv-x="229" unicode="&#300;" /><glyph d="M102 0H30L132 780H204ZM247 840 190 909 112 840H38L159 950H223L314 840Z" glyph-name="Icircumflex" horiz-adv-x="229" unicode="&#206;" /><glyph d="M102 0H30L132 780H204ZM296 860H217L226 930H305ZM140 860H61L70 930H149Z" glyph-name="Idieresis" horiz-adv-x="229" unicode="&#207;" /><glyph d="M102 0H30L132 780H204ZM218 860H139L148 930H227Z" glyph-name="Idotaccent" horiz-adv-x="229" unicode="&#304;" /><glyph d="M102 0H30L132 780H204ZM167 950 212 840H140L93 950Z" glyph-name="Igrave" horiz-adv-x="229" unicode="&#204;" /><glyph d="M102 0H30L132 780H204ZM74 922H300L293 868H67Z" glyph-name="Imacron" horiz-adv-x="229" unicode="&#298;" /><glyph d="M102 0Q85 -7 67.5 -17.5Q50 -28 35.5 -42Q21 -56 11.5 -74Q2 -92 2 -113Q2 -136 18 -147Q34 -158 61 -158Q93 -158 119 -145L131 -191Q114 -201 90.5 -206Q67 -211 46 -211Q-1 -211 -28 -191Q-55 -171 -55 -129Q-55 -81 -29.5 -48Q-4 -15 31 8L132 780H204Z" glyph-name="Iogonek" horiz-adv-x="229" unicode="&#302;" /><glyph d="M102 0H30L132 780H204ZM340 936Q335 887 308.5 865Q282 843 247 843Q224 843 207 852Q190 861 175.5 872Q161 883 147.5 892Q134 901 119 901Q102 901 89 890Q76 879 74 854H26Q31 903 57.5 925Q84 947 119 947Q141 947 158.5 938Q176 929 190.5 918Q205 907 218.5 898Q232 889 247 889Q264 889 277 900Q290 911 292 936Z" glyph-name="Itilde" horiz-adv-x="229" unicode="&#296;" /><glyph d="M479 780 408 240Q400 179 384 132.5Q368 86 341.5 54Q315 22 277 5.5Q239 -11 187 -11Q128 -11 90.5 6.5Q53 24 32.5 57Q12 90 7.5 136.5Q3 183 11 240L13 254H81Q65 146 90 100Q115 54 185 54Q219 54 245 65Q271 76 289 100Q307 124 319 161.5Q331 199 338 252L407 780Z" glyph-name="J" horiz-adv-x="495" unicode="J" /><glyph d="M479 780 408 240Q400 179 384 132.5Q368 86 341.5 54Q315 22 277 5.5Q239 -11 187 -11Q128 -11 90.5 6.5Q53 24 32.5 57Q12 90 7.5 136.5Q3 183 11 240L13 254H81Q65 146 90 100Q115 54 185 54Q219 54 245 65Q271 76 289 100Q307 124 319 161.5Q331 199 338 252L407 780ZM522 840 465 909 387 840H313L434 950H498L589 840Z" glyph-name="Jcircumflex" horiz-adv-x="495" unicode="&#308;" /><glyph d="M143 357 492 780H581L305 451L479 0H399L252 387L128 240L97 0H25L127 780H199Z" glyph-name="K" horiz-adv-x="562" unicode="K" /><glyph d="M255 -107Q248 -159 217.5 -186.5Q187 -214 136 -214L141 -178Q167 -178 186.5 -165.5Q206 -153 214 -124H172L181 -56H262ZM143 357 492 780H581L305 451L479 0H399L252 387L128 240L97 0H25L127 780H199Z" glyph-name="Kcommaaccent" horiz-adv-x="562" unicode="&#310;" /><glyph d="M25 0 127 780H199L105 65H435L427 0Z" glyph-name="L" horiz-adv-x="491" unicode="L" /><glyph d="M25 0 127 780H199L105 65H435L427 0ZM284 950 207 840H135L210 950Z" glyph-name="Lacute" horiz-adv-x="491" unicode="&#313;" /><glyph d="M25 0 127 780H199L105 65H435L427 0ZM406 800 364 614H324L349 800Z" glyph-name="Lcaron" horiz-adv-x="491" unicode="&#317;" /><glyph d="M253 -107Q246 -159 215.5 -186.5Q185 -214 134 -214L139 -178Q165 -178 184.5 -165.5Q204 -153 212 -124H170L179 -56H260ZM25 0 127 780H199L105 65H435L427 0Z" glyph-name="Lcommaaccent" horiz-adv-x="491" unicode="&#315;" /><glyph d="M388 357H306L317 439H398ZM25 0 127 780H199L105 65H435L427 0Z" glyph-name="Ldot" horiz-adv-x="491" unicode="&#319;" /><glyph d="M12 332 136 392 187 780H259L213 429L445 542L436 475L204 362L165 65H495L487 0H85L127 325L3 265Z" glyph-name="Lslash" horiz-adv-x="551" unicode="&#321;" /><glyph d="M385 0H320L179 655L159 481L97 0H25L127 780H226L366 124L680 780H783L681 0H609L671 481L698 655Z" glyph-name="M" horiz-adv-x="803" unicode="M" /><glyph d="M385 0H320L179 655L159 481L97 0H25L127 780H226L366 124L680 780H783L681 0H609L671 481L698 655ZM506 860H427L436 930H515Z" glyph-name="Mdotaccent" horiz-adv-x="803" unicode="&#7744;" /><glyph d="M536 0H460L178 658L157 475L95 0H25L127 780H203L485 122L506 305L568 780H638Z" glyph-name="N" horiz-adv-x="659" unicode="N" /><glyph d="M536 0H460L178 658L157 475L95 0H25L127 780H203L485 122L506 305L568 780H638ZM503 950 426 840H354L429 950Z" glyph-name="Nacute" horiz-adv-x="659" unicode="&#323;" /><glyph d="M536 0H460L178 658L157 475L95 0H25L127 780H203L485 122L506 305L568 780H638ZM334 950 391 881 469 950H543L422 840H358L267 950Z" glyph-name="Ncaron" horiz-adv-x="659" unicode="&#327;" /><glyph d="M306 -107Q299 -159 268.5 -186.5Q238 -214 187 -214L192 -178Q218 -178 237.5 -165.5Q257 -153 265 -124H223L232 -56H313ZM536 0H460L178 658L157 475L95 0H25L127 780H203L485 122L506 305L568 780H638Z" glyph-name="Ncommaaccent" horiz-adv-x="659" unicode="&#325;" /><glyph d="M536 0H460L178 658L157 475L95 0H25L127 780H203L485 122L506 305L568 780H638ZM554 936Q549 887 522.5 865Q496 843 461 843Q438 843 421 852Q404 861 389.5 872Q375 883 361.5 892Q348 901 333 901Q316 901 303 890Q290 879 288 854H240Q245 903 271.5 925Q298 947 333 947Q355 947 372.5 938Q390 929 404.5 918Q419 907 432.5 898Q446 889 461 889Q478 889 491 900Q504 911 506 936Z" glyph-name="Ntilde" horiz-adv-x="659" unicode="&#209;" /><glyph d="M285 54Q334 54 372.5 72Q411 90 439.5 128.5Q468 167 487 227Q506 287 517 370L522 410Q543 576 507.5 651Q472 726 374 726H367Q269 726 212.5 651Q156 576 135 410L130 370Q119 287 122.5 227Q126 167 144 128.5Q162 90 195.5 72Q229 54 278 54ZM372 791Q439 791 487 769.5Q535 748 563.5 702Q592 656 600.5 583.5Q609 511 596 410L591 370Q578 269 553 196.5Q528 124 489.5 78Q451 32 399 10.5Q347 -11 280 -11Q213 -11 165 10.5Q117 32 88.5 78Q60 124 51.5 196.5Q43 269 56 370L61 410Q74 511 99 583.5Q124 656 162.5 702Q201 748 253 769.5Q305 791 372 791Z" glyph-name="O" horiz-adv-x="649" unicode="O" /><glyph d="M61 410Q73 509 103 579Q133 649 178 694Q223 739 282.5 759.5Q342 780 413 780H953L945 715H581L544 430H856L848 366H535L496 65H859L851 0H318Q247 0 192 20Q137 40 102.5 84Q68 128 55.5 198.5Q43 269 56 370ZM411 715Q298 715 226.5 642.5Q155 570 135 410L130 370Q119 287 128 229Q137 171 162.5 134.5Q188 98 229 81.5Q270 65 325 65H424L510 715Z" glyph-name="OE" horiz-adv-x="940" unicode="&#338;" /><glyph d="M285 54Q334 54 372.5 72Q411 90 439.5 128.5Q468 167 487 227Q506 287 517 370L522 410Q543 576 507.5 651Q472 726 374 726H367Q269 726 212.5 651Q156 576 135 410L130 370Q119 287 122.5 227Q126 167 144 128.5Q162 90 195.5 72Q229 54 278 54ZM372 791Q439 791 487 769.5Q535 748 563.5 702Q592 656 600.5 583.5Q609 511 596 410L591 370Q578 269 553 196.5Q528 124 489.5 78Q451 32 399 10.5Q347 -11 280 -11Q213 -11 165 10.5Q117 32 88.5 78Q60 124 51.5 196.5Q43 269 56 370L61 410Q74 511 99 583.5Q124 656 162.5 702Q201 748 253 769.5Q305 791 372 791ZM498 950 421 840H349L424 950Z" glyph-name="Oacute" horiz-adv-x="649" unicode="&#211;" /><glyph d="M285 54Q334 54 372.5 72Q411 90 439.5 128.5Q468 167 487 227Q506 287 517 370L522 410Q543 576 507.5 651Q472 726 374 726H367Q269 726 212.5 651Q156 576 135 410L130 370Q119 287 122.5 227Q126 167 144 128.5Q162 90 195.5 72Q229 54 278 54ZM372 791Q439 791 487 769.5Q535 748 563.5 702Q592 656 600.5 583.5Q609 511 596 410L591 370Q578 269 553 196.5Q528 124 489.5 78Q451 32 399 10.5Q347 -11 280 -11Q213 -11 165 10.5Q117 32 88.5 78Q60 124 51.5 196.5Q43 269 56 370L61 410Q74 511 99 583.5Q124 656 162.5 702Q201 748 253 769.5Q305 791 372 791ZM385 829Q310 829 278.5 863.5Q247 898 255 950H308Q303 917 322 896Q341 875 388 875Q435 875 459 896Q483 917 488 950H545Q538 898 499.5 863.5Q461 829 385 829Z" glyph-name="Obreve" horiz-adv-x="649" unicode="&#334;" /><glyph d="M285 54Q334 54 372.5 72Q411 90 439.5 128.5Q468 167 487 227Q506 287 517 370L522 410Q543 576 507.5 651Q472 726 374 726H367Q269 726 212.5 651Q156 576 135 410L130 370Q119 287 122.5 227Q126 167 144 128.5Q162 90 195.5 72Q229 54 278 54ZM372 791Q439 791 487 769.5Q535 748 563.5 702Q592 656 600.5 583.5Q609 511 596 410L591 370Q578 269 553 196.5Q528 124 489.5 78Q451 32 399 10.5Q347 -11 280 -11Q213 -11 165 10.5Q117 32 88.5 78Q60 124 51.5 196.5Q43 269 56 370L61 410Q74 511 99 583.5Q124 656 162.5 702Q201 748 253 769.5Q305 791 372 791ZM456 840 399 909 321 840H247L368 950H432L523 840Z" glyph-name="Ocircumflex" horiz-adv-x="649" unicode="&#212;" /><glyph d="M285 54Q334 54 372.5 72Q411 90 439.5 128.5Q468 167 487 227Q506 287 517 370L522 410Q543 576 507.5 651Q472 726 374 726H367Q269 726 212.5 651Q156 576 135 410L130 370Q119 287 122.5 227Q126 167 144 128.5Q162 90 195.5 72Q229 54 278 54ZM372 791Q439 791 487 769.5Q535 748 563.5 702Q592 656 600.5 583.5Q609 511 596 410L591 370Q578 269 553 196.5Q528 124 489.5 78Q451 32 399 10.5Q347 -11 280 -11Q213 -11 165 10.5Q117 32 88.5 78Q60 124 51.5 196.5Q43 269 56 370L61 410Q74 511 99 583.5Q124 656 162.5 702Q201 748 253 769.5Q305 791 372 791ZM505 860H426L435 930H514ZM349 860H270L279 930H358Z" glyph-name="Odieresis" horiz-adv-x="649" unicode="&#214;" /><glyph d="M285 54Q334 54 372.5 72Q411 90 439.5 128.5Q468 167 487 227Q506 287 517 370L522 410Q543 576 507.5 651Q472 726 374 726H367Q269 726 212.5 651Q156 576 135 410L130 370Q119 287 122.5 227Q126 167 144 128.5Q162 90 195.5 72Q229 54 278 54ZM372 791Q439 791 487 769.5Q535 748 563.5 702Q592 656 600.5 583.5Q609 511 596 410L591 370Q578 269 553 196.5Q528 124 489.5 78Q451 32 399 10.5Q347 -11 280 -11Q213 -11 165 10.5Q117 32 88.5 78Q60 124 51.5 196.5Q43 269 56 370L61 410Q74 511 99 583.5Q124 656 162.5 702Q201 748 253 769.5Q305 791 372 791ZM376 950 421 840H349L302 950Z" glyph-name="Ograve" horiz-adv-x="649" unicode="&#210;" /><glyph d="M285 54Q334 54 372.5 72Q411 90 439.5 128.5Q468 167 487 227Q506 287 517 370L522 410Q543 576 507.5 651Q472 726 374 726H367Q269 726 212.5 651Q156 576 135 410L130 370Q119 287 122.5 227Q126 167 144 128.5Q162 90 195.5 72Q229 54 278 54ZM372 791Q439 791 487 769.5Q535 748 563.5 702Q592 656 600.5 583.5Q609 511 596 410L591 370Q578 269 553 196.5Q528 124 489.5 78Q451 32 399 10.5Q347 -11 280 -11Q213 -11 165 10.5Q117 32 88.5 78Q60 124 51.5 196.5Q43 269 56 370L61 410Q74 511 99 583.5Q124 656 162.5 702Q201 748 253 769.5Q305 791 372 791ZM559 950 481 840H414L489 950ZM432 950 356 840H289L362 950Z" glyph-name="Ohungarumlaut" horiz-adv-x="649" unicode="&#336;" /><glyph d="M285 54Q334 54 372.5 72Q411 90 439.5 128.5Q468 167 487 227Q506 287 517 370L522 410Q543 576 507.5 651Q472 726 374 726H367Q269 726 212.5 651Q156 576 135 410L130 370Q119 287 122.5 227Q126 167 144 128.5Q162 90 195.5 72Q229 54 278 54ZM372 791Q439 791 487 769.5Q535 748 563.5 702Q592 656 600.5 583.5Q609 511 596 410L591 370Q578 269 553 196.5Q528 124 489.5 78Q451 32 399 10.5Q347 -11 280 -11Q213 -11 165 10.5Q117 32 88.5 78Q60 124 51.5 196.5Q43 269 56 370L61 410Q74 511 99 583.5Q124 656 162.5 702Q201 748 253 769.5Q305 791 372 791ZM283 922H509L502 868H276Z" glyph-name="Omacron" horiz-adv-x="649" unicode="&#332;" /><glyph d="M155 109Q191 54 278 54H285Q334 54 372.5 72Q411 90 439.5 128.5Q468 167 487 227Q506 287 517 370L522 410Q539 538 521 611ZM497 671Q461 726 374 726H367Q269 726 212.5 651Q156 576 135 410L130 370Q113 242 131 169ZM61 410Q74 511 99 583.5Q124 656 162.5 702Q201 748 253 769.5Q305 791 372 791Q484 791 541 731L577 780H645L574 683Q597 636 602.5 569Q608 502 596 410L591 370Q578 269 553 196.5Q528 124 489.5 78Q451 32 399 10.5Q347 -11 280 -11Q168 -11 111 49L75 0H7L78 97Q55 144 49.5 211Q44 278 56 370Z" glyph-name="Oslash" horiz-adv-x="638" unicode="&#216;" /><glyph d="M285 54Q334 54 372.5 72Q411 90 439.5 128.5Q468 167 487 227Q506 287 517 370L522 410Q543 576 507.5 651Q472 726 374 726H367Q269 726 212.5 651Q156 576 135 410L130 370Q119 287 122.5 227Q126 167 144 128.5Q162 90 195.5 72Q229 54 278 54ZM372 791Q439 791 487 769.5Q535 748 563.5 702Q592 656 600.5 583.5Q609 511 596 410L591 370Q578 269 553 196.5Q528 124 489.5 78Q451 32 399 10.5Q347 -11 280 -11Q213 -11 165 10.5Q117 32 88.5 78Q60 124 51.5 196.5Q43 269 56 370L61 410Q74 511 99 583.5Q124 656 162.5 702Q201 748 253 769.5Q305 791 372 791ZM549 936Q544 887 517.5 865Q491 843 456 843Q433 843 416 852Q399 861 384.5 872Q370 883 356.5 892Q343 901 328 901Q311 901 298 890Q285 879 283 854H235Q240 903 266.5 925Q293 947 328 947Q350 947 367.5 938Q385 929 399.5 918Q414 907 427.5 898Q441 889 456 889Q473 889 486 900Q499 911 501 936Z" glyph-name="Otilde" horiz-adv-x="649" unicode="&#213;" /><glyph d="M296 382Q321 382 350 387.5Q379 393 405 409.5Q431 426 450.5 457Q470 488 477 538L479 553Q486 603 473.5 634.5Q461 666 438.5 684Q416 702 388 708.5Q360 715 335 715H190L147 382ZM97 0H25L127 780H341Q383 780 425 770Q467 760 499 734.5Q531 709 547 665Q563 621 553 554L550 534Q540 467 513 425Q486 383 449 359Q412 335 369.5 326Q327 317 285 317H138Z" glyph-name="P" horiz-adv-x="573" unicode="P" /><glyph d="M296 382Q321 382 350 387.5Q379 393 405 409.5Q431 426 450.5 457Q470 488 477 538L479 553Q486 603 473.5 634.5Q461 666 438.5 684Q416 702 388 708.5Q360 715 335 715H190L147 382ZM97 0H25L127 780H341Q383 780 425 770Q467 760 499 734.5Q531 709 547 665Q563 621 553 554L550 534Q540 467 513 425Q486 383 449 359Q412 335 369.5 326Q327 317 285 317H138ZM390 860H311L320 930H399Z" glyph-name="Pdotaccent" horiz-adv-x="573" unicode="&#7766;" /><glyph d="M285 54Q292 54 298.5 54Q305 54 312 55L271 226H333L372 72Q430 99 465.5 171.5Q501 244 517 370L522 410Q543 576 507.5 651Q472 726 374 726H367Q269 726 212.5 651Q156 576 135 410L130 370Q119 287 122.5 227Q126 167 144 128.5Q162 90 195.5 72Q229 54 278 54ZM372 791Q439 791 487 769.5Q535 748 563.5 702Q592 656 600.5 583.5Q609 511 596 410L591 370Q571 212 521.5 124.5Q472 37 388 6L416 -100H350L328 -8Q304 -11 280 -11Q213 -11 165 10.5Q117 32 88.5 78Q60 124 51.5 196.5Q43 269 56 370L61 410Q74 511 99 583.5Q124 656 162.5 702Q201 748 253 769.5Q305 791 372 791Z" glyph-name="Q" horiz-adv-x="649" unicode="Q" /><glyph d="M296 382Q321 382 350 387.5Q379 393 405 409.5Q431 426 450.5 457Q470 488 477 538L479 553Q486 603 473.5 634.5Q461 666 438.5 684Q416 702 388 708.5Q360 715 335 715H190L147 382ZM97 0H25L127 780H341Q383 780 425 770Q467 760 499 734.5Q531 709 547 665Q563 621 553 554L550 534Q543 488 527.5 453.5Q512 419 490.5 395Q469 371 442.5 355.5Q416 340 388 331L480 0H401L318 318Q310 317 301.5 317Q293 317 285 317H138Z" glyph-name="R" horiz-adv-x="584" unicode="R" /><glyph d="M448 950 371 840H299L374 950ZM296 382Q321 382 350 387.5Q379 393 405 409.5Q431 426 450.5 457Q470 488 477 538L479 553Q486 603 473.5 634.5Q461 666 438.5 684Q416 702 388 708.5Q360 715 335 715H190L147 382ZM97 0H25L127 780H341Q383 780 425 770Q467 760 499 734.5Q531 709 547 665Q563 621 553 554L550 534Q543 488 527.5 453.5Q512 419 490.5 395Q469 371 442.5 355.5Q416 340 388 331L480 0H401L318 318Q310 317 301.5 317Q293 317 285 317H138Z" glyph-name="Racute" horiz-adv-x="584" unicode="&#340;" /><glyph d="M279 950 336 881 414 950H488L367 840H303L212 950ZM296 382Q321 382 350 387.5Q379 393 405 409.5Q431 426 450.5 457Q470 488 477 538L479 553Q486 603 473.5 634.5Q461 666 438.5 684Q416 702 388 708.5Q360 715 335 715H190L147 382ZM97 0H25L127 780H341Q383 780 425 770Q467 760 499 734.5Q531 709 547 665Q563 621 553 554L550 534Q543 488 527.5 453.5Q512 419 490.5 395Q469 371 442.5 355.5Q416 340 388 331L480 0H401L318 318Q310 317 301.5 317Q293 317 285 317H138Z" glyph-name="Rcaron" horiz-adv-x="584" unicode="&#344;" /><glyph d="M261 -107Q254 -159 223.5 -186.5Q193 -214 142 -214L147 -178Q173 -178 192.5 -165.5Q212 -153 220 -124H178L187 -56H268ZM296 382Q321 382 350 387.5Q379 393 405 409.5Q431 426 450.5 457Q470 488 477 538L479 553Q486 603 473.5 634.5Q461 666 438.5 684Q416 702 388 708.5Q360 715 335 715H190L147 382ZM97 0H25L127 780H341Q383 780 425 770Q467 760 499 734.5Q531 709 547 665Q563 621 553 554L550 534Q543 488 527.5 453.5Q512 419 490.5 395Q469 371 442.5 355.5Q416 340 388 331L480 0H401L318 318Q310 317 301.5 317Q293 317 285 317H138Z" glyph-name="Rcommaaccent" horiz-adv-x="584" unicode="&#342;" /><glyph d="M286 371Q222 382 180 403Q138 424 114 451.5Q90 479 82.5 513Q75 547 81 585L84 605Q99 702 167.5 746.5Q236 791 342 791Q477 791 530.5 722.5Q584 654 566 530L564 516H492Q508 627 469 676.5Q430 726 343 726H333Q262 726 213.5 695.5Q165 665 157 603L155 588Q151 557 157.5 532Q164 507 183.5 487.5Q203 468 237.5 453.5Q272 439 324 430Q447 407 497 351.5Q547 296 534 208L531 188Q516 86 443.5 37.5Q371 -11 256 -11Q131 -11 71 54Q11 119 28 240L30 254H102Q92 200 99.5 162Q107 124 128.5 100Q150 76 182.5 65Q215 54 254 54H264Q344 54 396 86.5Q448 119 458 190L460 205Q469 274 427.5 314Q386 354 286 371Z" glyph-name="S" horiz-adv-x="601" unicode="S" /><glyph d="M286 371Q222 382 180 403Q138 424 114 451.5Q90 479 82.5 513Q75 547 81 585L84 605Q99 702 167.5 746.5Q236 791 342 791Q477 791 530.5 722.5Q584 654 566 530L564 516H492Q508 627 469 676.5Q430 726 343 726H333Q262 726 213.5 695.5Q165 665 157 603L155 588Q151 557 157.5 532Q164 507 183.5 487.5Q203 468 237.5 453.5Q272 439 324 430Q447 407 497 351.5Q547 296 534 208L531 188Q516 86 443.5 37.5Q371 -11 256 -11Q131 -11 71 54Q11 119 28 240L30 254H102Q92 200 99.5 162Q107 124 128.5 100Q150 76 182.5 65Q215 54 254 54H264Q344 54 396 86.5Q448 119 458 190L460 205Q469 274 427.5 314Q386 354 286 371ZM474 950 397 840H325L400 950Z" glyph-name="Sacute" horiz-adv-x="601" unicode="&#346;" /><glyph d="M286 371Q222 382 180 403Q138 424 114 451.5Q90 479 82.5 513Q75 547 81 585L84 605Q99 702 167.5 746.5Q236 791 342 791Q477 791 530.5 722.5Q584 654 566 530L564 516H492Q508 627 469 676.5Q430 726 343 726H333Q262 726 213.5 695.5Q165 665 157 603L155 588Q151 557 157.5 532Q164 507 183.5 487.5Q203 468 237.5 453.5Q272 439 324 430Q447 407 497 351.5Q547 296 534 208L531 188Q516 86 443.5 37.5Q371 -11 256 -11Q131 -11 71 54Q11 119 28 240L30 254H102Q92 200 99.5 162Q107 124 128.5 100Q150 76 182.5 65Q215 54 254 54H264Q344 54 396 86.5Q448 119 458 190L460 205Q469 274 427.5 314Q386 354 286 371ZM305 950 362 881 440 950H514L393 840H329L238 950Z" glyph-name="Scaron" horiz-adv-x="601" unicode="&#352;" /><glyph d="M286 371Q222 382 180 403Q138 424 114 451.5Q90 479 82.5 513Q75 547 81 585L84 605Q99 702 167.5 746.5Q236 791 342 791Q477 791 530.5 722.5Q584 654 566 530L564 516H492Q508 627 469 676.5Q430 726 343 726H333Q262 726 213.5 695.5Q165 665 157 603L155 588Q151 557 157.5 532Q164 507 183.5 487.5Q203 468 237.5 453.5Q272 439 324 430Q447 407 497 351.5Q547 296 534 208L531 188Q516 89 448.5 41Q381 -7 272 -11L247 -58H251Q267 -58 282.5 -61.5Q298 -65 310 -73Q322 -81 329.5 -94.5Q337 -108 337 -127Q337 -172 306.5 -191.5Q276 -211 229 -211Q200 -211 175.5 -203Q151 -195 137 -184L157 -148Q168 -156 186.5 -162.5Q205 -169 228 -169Q290 -169 290 -130Q290 -110 274 -103Q258 -96 235 -96Q229 -96 223.5 -96.5Q218 -97 213 -98Q208 -99 204 -99L191 -80L227 -10Q117 -2 64 62Q11 126 28 240L30 254H102Q92 200 99.5 162Q107 124 128.5 100Q150 76 182.5 65Q215 54 254 54H264Q344 54 396 86.5Q448 119 458 190L460 205Q469 274 427.5 314Q386 354 286 371Z" glyph-name="Scedilla" horiz-adv-x="601" unicode="&#350;" /><glyph d="M286 371Q222 382 180 403Q138 424 114 451.5Q90 479 82.5 513Q75 547 81 585L84 605Q99 702 167.5 746.5Q236 791 342 791Q477 791 530.5 722.5Q584 654 566 530L564 516H492Q508 627 469 676.5Q430 726 343 726H333Q262 726 213.5 695.5Q165 665 157 603L155 588Q151 557 157.5 532Q164 507 183.5 487.5Q203 468 237.5 453.5Q272 439 324 430Q447 407 497 351.5Q547 296 534 208L531 188Q516 86 443.5 37.5Q371 -11 256 -11Q131 -11 71 54Q11 119 28 240L30 254H102Q92 200 99.5 162Q107 124 128.5 100Q150 76 182.5 65Q215 54 254 54H264Q344 54 396 86.5Q448 119 458 190L460 205Q469 274 427.5 314Q386 354 286 371ZM432 840 375 909 297 840H223L344 950H408L499 840Z" glyph-name="Scircumflex" horiz-adv-x="601" unicode="&#348;" /><glyph d="M286 371Q222 382 180 403Q138 424 114 451.5Q90 479 82.5 513Q75 547 81 585L84 605Q99 702 167.5 746.5Q236 791 342 791Q477 791 530.5 722.5Q584 654 566 530L564 516H492Q508 627 469 676.5Q430 726 343 726H333Q262 726 213.5 695.5Q165 665 157 603L155 588Q151 557 157.5 532Q164 507 183.5 487.5Q203 468 237.5 453.5Q272 439 324 430Q447 407 497 351.5Q547 296 534 208L531 188Q516 86 443.5 37.5Q371 -11 256 -11Q131 -11 71 54Q11 119 28 240L30 254H102Q92 200 99.5 162Q107 124 128.5 100Q150 76 182.5 65Q215 54 254 54H264Q344 54 396 86.5Q448 119 458 190L460 205Q469 274 427.5 314Q386 354 286 371ZM277 -107Q270 -159 239.5 -186.5Q209 -214 158 -214L163 -178Q189 -178 208.5 -165.5Q228 -153 236 -124H194L203 -56H284Z" glyph-name="Scommaaccent" horiz-adv-x="601" unicode="&#536;" /><glyph d="M244 0H172L266 715H68L76 780H545L537 715H338Z" glyph-name="T" horiz-adv-x="515" unicode="T" /><glyph d="M292 366 244 0H172L220 366H94L103 430H228L266 715H68L76 780H545L537 715H338L300 430H426L417 366Z" glyph-name="Tbar" horiz-adv-x="515" unicode="&#358;" /><glyph d="M244 0H172L266 715H68L76 780H545L537 715H338ZM262 950 319 881 397 950H471L350 840H286L195 950Z" glyph-name="Tcaron" horiz-adv-x="515" unicode="&#356;" /><glyph d="M244 0H172L266 715H68L76 780H545L537 715H338ZM234 -107Q227 -159 196.5 -186.5Q166 -214 115 -214L120 -178Q146 -178 165.5 -165.5Q185 -153 193 -124H151L160 -56H241Z" glyph-name="Tcommaaccent" horiz-adv-x="515" unicode="&#354;" /><glyph d="M244 0H172L266 715H68L76 780H545L537 715H338ZM360 860H281L290 930H369Z" glyph-name="Tdotaccent" horiz-adv-x="515" unicode="&#7786;" /><glyph d="M178 622H321Q363 622 405 612Q447 602 479 576.5Q511 551 527 507Q543 463 533 396L530 376Q520 309 493 267Q466 225 429 201Q392 177 349.5 168Q307 159 265 159H118L97 0H25L127 780H199ZM276 224Q301 224 330 229.5Q359 235 385 251.5Q411 268 430.5 299Q450 330 457 380L459 395Q466 445 453.5 476.5Q441 508 418.5 526Q396 544 368 550.5Q340 557 315 557H170L127 224Z" glyph-name="Thorn" horiz-adv-x="573" unicode="&#222;" /><glyph d="M272 -11Q209 -11 163.5 2Q118 15 89.5 45Q61 75 51.5 123.5Q42 172 51 242L122 780H194L124 247Q117 192 122.5 155Q128 118 147 95.5Q166 73 197.5 63.5Q229 54 274 54Q319 54 354.5 64Q390 74 415.5 96.5Q441 119 457.5 156Q474 193 481 247L551 780H623L552 242Q543 173 521.5 124.5Q500 76 465.5 46Q431 16 382.5 2.5Q334 -11 272 -11Z" glyph-name="U" horiz-adv-x="639" unicode="U" /><glyph d="M272 -11Q209 -11 163.5 2Q118 15 89.5 45Q61 75 51.5 123.5Q42 172 51 242L122 780H194L124 247Q117 192 122.5 155Q128 118 147 95.5Q166 73 197.5 63.5Q229 54 274 54Q319 54 354.5 64Q390 74 415.5 96.5Q441 119 457.5 156Q474 193 481 247L551 780H623L552 242Q543 173 521.5 124.5Q500 76 465.5 46Q431 16 382.5 2.5Q334 -11 272 -11ZM493 950 416 840H344L419 950Z" glyph-name="Uacute" horiz-adv-x="639" unicode="&#218;" /><glyph d="M272 -11Q209 -11 163.5 2Q118 15 89.5 45Q61 75 51.5 123.5Q42 172 51 242L122 780H194L124 247Q117 192 122.5 155Q128 118 147 95.5Q166 73 197.5 63.5Q229 54 274 54Q319 54 354.5 64Q390 74 415.5 96.5Q441 119 457.5 156Q474 193 481 247L551 780H623L552 242Q543 173 521.5 124.5Q500 76 465.5 46Q431 16 382.5 2.5Q334 -11 272 -11ZM380 829Q305 829 273.5 863.5Q242 898 250 950H303Q298 917 317 896Q336 875 383 875Q430 875 454 896Q478 917 483 950H540Q533 898 494.5 863.5Q456 829 380 829Z" glyph-name="Ubreve" horiz-adv-x="639" unicode="&#364;" /><glyph d="M272 -11Q209 -11 163.5 2Q118 15 89.5 45Q61 75 51.5 123.5Q42 172 51 242L122 780H194L124 247Q117 192 122.5 155Q128 118 147 95.5Q166 73 197.5 63.5Q229 54 274 54Q319 54 354.5 64Q390 74 415.5 96.5Q441 119 457.5 156Q474 193 481 247L551 780H623L552 242Q543 173 521.5 124.5Q500 76 465.5 46Q431 16 382.5 2.5Q334 -11 272 -11ZM451 840 394 909 316 840H242L363 950H427L518 840Z" glyph-name="Ucircumflex" horiz-adv-x="639" unicode="&#219;" /><glyph d="M272 -11Q209 -11 163.5 2Q118 15 89.5 45Q61 75 51.5 123.5Q42 172 51 242L122 780H194L124 247Q117 192 122.5 155Q128 118 147 95.5Q166 73 197.5 63.5Q229 54 274 54Q319 54 354.5 64Q390 74 415.5 96.5Q441 119 457.5 156Q474 193 481 247L551 780H623L552 242Q543 173 521.5 124.5Q500 76 465.5 46Q431 16 382.5 2.5Q334 -11 272 -11ZM500 860H421L430 930H509ZM344 860H265L274 930H353Z" glyph-name="Udieresis" horiz-adv-x="639" unicode="&#220;" /><glyph d="M272 -11Q209 -11 163.5 2Q118 15 89.5 45Q61 75 51.5 123.5Q42 172 51 242L122 780H194L124 247Q117 192 122.5 155Q128 118 147 95.5Q166 73 197.5 63.5Q229 54 274 54Q319 54 354.5 64Q390 74 415.5 96.5Q441 119 457.5 156Q474 193 481 247L551 780H623L552 242Q543 173 521.5 124.5Q500 76 465.5 46Q431 16 382.5 2.5Q334 -11 272 -11ZM371 950 416 840H344L297 950Z" glyph-name="Ugrave" horiz-adv-x="639" unicode="&#217;" /><glyph d="M272 -11Q209 -11 163.5 2Q118 15 89.5 45Q61 75 51.5 123.5Q42 172 51 242L122 780H194L124 247Q117 192 122.5 155Q128 118 147 95.5Q166 73 197.5 63.5Q229 54 274 54Q319 54 354.5 64Q390 74 415.5 96.5Q441 119 457.5 156Q474 193 481 247L551 780H623L552 242Q543 173 521.5 124.5Q500 76 465.5 46Q431 16 382.5 2.5Q334 -11 272 -11ZM554 950 476 840H409L484 950ZM427 950 351 840H284L357 950Z" glyph-name="Uhungarumlaut" horiz-adv-x="639" unicode="&#368;" /><glyph d="M272 -11Q209 -11 163.5 2Q118 15 89.5 45Q61 75 51.5 123.5Q42 172 51 242L122 780H194L124 247Q117 192 122.5 155Q128 118 147 95.5Q166 73 197.5 63.5Q229 54 274 54Q319 54 354.5 64Q390 74 415.5 96.5Q441 119 457.5 156Q474 193 481 247L551 780H623L552 242Q543 173 521.5 124.5Q500 76 465.5 46Q431 16 382.5 2.5Q334 -11 272 -11ZM278 922H504L497 868H271Z" glyph-name="Umacron" horiz-adv-x="639" unicode="&#362;" /><glyph d="M272 -11Q209 -11 163.5 2Q118 15 89.5 45Q61 75 51.5 123.5Q42 172 51 242L122 780H194L124 247Q117 192 122.5 155Q128 118 147 95.5Q166 73 197.5 63.5Q229 54 274 54Q319 54 354.5 64Q390 74 415.5 96.5Q441 119 457.5 156Q474 193 481 247L551 780H623L552 242Q538 134 494 76.5Q450 19 373 0Q356 -4 338.5 -14Q321 -24 306.5 -39Q292 -54 282.5 -73Q273 -92 273 -113Q273 -136 289 -147Q305 -158 332 -158Q364 -158 390 -145L402 -191Q385 -201 361.5 -206Q338 -211 317 -211Q270 -211 243 -191Q216 -171 216 -129Q216 -91 232.5 -61.5Q249 -32 275 -11Z" glyph-name="Uogonek" horiz-adv-x="639" unicode="&#370;" /><glyph d="M272 -11Q209 -11 163.5 2Q118 15 89.5 45Q61 75 51.5 123.5Q42 172 51 242L122 780H194L124 247Q117 192 122.5 155Q128 118 147 95.5Q166 73 197.5 63.5Q229 54 274 54Q319 54 354.5 64Q390 74 415.5 96.5Q441 119 457.5 156Q474 193 481 247L551 780H623L552 242Q543 173 521.5 124.5Q500 76 465.5 46Q431 16 382.5 2.5Q334 -11 272 -11ZM375 773Q333 773 310.5 797.5Q288 822 288 860Q288 904 318.5 932.5Q349 961 392 961Q434 961 456.5 936.5Q479 912 479 874Q479 830 448.5 801.5Q418 773 375 773ZM375 811Q401 811 420.5 826.5Q440 842 440 874Q440 895 427.5 909Q415 923 392 923Q366 923 346.5 907.5Q327 892 327 860Q327 839 339.5 825Q352 811 375 811Z" glyph-name="Uring" horiz-adv-x="639" unicode="&#366;" /><glyph d="M272 -11Q209 -11 163.5 2Q118 15 89.5 45Q61 75 51.5 123.5Q42 172 51 242L122 780H194L124 247Q117 192 122.5 155Q128 118 147 95.5Q166 73 197.5 63.5Q229 54 274 54Q319 54 354.5 64Q390 74 415.5 96.5Q441 119 457.5 156Q474 193 481 247L551 780H623L552 242Q543 173 521.5 124.5Q500 76 465.5 46Q431 16 382.5 2.5Q334 -11 272 -11ZM544 936Q539 887 512.5 865Q486 843 451 843Q428 843 411 852Q394 861 379.5 872Q365 883 351.5 892Q338 901 323 901Q306 901 293 890Q280 879 278 854H230Q235 903 261.5 925Q288 947 323 947Q345 947 362.5 938Q380 929 394.5 918Q409 907 422.5 898Q436 889 451 889Q468 889 481 900Q494 911 496 936Z" glyph-name="Utilde" horiz-adv-x="639" unicode="&#360;" /><glyph d="M203 -8 82 780H158L264 71L556 780H635L306 -8Z" glyph-name="V" horiz-adv-x="611" unicode="V" /><glyph d="M491 706 235 -8H137L94 780H168L198 81L450 780H547L616 81L829 780H907L659 -8H560Z" glyph-name="W" horiz-adv-x="895" unicode="W" /><glyph d="M491 706 235 -8H137L94 780H168L198 81L450 780H547L616 81L829 780H907L659 -8H560ZM621 950 544 840H472L547 950Z" glyph-name="Wacute" horiz-adv-x="895" unicode="&#7810;" /><glyph d="M491 706 235 -8H137L94 780H168L198 81L450 780H547L616 81L829 780H907L659 -8H560ZM579 840 522 909 444 840H370L491 950H555L646 840Z" glyph-name="Wcircumflex" horiz-adv-x="895" unicode="&#372;" /><glyph d="M491 706 235 -8H137L94 780H168L198 81L450 780H547L616 81L829 780H907L659 -8H560ZM628 860H549L558 930H637ZM472 860H393L402 930H481Z" glyph-name="Wdieresis" horiz-adv-x="895" unicode="&#7812;" /><glyph d="M491 706 235 -8H137L94 780H168L198 81L450 780H547L616 81L829 780H907L659 -8H560ZM499 950 544 840H472L425 950Z" glyph-name="Wgrave" horiz-adv-x="895" unicode="&#7808;" /><glyph d="M263 392 83 780H165L315 452L549 780H635L354 389L534 0H452L303 328L68 0H-18Z" glyph-name="X" horiz-adv-x="613" unicode="X" /><glyph d="M276 0H204L235 236L74 780H149L281 324L529 780H610L307 236Z" glyph-name="Y" horiz-adv-x="577" unicode="Y" /><glyph d="M276 0H204L235 236L74 780H149L281 324L529 780H610L307 236ZM463 950 386 840H314L389 950Z" glyph-name="Yacute" horiz-adv-x="577" unicode="&#221;" /><glyph d="M276 0H204L235 236L74 780H149L281 324L529 780H610L307 236ZM421 840 364 909 286 840H212L333 950H397L488 840Z" glyph-name="Ycircumflex" horiz-adv-x="577" unicode="&#374;" /><glyph d="M276 0H204L235 236L74 780H149L281 324L529 780H610L307 236ZM470 860H391L400 930H479ZM314 860H235L244 930H323Z" glyph-name="Ydieresis" horiz-adv-x="577" unicode="&#376;" /><glyph d="M276 0H204L235 236L74 780H149L281 324L529 780H610L307 236ZM341 950 386 840H314L267 950Z" glyph-name="Ygrave" horiz-adv-x="577" unicode="&#7922;" /><glyph d="M276 0H204L235 236L74 780H149L281 324L529 780H610L307 236ZM248 922H474L467 868H241Z" glyph-name="Ymacron" horiz-adv-x="577" unicode="&#562;" /><glyph d="M471 718 345 715H94L102 780H565L559 730L84 62L210 65H481L473 0H-10L-4 50Z" glyph-name="Z" horiz-adv-x="563" unicode="Z" /><glyph d="M471 718 345 715H94L102 780H565L559 730L84 62L210 65H481L473 0H-10L-4 50ZM452 950 375 840H303L378 950Z" glyph-name="Zacute" horiz-adv-x="563" unicode="&#377;" /><glyph d="M471 718 345 715H94L102 780H565L559 730L84 62L210 65H481L473 0H-10L-4 50ZM283 950 340 881 418 950H492L371 840H307L216 950Z" glyph-name="Zcaron" horiz-adv-x="563" unicode="&#381;" /><glyph d="M471 718 345 715H94L102 780H565L559 730L84 62L210 65H481L473 0H-10L-4 50ZM381 860H302L311 930H390Z" glyph-name="Zdotaccent" horiz-adv-x="563" unicode="&#379;" /><glyph d="M174 50Q211 50 239.5 59Q268 68 289 81.5Q310 95 324.5 110Q339 125 347 136L365 276L209 251Q155 243 124 220Q93 197 87 155L85 141Q82 123 86 107Q90 91 101 78Q112 65 130 57.5Q148 50 174 50ZM347 74Q318 40 271.5 14.5Q225 -11 158 -11Q82 -11 43.5 30Q5 71 13 135L15 151Q20 193 36.5 220Q53 247 78.5 264Q104 281 137 290Q170 299 208 305L372 331L375 353Q384 417 361 449.5Q338 482 266 482Q228 482 203.5 471.5Q179 461 163.5 443.5Q148 426 140 403Q132 380 129 355H62L64 368Q68 398 80 429Q92 460 115 484.5Q138 509 175 525Q212 541 268 541Q325 541 362 527Q399 513 419 487Q439 461 444.5 424.5Q450 388 444 344L418 150L405 0H347Z" glyph-name="a" horiz-adv-x="512" unicode="a" /><glyph d="M174 50Q211 50 239.5 59Q268 68 289 81.5Q310 95 324.5 110Q339 125 347 136L365 276L209 251Q155 243 124 220Q93 197 87 155L85 141Q82 123 86 107Q90 91 101 78Q112 65 130 57.5Q148 50 174 50ZM347 74Q318 40 271.5 14.5Q225 -11 158 -11Q82 -11 43.5 30Q5 71 13 135L15 151Q20 193 36.5 220Q53 247 78.5 264Q104 281 137 290Q170 299 208 305L372 331L375 353Q384 417 361 449.5Q338 482 266 482Q228 482 203.5 471.5Q179 461 163.5 443.5Q148 426 140 403Q132 380 129 355H62L64 368Q68 398 80 429Q92 460 115 484.5Q138 509 175 525Q212 541 268 541Q325 541 362 527Q399 513 419 487Q439 461 444.5 424.5Q450 388 444 344L418 150L405 0H347ZM439 780 323 614H251L363 780Z" glyph-name="aacute" horiz-adv-x="512" unicode="&#225;" /><glyph d="M174 50Q211 50 239.5 59Q268 68 289 81.5Q310 95 324.5 110Q339 125 347 136L365 276L209 251Q155 243 124 220Q93 197 87 155L85 141Q82 123 86 107Q90 91 101 78Q112 65 130 57.5Q148 50 174 50ZM347 74Q318 40 271.5 14.5Q225 -11 158 -11Q82 -11 43.5 30Q5 71 13 135L15 151Q20 193 36.5 220Q53 247 78.5 264Q104 281 137 290Q170 299 208 305L372 331L375 353Q384 417 361 449.5Q338 482 266 482Q228 482 203.5 471.5Q179 461 163.5 443.5Q148 426 140 403Q132 380 129 355H62L64 368Q68 398 80 429Q92 460 115 484.5Q138 509 175 525Q212 541 268 541Q325 541 362 527Q399 513 419 487Q439 461 444.5 424.5Q450 388 444 344L418 150L405 0H347ZM290 603Q247 603 217.5 616Q188 629 170.5 652.5Q153 676 148 708.5Q143 741 148 780H202Q195 725 214.5 691.5Q234 658 290 658Q346 658 375.5 691.5Q405 725 412 780H470Q465 741 452.5 708.5Q440 676 418 652.5Q396 629 364.5 616Q333 603 290 603Z" glyph-name="abreve" horiz-adv-x="512" unicode="&#259;" /><glyph d="M174 50Q211 50 239.5 59Q268 68 289 81.5Q310 95 324.5 110Q339 125 347 136L365 276L209 251Q155 243 124 220Q93 197 87 155L85 141Q82 123 86 107Q90 91 101 78Q112 65 130 57.5Q148 50 174 50ZM347 74Q318 40 271.5 14.5Q225 -11 158 -11Q82 -11 43.5 30Q5 71 13 135L15 151Q20 193 36.5 220Q53 247 78.5 264Q104 281 137 290Q170 299 208 305L372 331L375 353Q384 417 361 449.5Q338 482 266 482Q228 482 203.5 471.5Q179 461 163.5 443.5Q148 426 140 403Q132 380 129 355H62L64 368Q68 398 80 429Q92 460 115 484.5Q138 509 175 525Q212 541 268 541Q325 541 362 527Q399 513 419 487Q439 461 444.5 424.5Q450 388 444 344L418 150L405 0H347ZM125 614 278 780H340L449 614H383L305 727L198 614Z" glyph-name="acircumflex" horiz-adv-x="512" unicode="&#226;" /><glyph d="M433 780 317 614H245L357 780Z" glyph-name="acute" horiz-adv-x="500" unicode="&#180;" /><glyph d="M424 950 347 840H275L350 950Z" glyph-name="acute.cap" horiz-adv-x="500" unicode="&#58402;" /><glyph d="M174 50Q211 50 239.5 59Q268 68 289 81.5Q310 95 324.5 110Q339 125 347 136L365 276L209 251Q155 243 124 220Q93 197 87 155L85 141Q82 123 86 107Q90 91 101 78Q112 65 130 57.5Q148 50 174 50ZM347 74Q318 40 271.5 14.5Q225 -11 158 -11Q82 -11 43.5 30Q5 71 13 135L15 151Q20 193 36.5 220Q53 247 78.5 264Q104 281 137 290Q170 299 208 305L372 331L375 353Q384 417 361 449.5Q338 482 266 482Q228 482 203.5 471.5Q179 461 163.5 443.5Q148 426 140 403Q132 380 129 355H62L64 368Q68 398 80 429Q92 460 115 484.5Q138 509 175 525Q212 541 268 541Q325 541 362 527Q399 513 419 487Q439 461 444.5 424.5Q450 388 444 344L418 150L405 0H347ZM421 655H331L343 745H433ZM254 655H164L176 745H266Z" glyph-name="adieresis" horiz-adv-x="512" unicode="&#228;" /><glyph d="M618 478Q582 478 551.5 464.5Q521 451 498 426.5Q475 402 460 368Q445 334 439 294H743Q755 382 725 430Q695 478 618 478ZM174 50Q209 50 238.5 60Q268 70 291 85.5Q314 101 332 119Q350 137 362 154Q358 177 358.5 202.5Q359 228 363 255L366 276L209 251Q155 243 124 220Q93 197 87 155L85 141Q82 123 86 107Q90 91 101 78Q112 65 130 57.5Q148 50 174 50ZM432 236Q423 150 455.5 101Q488 52 574 52Q614 52 642 62.5Q670 73 688.5 89.5Q707 106 717 127.5Q727 149 730 170H797L795 157Q790 128 774.5 98Q759 68 731.5 44Q704 20 664 4.5Q624 -11 572 -11Q494 -11 448 16.5Q402 44 380 91Q359 68 333 49Q307 30 278 16.5Q249 3 218.5 -4Q188 -11 158 -11Q82 -11 43.5 30Q5 71 13 135L15 151Q20 193 36.5 220Q53 247 78.5 264Q104 281 137 290Q170 299 208 305L372 331L375 353Q384 417 361 449.5Q338 482 266 482Q228 482 203.5 471.5Q179 461 163.5 443.5Q148 426 140 403Q132 380 129 355H62L64 368Q68 398 80 429Q92 460 115 484.5Q138 509 175 525Q212 541 268 541Q346 541 383.5 515Q421 489 432 444Q462 489 507.5 515Q553 541 618 541Q678 541 718.5 521Q759 501 782 466Q805 431 811.5 382Q818 333 811 275L806 236Z" glyph-name="ae" horiz-adv-x="871" unicode="&#230;" /><glyph d="M174 50Q211 50 239.5 59Q268 68 289 81.5Q310 95 324.5 110Q339 125 347 136L365 276L209 251Q155 243 124 220Q93 197 87 155L85 141Q82 123 86 107Q90 91 101 78Q112 65 130 57.5Q148 50 174 50ZM347 74Q318 40 271.5 14.5Q225 -11 158 -11Q82 -11 43.5 30Q5 71 13 135L15 151Q20 193 36.5 220Q53 247 78.5 264Q104 281 137 290Q170 299 208 305L372 331L375 353Q384 417 361 449.5Q338 482 266 482Q228 482 203.5 471.5Q179 461 163.5 443.5Q148 426 140 403Q132 380 129 355H62L64 368Q68 398 80 429Q92 460 115 484.5Q138 509 175 525Q212 541 268 541Q325 541 362 527Q399 513 419 487Q439 461 444.5 424.5Q450 388 444 344L418 150L405 0H347ZM255 780 323 614H251L179 780Z" glyph-name="agrave" horiz-adv-x="512" unicode="&#224;" /><glyph d="M238 -130Q238 -110 222 -103Q206 -96 183 -96Q167 -96 151.5 -99Q136 -102 127 -106V-70Q138 -65 156.5 -61.5Q175 -58 195 -58Q212 -58 228.5 -61.5Q245 -65 257.5 -73Q270 -81 277.5 -94.5Q285 -108 285 -127Q285 -172 254.5 -191.5Q224 -211 177 -211Q148 -211 123.5 -203Q99 -195 85 -184L105 -148Q116 -156 134.5 -162.5Q153 -169 176 -169Q238 -169 238 -130Z" glyph-name="altcedilla" horiz-adv-x="602" unicode="&#58390;" /><glyph d="M174 50Q211 50 239.5 59Q268 68 289 81.5Q310 95 324.5 110Q339 125 347 136L365 276L209 251Q155 243 124 220Q93 197 87 155L85 141Q82 123 86 107Q90 91 101 78Q112 65 130 57.5Q148 50 174 50ZM347 74Q318 40 271.5 14.5Q225 -11 158 -11Q82 -11 43.5 30Q5 71 13 135L15 151Q20 193 36.5 220Q53 247 78.5 264Q104 281 137 290Q170 299 208 305L372 331L375 353Q384 417 361 449.5Q338 482 266 482Q228 482 203.5 471.5Q179 461 163.5 443.5Q148 426 140 403Q132 380 129 355H62L64 368Q68 398 80 429Q92 460 115 484.5Q138 509 175 525Q212 541 268 541Q325 541 362 527Q399 513 419 487Q439 461 444.5 424.5Q450 388 444 344L418 150L405 0H347ZM186 730H419L411 664H177Z" glyph-name="amacron" horiz-adv-x="512" unicode="&#257;" /><glyph d="M172 616Q167 575 186.5 538.5Q206 502 238 462Q267 480 294.5 496Q322 512 344 530Q366 548 381 568.5Q396 589 399 615L401 630Q406 672 380 699.5Q354 727 300 727H292Q263 727 242 719.5Q221 712 206.5 699Q192 686 184.5 668.5Q177 651 174 631ZM235 54Q279 54 324 70.5Q369 87 408 129L217 372Q195 358 174.5 343Q154 328 137.5 309.5Q121 291 109.5 268Q98 245 94 216L92 201Q83 133 115 93.5Q147 54 227 54ZM231 -11Q178 -11 136 3.5Q94 18 65.5 45.5Q37 73 24.5 112.5Q12 152 19 203L21 218Q26 257 40 287.5Q54 318 74.5 342.5Q95 367 121 387Q147 407 177 424Q136 476 114 522Q92 568 99 618L101 633Q105 667 119 696Q133 725 156.5 746Q180 767 214.5 779Q249 791 296 791Q344 791 379.5 778.5Q415 766 437.5 744Q460 722 469 692Q478 662 474 628L472 613Q467 576 449 547.5Q431 519 404.5 495.5Q378 472 345 451.5Q312 431 278 410L456 186Q480 224 499 270.5Q518 317 526 386L527 395H601Q590 308 564 243.5Q538 179 499 129L601 0H510L449 75Q402 28 347 8.5Q292 -11 231 -11Z" glyph-name="ampersand" horiz-adv-x="661" unicode="&amp;" /><glyph d="M118 358 216 -120H143L44 360L269 840H344Z" glyph-name="anglebracketleft" horiz-adv-x="317" unicode="&#12296;" /><glyph d="M131 0 50 390 233 780H308L124 388L204 0Z" glyph-name="anglebracketleft.cap" horiz-adv-x="317" unicode="&#58519;" /><glyph d="M195 362 97 840H170L269 360L44 -120H-31Z" glyph-name="anglebracketright" horiz-adv-x="317" unicode="&#12297;" /><glyph d="M191 780 272 390 89 0H14L198 392L118 780Z" glyph-name="anglebracketright.cap" horiz-adv-x="317" unicode="&#58520;" /><glyph d="M174 50Q211 50 239.5 59Q268 68 289 81.5Q310 95 324.5 110Q339 125 347 136L365 276L209 251Q155 243 124 220Q93 197 87 155L85 141Q82 123 86 107Q90 91 101 78Q112 65 130 57.5Q148 50 174 50ZM405 0Q388 -7 370.5 -17.5Q353 -28 338.5 -42Q324 -56 314.5 -74Q305 -92 305 -113Q305 -136 321 -147Q337 -158 364 -158Q396 -158 422 -145L434 -191Q417 -201 393.5 -206Q370 -211 349 -211Q302 -211 275 -191Q248 -171 248 -129Q248 -77 277.5 -41.5Q307 -6 347 16V74Q318 40 271.5 14.5Q225 -11 158 -11Q82 -11 43.5 30Q5 71 13 135L15 151Q20 193 36.5 220Q53 247 78.5 264Q104 281 137 290Q170 299 208 305L372 331L375 353Q384 417 361 449.5Q338 482 266 482Q228 482 203.5 471.5Q179 461 163.5 443.5Q148 426 140 403Q132 380 129 355H62L64 368Q68 398 80 429Q92 460 115 484.5Q138 509 175 525Q212 541 268 541Q325 541 362 527Q399 513 419 487Q439 461 444.5 424.5Q450 388 444 344L418 150Z" glyph-name="aogonek" horiz-adv-x="512" unicode="&#261;" /><glyph d="M193 553Q233 553 263.5 542Q294 531 321 517.5Q348 504 375 493Q402 482 435 482Q474 482 499 499.5Q524 517 541 538L579 498Q559 470 523.5 446Q488 422 435 422Q395 422 364.5 433Q334 444 307 457.5Q280 471 253 482Q226 493 193 493Q154 493 129 475.5Q104 458 87 437L49 477Q69 505 104.5 529Q140 553 193 553ZM166 349Q206 349 236.5 338Q267 327 294 313.5Q321 300 348 289Q375 278 408 278Q447 278 472 295.5Q497 313 514 334L552 294Q532 266 496.5 242Q461 218 408 218Q368 218 337.5 229Q307 240 280 253.5Q253 267 226 278Q199 289 166 289Q127 289 102 271.5Q77 254 60 233L22 273Q42 301 77.5 325Q113 349 166 349Z" glyph-name="approxequal" horiz-adv-x="600" unicode="&#8776;" /><glyph d="M174 50Q211 50 239.5 59Q268 68 289 81.5Q310 95 324.5 110Q339 125 347 136L365 276L209 251Q155 243 124 220Q93 197 87 155L85 141Q82 123 86 107Q90 91 101 78Q112 65 130 57.5Q148 50 174 50ZM347 74Q318 40 271.5 14.5Q225 -11 158 -11Q82 -11 43.5 30Q5 71 13 135L15 151Q20 193 36.5 220Q53 247 78.5 264Q104 281 137 290Q170 299 208 305L372 331L375 353Q384 417 361 449.5Q338 482 266 482Q228 482 203.5 471.5Q179 461 163.5 443.5Q148 426 140 403Q132 380 129 355H62L64 368Q68 398 80 429Q92 460 115 484.5Q138 509 175 525Q212 541 268 541Q325 541 362 527Q399 513 419 487Q439 461 444.5 424.5Q450 388 444 344L418 150L405 0H347ZM290 603Q248 603 225.5 627.5Q203 652 203 690Q203 734 233.5 762.5Q264 791 307 791Q349 791 371.5 766.5Q394 742 394 704Q394 660 363.5 631.5Q333 603 290 603ZM290 641Q316 641 335.5 656.5Q355 672 355 704Q355 725 342.5 739Q330 753 307 753Q281 753 261.5 737.5Q242 722 242 690Q242 669 254.5 655Q267 641 290 641Z" glyph-name="aring" horiz-adv-x="512" unicode="&#229;" /><glyph d="M70 472 427 115V780H493V115L850 472V379L460 -11L70 379Z" glyph-name="arrowdown" horiz-adv-x="920" unicode="&#8595;" /><glyph d="M542 780 185 423H850V357H185L542 0H449L59 390L449 780Z" glyph-name="arrowleft" horiz-adv-x="920" unicode="&#8592;" /><glyph d="M471 780 861 390 471 0H378L735 357H70V423H735L378 780Z" glyph-name="arrowright" horiz-adv-x="920" unicode="&#8594;" /><glyph d="M70 401 460 791 850 401V308L493 665V0H427V665L70 308Z" glyph-name="arrowup" horiz-adv-x="920" unicode="&#8593;" /><glyph d="M557 276H488L345 701L91 276H16L318 780H388Z" glyph-name="asciicircum" horiz-adv-x="600" unicode="^" /><glyph d="M180 451Q220 451 250.5 440Q281 429 308 415.5Q335 402 362 391Q389 380 422 380Q461 380 486 397.5Q511 415 528 436L566 396Q546 368 510.5 344Q475 320 422 320Q382 320 351.5 331Q321 342 294 355.5Q267 369 240 380Q213 391 180 391Q141 391 116 373.5Q91 356 74 335L36 375Q56 403 91.5 427Q127 451 180 451Z" glyph-name="asciitilde" horiz-adv-x="600" unicode="~" /><glyph d="M292 451 226 572 263 596 338 482ZM414 648 268 608 260 648 404 698ZM79 482 183 596 214 572 117 451ZM69 698 200 648 182 608 46 648ZM277 800 252 654H210L224 800Z" glyph-name="asterisk" horiz-adv-x="389" unicode="*" /><glyph d="M601 401Q595 414 584.5 428Q574 442 558 454Q542 466 521 473.5Q500 481 473 481Q438 481 411 468Q384 455 364 432Q344 409 331.5 377.5Q319 346 314 309L311 287Q306 249 309.5 216.5Q313 184 326.5 160Q340 136 363 122.5Q386 109 421 109Q448 109 471.5 116.5Q495 124 514.5 136Q534 148 548.5 162Q563 176 573 189ZM445 -156Q490 -156 536 -148.5Q582 -141 625.5 -127Q669 -113 708 -93.5Q747 -74 779 -50L810 -93Q771 -125 724.5 -147.5Q678 -170 629.5 -184Q581 -198 532 -204.5Q483 -211 440 -211Q332 -211 247 -178.5Q162 -146 106.5 -84Q51 -22 28 67Q5 156 19 270L24 310Q38 424 83 513Q128 602 196 664Q264 726 353 758.5Q442 791 545 791Q633 791 709 767.5Q785 744 838 695Q891 646 916.5 571.5Q942 497 929 394L924 354Q913 264 885.5 206.5Q858 149 818.5 116.5Q779 84 728 72Q677 60 619 60H573L572 132Q547 98 507 73.5Q467 49 412 49Q358 49 322 68.5Q286 88 266 121Q246 154 241 196.5Q236 239 242 285L245 307Q251 353 268 395Q285 437 313 469.5Q341 502 381 521.5Q421 541 475 541Q532 541 566.5 516Q601 491 617 457L635 530H689L664 380L629 114Q675 115 714.5 124Q754 133 784.5 158.5Q815 184 836 230.5Q857 277 867 354L872 394Q884 488 861.5 553Q839 618 793.5 658.5Q748 699 684.5 717.5Q621 736 550 736H540Q450 736 371.5 707.5Q293 679 232.5 624Q172 569 132.5 490Q93 411 81 310L76 270Q63 166 83.5 86.5Q104 7 152 -47Q200 -101 272.5 -128.5Q345 -156 435 -156Z" glyph-name="at" horiz-adv-x="961" unicode="@" /><glyph d="M614 501Q608 514 597.5 528Q587 542 571 554Q555 566 534 573.5Q513 581 486 581Q451 581 424 568Q397 555 377 532Q357 509 344.5 477.5Q332 446 327 409L324 387Q319 349 322.5 316.5Q326 284 339.5 260Q353 236 376 222.5Q399 209 434 209Q461 209 484.5 216.5Q508 224 527.5 236Q547 248 561.5 262Q576 276 586 289ZM458 -56Q503 -56 549 -48.5Q595 -41 638.5 -27Q682 -13 721 6.5Q760 26 792 50L823 7Q784 -25 737.5 -47.5Q691 -70 642.5 -84Q594 -98 545 -104.5Q496 -111 453 -111Q345 -111 260 -78.5Q175 -46 119.5 16Q64 78 41 167Q18 256 32 370L37 410Q51 524 96 613Q141 702 209 764Q277 826 366 858.5Q455 891 558 891Q646 891 722 867.5Q798 844 851 795Q904 746 929.5 671.5Q955 597 942 494L937 454Q926 364 898.5 306.5Q871 249 831.5 216.5Q792 184 741 172Q690 160 632 160H586L585 232Q560 198 520 173.5Q480 149 425 149Q371 149 335 168.5Q299 188 279 221Q259 254 254 296.5Q249 339 255 385L258 407Q264 453 281 495Q298 537 326 569.5Q354 602 394 621.5Q434 641 488 641Q545 641 579.5 616Q614 591 630 557L648 630H702L677 480L642 214Q688 215 727.5 224Q767 233 797.5 258.5Q828 284 849 330.5Q870 377 880 454L885 494Q897 588 874.5 653Q852 718 806.5 758.5Q761 799 697.5 817.5Q634 836 563 836H553Q463 836 384.5 807.5Q306 779 245.5 724Q185 669 145.5 590Q106 511 94 410L89 370Q76 266 96.5 186.5Q117 107 165 53Q213 -1 285.5 -28.5Q358 -56 448 -56Z" glyph-name="at.cap" horiz-adv-x="961" unicode="&#58643;" /><glyph d="M174 50Q211 50 239.5 59Q268 68 289 81.5Q310 95 324.5 110Q339 125 347 136L365 276L209 251Q155 243 124 220Q93 197 87 155L85 141Q82 123 86 107Q90 91 101 78Q112 65 130 57.5Q148 50 174 50ZM347 74Q318 40 271.5 14.5Q225 -11 158 -11Q82 -11 43.5 30Q5 71 13 135L15 151Q20 193 36.5 220Q53 247 78.5 264Q104 281 137 290Q170 299 208 305L372 331L375 353Q384 417 361 449.5Q338 482 266 482Q228 482 203.5 471.5Q179 461 163.5 443.5Q148 426 140 403Q132 380 129 355H62L64 368Q68 398 80 429Q92 460 115 484.5Q138 509 175 525Q212 541 268 541Q325 541 362 527Q399 513 419 487Q439 461 444.5 424.5Q450 388 444 344L418 150L405 0H347ZM461 746Q453 692 427.5 667.5Q402 643 366 643Q344 643 326 652Q308 661 292 672Q276 683 261.5 692Q247 701 231 701Q216 701 204.5 690.5Q193 680 190 654H137Q144 708 169.5 732.5Q195 757 231 757Q253 757 271 748Q289 739 305 728Q321 717 335.5 708Q350 699 366 699Q381 699 392.5 709.5Q404 720 408 746Z" glyph-name="atilde" horiz-adv-x="512" unicode="&#227;" /><glyph d="M105 138Q111 124 122 108.5Q133 93 148.5 80.5Q164 68 184.5 60Q205 52 231 52Q306 52 348 105Q390 158 403 251L406 273Q419 369 388 423.5Q357 478 282 478Q231 478 197 455Q163 432 140 401ZM149 474Q172 503 210.5 522Q249 541 299 541Q353 541 390.5 520.5Q428 500 450 464.5Q472 429 478.5 380.5Q485 332 477 275L474 253Q466 195 448.5 146.5Q431 98 402.5 63Q374 28 334 8.5Q294 -11 240 -11Q210 -11 185 -2.5Q160 6 141 18.5Q122 31 109 46.5Q96 62 89 77L70 0H12L37 150L122 800H192Z" glyph-name="b" horiz-adv-x="537" unicode="b" /><glyph d="M77 840H145L249 -120H181Z" glyph-name="backslash" horiz-adv-x="329" unicode="\" /><glyph d="M152 780 242 0H174L84 780Z" glyph-name="backslash.cap" horiz-adv-x="321" unicode="&#58466;" /><glyph d="M208 186 287 265 208 344 256 392 335 313 414 392 462 344 383 265 462 186 414 138 335 217 256 138ZM134 466V64H536V466ZM70 0V530H600V0Z" glyph-name="ballotboxwithx" horiz-adv-x="680" unicode="&#9746;" /><glyph d="M127 840H197L71 -120H1Z" glyph-name="bar" horiz-adv-x="201" unicode="|" /><glyph d="M119 780H189L87 0H17Z" glyph-name="bar.cap" horiz-adv-x="201" unicode="&#58467;" /><glyph d="M204 860H125L134 930H213ZM105 138Q111 124 122 108.5Q133 93 148.5 80.5Q164 68 184.5 60Q205 52 231 52Q306 52 348 105Q390 158 403 251L406 273Q419 369 388 423.5Q357 478 282 478Q231 478 197 455Q163 432 140 401ZM149 474Q172 503 210.5 522Q249 541 299 541Q353 541 390.5 520.5Q428 500 450 464.5Q472 429 478.5 380.5Q485 332 477 275L474 253Q466 195 448.5 146.5Q431 98 402.5 63Q374 28 334 8.5Q294 -11 240 -11Q210 -11 185 -2.5Q160 6 141 18.5Q122 31 109 46.5Q96 62 89 77L70 0H12L37 150L122 800H192Z" glyph-name="bdotaccent" horiz-adv-x="537" unicode="&#7683;" /><glyph d="M59 390Q59 473 90.5 546Q122 619 176.5 673.5Q231 728 304 759.5Q377 791 460 791Q543 791 616 759.5Q689 728 743.5 673.5Q798 619 829.5 546Q861 473 861 390Q861 307 829.5 234Q798 161 743.5 106.5Q689 52 616 20.5Q543 -11 460 -11Q377 -11 304 20.5Q231 52 176.5 106.5Q122 161 90.5 234Q59 307 59 390Z" glyph-name="blackcircle" horiz-adv-x="920" unicode="&#9679;" /><glyph d="M70 0V530H600V0Z" glyph-name="blacksmallsquare" horiz-adv-x="680" unicode="&#9642;" /><glyph d="M70 0V780H850V0Z" glyph-name="blacksquare" horiz-adv-x="920" unicode="&#9632;" /><glyph d="M328 775Q303 775 284.5 770Q266 765 253 753Q240 741 231.5 720.5Q223 700 219 669L192 462Q186 420 167 396Q148 372 116 360Q145 347 157.5 323.5Q170 300 165 257L138 50Q133 17 135.5 -3.5Q138 -24 147.5 -35.5Q157 -47 174.5 -51Q192 -55 218 -55L210 -120H192Q164 -120 138.5 -113Q113 -106 94.5 -89Q76 -72 67.5 -44.5Q59 -17 64 24L92 239Q96 266 93 283.5Q90 301 80.5 310.5Q71 320 55.5 323.5Q40 327 18 327L26 393Q48 393 64.5 396.5Q81 400 93 409.5Q105 419 112.5 436.5Q120 454 124 481L153 702Q158 743 174.5 770Q191 797 213.5 812.5Q236 828 263.5 834Q291 840 318 840H336Z" glyph-name="braceleft" horiz-adv-x="317" unicode="{" /><glyph d="M321 715Q296 715 277.5 710Q259 705 246 693Q233 681 224.5 660.5Q216 640 212 609L197 492Q191 450 172 426Q153 402 121 390Q150 377 162.5 353.5Q175 330 170 287L155 170Q150 137 152.5 116.5Q155 96 164.5 84.5Q174 73 191.5 69Q209 65 235 65L227 0H209Q181 0 155.5 7Q130 14 111.5 31Q93 48 84.5 75.5Q76 103 81 144L97 269Q101 296 98 313.5Q95 331 85.5 340.5Q76 350 60.5 353.5Q45 357 23 357L31 423Q53 423 69.5 426.5Q86 430 98 439.5Q110 449 117.5 466.5Q125 484 129 511L146 642Q151 683 167.5 710Q184 737 206.5 752.5Q229 768 256.5 774Q284 780 311 780H329Z" glyph-name="braceleft.cap" horiz-adv-x="317" unicode="&#58517;" /><glyph d="M-15 -55Q34 -55 60 -33.5Q86 -12 94 51L121 258Q127 300 146 324Q165 348 197 360Q168 373 155.5 396.5Q143 420 148 463L175 670Q179 703 177 723.5Q175 744 165.5 755.5Q156 767 138.5 771Q121 775 95 775L103 840H121Q149 840 174.5 833Q200 826 218.5 809Q237 792 245.5 764.5Q254 737 249 696L221 481Q217 454 220 436.5Q223 419 232.5 409.5Q242 400 257.5 396.5Q273 393 295 393L287 327Q265 327 248.5 323.5Q232 320 220 310.5Q208 301 200.5 283.5Q193 266 189 239L160 18Q155 -23 138.5 -50Q122 -77 99.5 -92.5Q77 -108 49.5 -114Q22 -120 -5 -120H-23Z" glyph-name="braceright" horiz-adv-x="317" unicode="}" /><glyph d="M1 65Q50 65 76 86.5Q102 108 110 171L125 288Q131 330 150 354Q169 378 201 390Q172 403 159.5 426.5Q147 450 152 493L167 610Q171 643 169 663.5Q167 684 157.5 695.5Q148 707 130.5 711Q113 715 87 715L95 780H113Q141 780 166.5 773Q192 766 210.5 749Q229 732 237.5 704.5Q246 677 241 636L225 511Q221 484 224 466.5Q227 449 236.5 439.5Q246 430 261.5 426.5Q277 423 299 423L291 357Q269 357 252.5 353.5Q236 350 224 340.5Q212 331 204.5 313.5Q197 296 193 269L176 138Q171 97 154.5 70Q138 43 115.5 27.5Q93 12 65.5 6Q38 0 11 0H-7Z" glyph-name="braceright.cap" horiz-adv-x="317" unicode="&#58518;" /><glyph d="M336 840 328 775H190L81 -55H218L210 -120H2L128 840Z" glyph-name="bracketleft" horiz-adv-x="317" unicode="[" /><glyph d="M328 780 320 715H182L97 65H234L226 0H18L120 780Z" glyph-name="bracketleft.cap" horiz-adv-x="317" unicode="&#58515;" /><glyph d="M-23 -120 -15 -55H123L232 775H95L103 840H311L185 -120Z" glyph-name="bracketright" horiz-adv-x="317" unicode="]" /><glyph d="M-7 0 1 65H139L224 715H87L95 780H303L201 0Z" glyph-name="bracketright.cap" horiz-adv-x="317" unicode="&#58516;" /><glyph d="M284 603Q241 603 211.5 616Q182 629 164.5 652.5Q147 676 142 708.5Q137 741 142 780H196Q189 725 208.5 691.5Q228 658 284 658Q340 658 369.5 691.5Q399 725 406 780H464Q459 741 446.5 708.5Q434 676 412 652.5Q390 629 358.5 616Q327 603 284 603Z" glyph-name="breve" horiz-adv-x="500" unicode="&#728;" /><glyph d="M311 829Q236 829 204.5 863.5Q173 898 181 950H234Q229 917 248 896Q267 875 314 875Q361 875 385 896Q409 917 414 950H471Q464 898 425.5 863.5Q387 829 311 829Z" glyph-name="breve.cap" horiz-adv-x="500" unicode="&#58406;" /><glyph d="M59 324H129L71 -120H1ZM127 840H197L139 396H69Z" glyph-name="brokenbar" horiz-adv-x="201" unicode="&#166;" /><glyph d="M63 354H133L87 0H17ZM119 780H189L142 426H72Z" glyph-name="brokenbar.cap" horiz-adv-x="201" unicode="&#58469;" /><glyph d="M309 219H47L81 481H343Z" glyph-name="bullet" horiz-adv-x="397" unicode="&#8226;" /><glyph d="M314 259H52L87 521H348Z" glyph-name="bullet.cap" horiz-adv-x="397" unicode="&#58470;" /><glyph d="M105 257Q92 162 124 107Q156 52 234 52Q271 52 296.5 62.5Q322 73 339.5 91Q357 109 366.5 133Q376 157 380 184H448L446 171Q441 136 427.5 103.5Q414 71 389.5 45.5Q365 20 327 4.5Q289 -11 234 -11Q175 -11 133.5 9.5Q92 30 67.5 66Q43 102 34.5 150.5Q26 199 34 255L37 277Q45 334 63 382.5Q81 431 110.5 466.5Q140 502 182 521.5Q224 541 280 541Q340 541 379 523Q418 505 440 477Q462 449 468.5 415Q475 381 470 349L468 336H401Q405 366 400.5 391.5Q396 417 381.5 436.5Q367 456 342 467Q317 478 280 478Q206 478 163.5 425.5Q121 373 108 279Z" glyph-name="c" horiz-adv-x="522" unicode="c" /><glyph d="M105 257Q92 162 124 107Q156 52 234 52Q271 52 296.5 62.5Q322 73 339.5 91Q357 109 366.5 133Q376 157 380 184H448L446 171Q441 136 427.5 103.5Q414 71 389.5 45.5Q365 20 327 4.5Q289 -11 234 -11Q175 -11 133.5 9.5Q92 30 67.5 66Q43 102 34.5 150.5Q26 199 34 255L37 277Q45 334 63 382.5Q81 431 110.5 466.5Q140 502 182 521.5Q224 541 280 541Q340 541 379 523Q418 505 440 477Q462 449 468.5 415Q475 381 470 349L468 336H401Q405 366 400.5 391.5Q396 417 381.5 436.5Q367 456 342 467Q317 478 280 478Q206 478 163.5 425.5Q121 373 108 279ZM453 780 337 614H265L377 780Z" glyph-name="cacute" horiz-adv-x="522" unicode="&#263;" /><glyph d="M207 780 285 667 392 780H465L312 614H250L141 780Z" glyph-name="caron" horiz-adv-x="500" unicode="&#711;" /><glyph d="M255 950 312 881 390 950H464L343 840H279L188 950Z" glyph-name="caron.cap" horiz-adv-x="500" unicode="&#58413;" /><glyph d="M437 800 395 614H355L380 800Z" glyph-name="caronSlovak" horiz-adv-x="500" unicode="&#58387;" /><glyph d="M105 257Q92 162 124 107Q156 52 234 52Q271 52 296.5 62.5Q322 73 339.5 91Q357 109 366.5 133Q376 157 380 184H448L446 171Q441 136 427.5 103.5Q414 71 389.5 45.5Q365 20 327 4.5Q289 -11 234 -11Q175 -11 133.5 9.5Q92 30 67.5 66Q43 102 34.5 150.5Q26 199 34 255L37 277Q45 334 63 382.5Q81 431 110.5 466.5Q140 502 182 521.5Q224 541 280 541Q340 541 379 523Q418 505 440 477Q462 449 468.5 415Q475 381 470 349L468 336H401Q405 366 400.5 391.5Q396 417 381.5 436.5Q367 456 342 467Q317 478 280 478Q206 478 163.5 425.5Q121 373 108 279ZM227 780 305 667 412 780H485L332 614H270L161 780Z" glyph-name="ccaron" horiz-adv-x="522" unicode="&#269;" /><glyph d="M105 257Q92 162 124 107Q156 52 234 52Q271 52 296.5 62.5Q322 73 339.5 91Q357 109 366.5 133Q376 157 380 184H448L446 171Q441 138 428.5 106Q416 74 393 49Q370 24 335 8Q300 -8 250 -10L225 -58H229Q245 -58 260.5 -61.5Q276 -65 288 -73Q300 -81 307.5 -94.5Q315 -108 315 -127Q315 -172 284.5 -191.5Q254 -211 207 -211Q178 -211 153.5 -203Q129 -195 115 -184L135 -148Q146 -156 164.5 -162.5Q183 -169 206 -169Q268 -169 268 -130Q268 -110 252 -103Q236 -96 213 -96Q207 -96 201.5 -96.5Q196 -97 191 -98Q186 -99 182 -99L169 -80L205 -9Q154 -4 118 18Q82 40 61 75.5Q40 111 33.5 156.5Q27 202 34 255L37 277Q45 334 63 382.5Q81 431 110.5 466.5Q140 502 182 521.5Q224 541 280 541Q340 541 379 523Q418 505 440 477Q462 449 468.5 415Q475 381 470 349L468 336H401Q405 366 400.5 391.5Q396 417 381.5 436.5Q367 456 342 467Q317 478 280 478Q206 478 163.5 425.5Q121 373 108 279Z" glyph-name="ccedilla" horiz-adv-x="522" unicode="&#231;" /><glyph d="M105 257Q92 162 124 107Q156 52 234 52Q271 52 296.5 62.5Q322 73 339.5 91Q357 109 366.5 133Q376 157 380 184H448L446 171Q441 136 427.5 103.5Q414 71 389.5 45.5Q365 20 327 4.5Q289 -11 234 -11Q175 -11 133.5 9.5Q92 30 67.5 66Q43 102 34.5 150.5Q26 199 34 255L37 277Q45 334 63 382.5Q81 431 110.5 466.5Q140 502 182 521.5Q224 541 280 541Q340 541 379 523Q418 505 440 477Q462 449 468.5 415Q475 381 470 349L468 336H401Q405 366 400.5 391.5Q396 417 381.5 436.5Q367 456 342 467Q317 478 280 478Q206 478 163.5 425.5Q121 373 108 279ZM139 614 292 780H354L463 614H397L319 727L212 614Z" glyph-name="ccircumflex" horiz-adv-x="522" unicode="&#265;" /><glyph d="M105 257Q92 162 124 107Q156 52 234 52Q271 52 296.5 62.5Q322 73 339.5 91Q357 109 366.5 133Q376 157 380 184H448L446 171Q441 136 427.5 103.5Q414 71 389.5 45.5Q365 20 327 4.5Q289 -11 234 -11Q175 -11 133.5 9.5Q92 30 67.5 66Q43 102 34.5 150.5Q26 199 34 255L37 277Q45 334 63 382.5Q81 431 110.5 466.5Q140 502 182 521.5Q224 541 280 541Q340 541 379 523Q418 505 440 477Q462 449 468.5 415Q475 381 470 349L468 336H401Q405 366 400.5 391.5Q396 417 381.5 436.5Q367 456 342 467Q317 478 280 478Q206 478 163.5 425.5Q121 373 108 279ZM351 655H261L273 745H363Z" glyph-name="cdotaccent" horiz-adv-x="522" unicode="&#267;" /><glyph d="M105 -148Q116 -156 134.5 -162.5Q153 -169 176 -169Q238 -169 238 -130Q238 -110 222 -103Q206 -96 183 -96Q177 -96 171.5 -96.5Q166 -97 161 -98Q156 -99 152 -99L139 -80L180 0H226L195 -58H199Q215 -58 230.5 -61.5Q246 -65 258 -73Q270 -81 277.5 -94.5Q285 -108 285 -127Q285 -172 254.5 -191.5Q224 -211 177 -211Q148 -211 123.5 -203Q99 -195 85 -184Z" glyph-name="cedilla" horiz-adv-x="602" unicode="&#184;" /><glyph d="M135 370Q124 288 135.5 235Q147 182 180 152L368 660H362Q360 660 358 660.5Q356 661 354 661H351Q263 661 209.5 600Q156 539 140 410ZM449 714Q482 703 505 681Q528 659 540.5 629.5Q553 600 556 564.5Q559 529 553 490L551 477H481Q491 545 477.5 587Q464 629 425 648L231 125Q242 122 253.5 121Q265 120 279 120H282Q364 120 404.5 163Q445 206 455 282H526L524 268Q510 169 450 112Q390 55 280 55Q255 55 238.5 57Q222 59 208 62L163 -60H102L154 82Q95 116 71 187Q47 258 61 370L66 410Q86 568 158.5 647.5Q231 727 352 727Q366 727 376 726.5Q386 726 391 725L434 840H496Z" glyph-name="cent" horiz-adv-x="600" unicode="&#162;" /><glyph d="M119 614 272 780H334L443 614H377L299 727L192 614Z" glyph-name="circumflex" horiz-adv-x="500" unicode="&#710;" /><glyph d="M382 840 325 909 247 840H173L294 950H358L449 840Z" glyph-name="circumflex.cap" horiz-adv-x="500" unicode="&#58403;" /><glyph d="M349 0Q368 37 381.5 73Q395 109 404.5 147Q414 185 420.5 227Q427 269 431 320L428 321Q415 290 396 261Q377 232 352 209.5Q327 187 296 173.5Q265 160 228 160Q191 160 159 173.5Q127 187 103 210.5Q79 234 65.5 265.5Q52 297 52 334Q52 373 64.5 406Q77 439 100 463Q123 487 155 500.5Q187 514 226 514Q252 514 272.5 507Q293 500 310 491L312 493Q295 518 284.5 547.5Q274 577 274 610Q274 647 287.5 680Q301 713 324.5 737.5Q348 762 380 776Q412 790 450 790Q488 790 520 776Q552 762 575.5 737.5Q599 713 612.5 680Q626 647 626 610Q626 577 615.5 547.5Q605 518 588 493L590 491Q607 500 627.5 507Q648 514 674 514Q713 514 745 500.5Q777 487 800 463Q823 439 835.5 406Q848 373 848 334Q848 297 834.5 265.5Q821 234 797 210.5Q773 187 741 173.5Q709 160 672 160Q635 160 604 173.5Q573 187 548 209.5Q523 232 504 261Q485 290 472 321L469 320Q473 269 479.5 227Q486 185 495.5 147Q505 109 518.5 73Q532 37 551 0Z" glyph-name="club" horiz-adv-x="900" unicode="&#9827;" /><glyph d="M149 345H59L71 435H161ZM104 0H14L26 90H116Z" glyph-name="colon" horiz-adv-x="217" unicode=":" /><glyph d="M191 345H101L113 435H203ZM146 0H56L68 90H158Z" glyph-name="colon.T" horiz-adv-x="300" unicode="&#61828;" /><glyph d="M106 15Q88 -119 -24 -119L-18 -76Q12 -76 31 -59.5Q50 -43 59 0H14L26 90H116Z" glyph-name="comma" horiz-adv-x="217" unicode="," /><glyph d="M148 15Q130 -119 18 -119L24 -76Q54 -76 73 -59.5Q92 -43 101 0H56L68 90H158Z" glyph-name="comma.T" horiz-adv-x="300" unicode="&#61827;" /><glyph d="M227 -107Q220 -159 189.5 -186.5Q159 -214 108 -214L113 -178Q139 -178 158.5 -165.5Q178 -153 186 -124H144L153 -56H234Z" glyph-name="commaaccent" horiz-adv-x="602" unicode="&#58388;" /><glyph d="M277 882Q282 918 306.5 940Q331 962 379 962L374 930Q351 930 337 924Q323 918 318 901H359L351 840H272Z" glyph-name="commaaccent.cap" horiz-adv-x="500" unicode="&#58414;" /><glyph d="M461 206Q498 206 522 216Q546 226 560 241.5Q574 257 580 275.5Q586 294 586 311H651V298Q651 275 641.5 248Q632 221 609.5 198Q587 175 550.5 159.5Q514 144 460 144Q403 144 363.5 165Q324 186 299.5 219.5Q275 253 263.5 295Q252 337 252 378V402Q252 443 263.5 485Q275 527 299.5 560.5Q324 594 363.5 615Q403 636 460 636Q514 636 550.5 620Q587 604 609.5 580Q632 556 641.5 528Q651 500 651 476V459H586Q586 480 580 501Q574 522 559.5 538Q545 554 521 564Q497 574 461 574Q422 574 395.5 559Q369 544 352 520Q335 496 327.5 465Q320 434 320 402V378Q320 346 327.5 315Q335 284 352 260Q369 236 395.5 221Q422 206 461 206ZM102 390Q102 316 130 250.5Q158 185 206.5 136.5Q255 88 320.5 60Q386 32 460 32Q534 32 599.5 60Q665 88 713.5 136.5Q762 185 790 250.5Q818 316 818 390Q818 464 790 529.5Q762 595 713.5 643.5Q665 692 599.5 720Q534 748 460 748Q386 748 320.5 720Q255 692 206.5 643.5Q158 595 130 529.5Q102 464 102 390ZM59 390Q59 473 90.5 546Q122 619 176.5 673.5Q231 728 304 759.5Q377 791 460 791Q543 791 616 759.5Q689 728 743.5 673.5Q798 619 829.5 546Q861 473 861 390Q861 307 829.5 234Q798 161 743.5 106.5Q689 52 616 20.5Q543 -11 460 -11Q377 -11 304 20.5Q231 52 176.5 106.5Q122 161 90.5 234Q59 307 59 390Z" glyph-name="copyright" horiz-adv-x="920" unicode="&#169;" /><glyph d="M280 478Q205 478 163 425Q121 372 108 279L105 257Q92 161 123 106.5Q154 52 229 52Q280 52 314.5 74.5Q349 97 372 128L406 391Q400 405 389 420.5Q378 436 362.5 448.5Q347 461 326.5 469.5Q306 478 280 478ZM212 -11Q158 -11 120 9.5Q82 30 60.5 65.5Q39 101 32.5 149.5Q26 198 34 255L37 277Q45 335 62.5 383.5Q80 432 108.5 467Q137 502 177 521.5Q217 541 271 541Q301 541 325.5 533Q350 525 368 513.5Q386 502 398 488.5Q410 475 416 465L460 800H530L444 144L431 0H371V67Q346 32 304 10.5Q262 -11 212 -11Z" glyph-name="d" horiz-adv-x="540" unicode="d" /><glyph d="M57 645 194 640 188 598 49 593ZM396 593 259 598 264 640 403 645ZM277 800 252 654H210L224 800ZM200 584H243L232 458L210 331H167L179 458Z" glyph-name="dagger" horiz-adv-x="389" unicode="&#8224;" /><glyph d="M223 438H181L185 511L200 584H243L238 511ZM28 429 165 424 160 381 21 376ZM368 376 231 381 236 424 374 429ZM57 645 194 640 188 598 49 593ZM396 593 259 598 264 640 403 645ZM277 800 252 654H210L224 800ZM172 367H215L203 241L182 115H139L150 241Z" glyph-name="daggerdbl" horiz-adv-x="389" unicode="&#8225;" /><glyph d="M661 800 619 614H579L604 800ZM280 478Q205 478 163 425Q121 372 108 279L105 257Q92 161 123 106.5Q154 52 229 52Q280 52 314.5 74.5Q349 97 372 128L406 391Q400 405 389 420.5Q378 436 362.5 448.5Q347 461 326.5 469.5Q306 478 280 478ZM212 -11Q158 -11 120 9.5Q82 30 60.5 65.5Q39 101 32.5 149.5Q26 198 34 255L37 277Q45 335 62.5 383.5Q80 432 108.5 467Q137 502 177 521.5Q217 541 271 541Q301 541 325.5 533Q350 525 368 513.5Q386 502 398 488.5Q410 475 416 465L460 800H530L444 144L431 0H371V67Q346 32 304 10.5Q262 -11 212 -11Z" glyph-name="dcaron" horiz-adv-x="540" unicode="&#271;" /><glyph d="M280 478Q205 478 163 425Q121 372 108 279L105 257Q92 161 123 106.5Q154 52 229 52Q280 52 314.5 74.5Q349 97 372 128L406 391Q400 405 389 420.5Q378 436 362.5 448.5Q347 461 326.5 469.5Q306 478 280 478ZM508 633 444 144 431 0H371V67Q346 32 304 10.5Q262 -11 212 -11Q158 -11 120 9.5Q82 30 60.5 65.5Q39 101 32.5 149.5Q26 198 34 255L37 277Q45 335 62.5 383.5Q80 432 108.5 467Q137 502 177 521.5Q217 541 271 541Q301 541 325.5 533Q350 525 368 513.5Q386 502 398 488.5Q410 475 416 465L438 633H303L312 697H446L460 800H530L516 697H608L599 633Z" glyph-name="dcroat" horiz-adv-x="540" unicode="&#273;" /><glyph d="M542 860H463L472 930H551ZM280 478Q205 478 163 425Q121 372 108 279L105 257Q92 161 123 106.5Q154 52 229 52Q280 52 314.5 74.5Q349 97 372 128L406 391Q400 405 389 420.5Q378 436 362.5 448.5Q347 461 326.5 469.5Q306 478 280 478ZM212 -11Q158 -11 120 9.5Q82 30 60.5 65.5Q39 101 32.5 149.5Q26 198 34 255L37 277Q45 335 62.5 383.5Q80 432 108.5 467Q137 502 177 521.5Q217 541 271 541Q301 541 325.5 533Q350 525 368 513.5Q386 502 398 488.5Q410 475 416 465L460 800H530L444 144L431 0H371V67Q346 32 304 10.5Q262 -11 212 -11Z" glyph-name="ddotaccent" horiz-adv-x="540" unicode="&#7691;" /><glyph d="M244 791Q315 791 355.5 752Q396 713 388 641L387 632Q379 559 335 521.5Q291 484 224 484Q153 484 112.5 523Q72 562 80 634L81 643Q89 716 133 753.5Q177 791 244 791ZM228 538Q270 538 299 559.5Q328 581 333 632L334 641Q339 684 316 710.5Q293 737 248 737H240Q198 737 169 715.5Q140 694 135 643L134 634Q129 591 152 564.5Q175 538 220 538Z" glyph-name="degree" horiz-adv-x="400" unicode="&#176;" /><glyph d="M817 390Q764 348 712.5 300.5Q661 253 614 201.5Q567 150 525.5 96.5Q484 43 451 -10H449Q416 43 374.5 96.5Q333 150 286 201.5Q239 253 187.5 300.5Q136 348 83 390Q136 432 187.5 479.5Q239 527 286 578.5Q333 630 374.5 683.5Q416 737 449 790H451Q484 737 525.5 683.5Q567 630 614 578.5Q661 527 712.5 479.5Q764 432 817 390Z" glyph-name="diamond" horiz-adv-x="900" unicode="&#9830;" /><glyph d="M415 655H325L337 745H427ZM248 655H158L170 745H260Z" glyph-name="dieresis" horiz-adv-x="500" unicode="&#168;" /><glyph d="M431 860H352L361 930H440ZM275 860H196L205 930H284Z" glyph-name="dieresis.cap" horiz-adv-x="500" unicode="&#58409;" /><glyph d="M369 562H279L291 652H381ZM311 128H221L233 218H323ZM53 423H558L549 357H44Z" glyph-name="divide" horiz-adv-x="600" unicode="&#247;" /><glyph d="M165 545Q159 499 186 470.5Q213 442 283 431L369 663Q364 664 356 664.5Q348 665 340 665H336Q304 665 274.5 657.5Q245 650 222 635.5Q199 621 184 600.5Q169 580 166 553ZM277 115Q346 115 392 145.5Q438 176 446 234L447 242Q450 270 443 289.5Q436 309 419 323Q402 337 377 346Q352 355 319 362L229 119Q248 115 271 115ZM448 711Q510 689 534.5 634Q559 579 548 509L546 496H476Q485 557 472 594Q459 631 426 650L341 422Q438 406 483.5 362Q529 318 519 241L518 233Q507 146 441 99.5Q375 53 274 53Q251 53 235.5 54Q220 55 206 57L163 -60H102L151 73Q91 99 64.5 149Q38 199 48 261L50 274H119Q111 220 122 188.5Q133 157 174 136L261 372Q210 380 176 396Q142 412 122.5 434Q103 456 96.5 484Q90 512 94 545L95 553Q101 596 121.5 629Q142 662 175 683.5Q208 705 251.5 716Q295 727 346 727Q370 727 391 724L434 840H496Z" glyph-name="dollar" horiz-adv-x="600" unicode="$" /><glyph d="M331 655H241L253 745H343Z" glyph-name="dotaccent" horiz-adv-x="500" unicode="&#729;" /><glyph d="M353 860H274L283 930H362Z" glyph-name="dotaccent.cap" horiz-adv-x="500" unicode="&#58408;" /><glyph d="M219 -169H137L148 -87H229Z" glyph-name="dotbelow" horiz-adv-x="602" unicode="&#58389;" /><glyph d="M93 530H163L94 0H24Z" glyph-name="dotlessi" horiz-adv-x="216" unicode="&#305;" /><glyph d="M93 530H163L86 -63Q75 -143 29.5 -177Q-16 -211 -88 -211Q-116 -211 -135 -206.5Q-154 -202 -160 -199L-152 -138Q-145 -141 -127 -144.5Q-109 -148 -92 -148Q-46 -148 -18 -127.5Q10 -107 18 -49Z" glyph-name="dotlessj" horiz-adv-x="216" unicode="&#567;" /><glyph d="M252 840H322L196 -120H126ZM127 840H197L71 -120H1Z" glyph-name="doublebar" horiz-adv-x="327" unicode="&#8214;" /><glyph d="M244 780H314L212 0H142ZM119 780H189L87 0H17Z" glyph-name="doublebar.cap" horiz-adv-x="327" unicode="&#58468;" /><glyph d="M312 780 374 614H311L245 780ZM183 780 251 614H188L115 780Z" glyph-name="doublegrave" horiz-adv-x="500" unicode="&#58386;" /><glyph d="M237 950 282 840H215L167 950ZM364 950 407 840H340L294 950Z" glyph-name="doublegrave.cap" horiz-adv-x="500" unicode="&#58412;" /><glyph d="M289 478Q253 478 222.5 464.5Q192 451 169 426.5Q146 402 131 368Q116 334 110 294H414Q426 382 396 430Q366 478 289 478ZM103 236Q94 150 126.5 101Q159 52 245 52Q285 52 313 62.5Q341 73 359.5 89.5Q378 106 388 127.5Q398 149 401 170H468L466 157Q461 128 445.5 98Q430 68 402.5 44Q375 20 335 4.5Q295 -11 243 -11Q177 -11 133 10Q89 31 64.5 67Q40 103 33 151.5Q26 200 34 255L37 277Q45 334 64 382.5Q83 431 114.5 466Q146 501 189.5 521Q233 541 289 541Q349 541 389.5 521Q430 501 453 466Q476 431 482.5 382Q489 333 482 275L477 236Z" glyph-name="e" horiz-adv-x="544" unicode="e" /><glyph d="M289 478Q253 478 222.5 464.5Q192 451 169 426.5Q146 402 131 368Q116 334 110 294H414Q426 382 396 430Q366 478 289 478ZM103 236Q94 150 126.5 101Q159 52 245 52Q285 52 313 62.5Q341 73 359.5 89.5Q378 106 388 127.5Q398 149 401 170H468L466 157Q461 128 445.5 98Q430 68 402.5 44Q375 20 335 4.5Q295 -11 243 -11Q177 -11 133 10Q89 31 64.5 67Q40 103 33 151.5Q26 200 34 255L37 277Q45 334 64 382.5Q83 431 114.5 466Q146 501 189.5 521Q233 541 289 541Q349 541 389.5 521Q430 501 453 466Q476 431 482.5 382Q489 333 482 275L477 236ZM456 780 340 614H268L380 780Z" glyph-name="eacute" horiz-adv-x="544" unicode="&#233;" /><glyph d="M289 478Q253 478 222.5 464.5Q192 451 169 426.5Q146 402 131 368Q116 334 110 294H414Q426 382 396 430Q366 478 289 478ZM103 236Q94 150 126.5 101Q159 52 245 52Q285 52 313 62.5Q341 73 359.5 89.5Q378 106 388 127.5Q398 149 401 170H468L466 157Q461 128 445.5 98Q430 68 402.5 44Q375 20 335 4.5Q295 -11 243 -11Q177 -11 133 10Q89 31 64.5 67Q40 103 33 151.5Q26 200 34 255L37 277Q45 334 64 382.5Q83 431 114.5 466Q146 501 189.5 521Q233 541 289 541Q349 541 389.5 521Q430 501 453 466Q476 431 482.5 382Q489 333 482 275L477 236ZM307 603Q264 603 234.5 616Q205 629 187.5 652.5Q170 676 165 708.5Q160 741 165 780H219Q212 725 231.5 691.5Q251 658 307 658Q363 658 392.5 691.5Q422 725 429 780H487Q482 741 469.5 708.5Q457 676 435 652.5Q413 629 381.5 616Q350 603 307 603Z" glyph-name="ebreve" horiz-adv-x="544" unicode="&#277;" /><glyph d="M289 478Q253 478 222.5 464.5Q192 451 169 426.5Q146 402 131 368Q116 334 110 294H414Q426 382 396 430Q366 478 289 478ZM103 236Q94 150 126.5 101Q159 52 245 52Q285 52 313 62.5Q341 73 359.5 89.5Q378 106 388 127.5Q398 149 401 170H468L466 157Q461 128 445.5 98Q430 68 402.5 44Q375 20 335 4.5Q295 -11 243 -11Q177 -11 133 10Q89 31 64.5 67Q40 103 33 151.5Q26 200 34 255L37 277Q45 334 64 382.5Q83 431 114.5 466Q146 501 189.5 521Q233 541 289 541Q349 541 389.5 521Q430 501 453 466Q476 431 482.5 382Q489 333 482 275L477 236ZM230 780 308 667 415 780H488L335 614H273L164 780Z" glyph-name="ecaron" horiz-adv-x="544" unicode="&#283;" /><glyph d="M289 478Q253 478 222.5 464.5Q192 451 169 426.5Q146 402 131 368Q116 334 110 294H414Q426 382 396 430Q366 478 289 478ZM103 236Q94 150 126.5 101Q159 52 245 52Q285 52 313 62.5Q341 73 359.5 89.5Q378 106 388 127.5Q398 149 401 170H468L466 157Q461 128 445.5 98Q430 68 402.5 44Q375 20 335 4.5Q295 -11 243 -11Q177 -11 133 10Q89 31 64.5 67Q40 103 33 151.5Q26 200 34 255L37 277Q45 334 64 382.5Q83 431 114.5 466Q146 501 189.5 521Q233 541 289 541Q349 541 389.5 521Q430 501 453 466Q476 431 482.5 382Q489 333 482 275L477 236ZM142 614 295 780H357L466 614H400L322 727L215 614Z" glyph-name="ecircumflex" horiz-adv-x="544" unicode="&#234;" /><glyph d="M289 478Q253 478 222.5 464.5Q192 451 169 426.5Q146 402 131 368Q116 334 110 294H414Q426 382 396 430Q366 478 289 478ZM103 236Q94 150 126.5 101Q159 52 245 52Q285 52 313 62.5Q341 73 359.5 89.5Q378 106 388 127.5Q398 149 401 170H468L466 157Q461 128 445.5 98Q430 68 402.5 44Q375 20 335 4.5Q295 -11 243 -11Q177 -11 133 10Q89 31 64.5 67Q40 103 33 151.5Q26 200 34 255L37 277Q45 334 64 382.5Q83 431 114.5 466Q146 501 189.5 521Q233 541 289 541Q349 541 389.5 521Q430 501 453 466Q476 431 482.5 382Q489 333 482 275L477 236ZM438 655H348L360 745H450ZM271 655H181L193 745H283Z" glyph-name="edieresis" horiz-adv-x="544" unicode="&#235;" /><glyph d="M289 478Q253 478 222.5 464.5Q192 451 169 426.5Q146 402 131 368Q116 334 110 294H414Q426 382 396 430Q366 478 289 478ZM103 236Q94 150 126.5 101Q159 52 245 52Q285 52 313 62.5Q341 73 359.5 89.5Q378 106 388 127.5Q398 149 401 170H468L466 157Q461 128 445.5 98Q430 68 402.5 44Q375 20 335 4.5Q295 -11 243 -11Q177 -11 133 10Q89 31 64.5 67Q40 103 33 151.5Q26 200 34 255L37 277Q45 334 64 382.5Q83 431 114.5 466Q146 501 189.5 521Q233 541 289 541Q349 541 389.5 521Q430 501 453 466Q476 431 482.5 382Q489 333 482 275L477 236ZM354 655H264L276 745H366Z" glyph-name="edotaccent" horiz-adv-x="544" unicode="&#279;" /><glyph d="M289 478Q253 478 222.5 464.5Q192 451 169 426.5Q146 402 131 368Q116 334 110 294H414Q426 382 396 430Q366 478 289 478ZM103 236Q94 150 126.5 101Q159 52 245 52Q285 52 313 62.5Q341 73 359.5 89.5Q378 106 388 127.5Q398 149 401 170H468L466 157Q461 128 445.5 98Q430 68 402.5 44Q375 20 335 4.5Q295 -11 243 -11Q177 -11 133 10Q89 31 64.5 67Q40 103 33 151.5Q26 200 34 255L37 277Q45 334 64 382.5Q83 431 114.5 466Q146 501 189.5 521Q233 541 289 541Q349 541 389.5 521Q430 501 453 466Q476 431 482.5 382Q489 333 482 275L477 236ZM272 780 340 614H268L196 780Z" glyph-name="egrave" horiz-adv-x="544" unicode="&#232;" /><glyph d="M336 727Q259 727 211.5 690Q164 653 155 581L154 573Q149 538 158.5 511.5Q168 485 187.5 467Q207 449 235 439.5Q263 430 296 430H316Q352 430 383 438Q414 446 438 462.5Q462 479 477 505.5Q492 532 497 569L498 577Q502 612 492.5 639.5Q483 667 462 686.5Q441 706 410.5 716.5Q380 727 343 727ZM289 366Q215 366 164 328Q113 290 104 215L103 207Q98 168 109 139Q120 110 142 91Q164 72 195 62.5Q226 53 262 53H268Q346 53 394.5 90.5Q443 128 453 206L454 214Q464 290 423 328Q382 366 311 366ZM262 -11Q205 -11 159.5 4.5Q114 20 83.5 48.5Q53 77 38.5 116.5Q24 156 30 204L31 212Q36 254 51 285.5Q66 317 87 339.5Q108 362 134 376Q160 390 188 399Q164 405 143 421Q122 437 107 460Q92 483 85 513Q78 543 82 577L83 585Q89 631 107.5 669Q126 707 158 734Q190 761 235.5 776Q281 791 340 791Q400 791 445.5 775Q491 759 521 730.5Q551 702 564 663.5Q577 625 571 579L570 571Q561 501 519 456.5Q477 412 418 397Q476 380 506 332Q536 284 527 210L526 202Q520 155 498.5 116Q477 77 442.5 49Q408 21 362 5Q316 -11 262 -11Z" glyph-name="eight" horiz-adv-x="600" unicode="8" /><glyph d="M83 -158Q109 -158 130.5 -145Q152 -132 157 -98L158 -90Q162 -58 146.5 -42Q131 -26 102 -26H92Q60 -26 42 -41.5Q24 -57 20 -86L19 -94Q15 -126 31.5 -142Q48 -158 76 -158ZM115 146Q89 146 67.5 134Q46 122 42 91L41 83Q38 57 53 40.5Q68 24 98 24H107Q139 24 157.5 38Q176 52 179 78L180 86Q184 116 166.5 131Q149 146 121 146ZM79 -208Q44 -208 20 -198.5Q-4 -189 -17.5 -173.5Q-31 -158 -36 -138Q-41 -118 -38 -97L-37 -89Q-33 -56 -12.5 -31Q8 -6 34 -1Q9 7 -5 29Q-19 51 -15 83L-14 91Q-8 137 25 166.5Q58 196 118 196Q151 196 174.5 187.5Q198 179 213 164.5Q228 150 234 131Q240 112 237 90L236 82Q232 49 212.5 26.5Q193 4 167 -1Q193 -8 206 -33Q219 -58 214 -91L213 -99Q207 -145 174 -176.5Q141 -208 79 -208Z" glyph-name="eight.inf" horiz-adv-x="300" unicode="&#58745;" /><glyph d="M1226 196Q1203 196 1183 183.5Q1163 171 1150 151Q1149 145 1147.5 134.5Q1146 124 1146 112Q1145 80 1159.5 61.5Q1174 43 1203 43H1209Q1236 43 1259 60.5Q1282 78 1287 117L1288 125Q1293 160 1277.5 178Q1262 196 1232 196ZM1356 346Q1315 346 1278.5 332.5Q1242 319 1212 288Q1195 271 1185 253Q1175 235 1168 216Q1182 229 1202 237.5Q1222 246 1248 246Q1270 246 1289.5 238.5Q1309 231 1322.5 216Q1336 201 1342 178Q1348 155 1344 125L1343 117Q1336 60 1300.5 26.5Q1265 -7 1206 -7Q1143 -7 1114 31Q1085 69 1093 138L1094 146Q1101 201 1119.5 242Q1138 283 1171 320Q1210 364 1259.5 380Q1309 396 1362 396ZM783 0 790 49H884L920 319L835 266L813 308L945 391H985L940 49H1035L1028 0ZM329 0 1007 780H1077L399 0ZM334 390 341 439H435L471 709L386 656L364 698L496 781H536L491 439H586L579 390ZM34 390 41 439H135L171 709L86 656L64 698L196 781H236L191 439H286L279 390Z" glyph-name="elevensixteenths" horiz-adv-x="1400" unicode="&#61984;" /><glyph d="M816 0H726L738 90H828ZM496 0H406L418 90H508ZM176 0H86L98 90H188Z" glyph-name="ellipsis" horiz-adv-x="1000" unicode="&#8230;" /><glyph d="M289 478Q253 478 222.5 464.5Q192 451 169 426.5Q146 402 131 368Q116 334 110 294H414Q426 382 396 430Q366 478 289 478ZM103 236Q94 150 126.5 101Q159 52 245 52Q285 52 313 62.5Q341 73 359.5 89.5Q378 106 388 127.5Q398 149 401 170H468L466 157Q461 128 445.5 98Q430 68 402.5 44Q375 20 335 4.5Q295 -11 243 -11Q177 -11 133 10Q89 31 64.5 67Q40 103 33 151.5Q26 200 34 255L37 277Q45 334 64 382.5Q83 431 114.5 466Q146 501 189.5 521Q233 541 289 541Q349 541 389.5 521Q430 501 453 466Q476 431 482.5 382Q489 333 482 275L477 236ZM203 730H436L428 664H194Z" glyph-name="emacron" horiz-adv-x="544" unicode="&#275;" /><glyph d="M41 382H961L952 318H32Z" glyph-name="emdash" horiz-adv-x="1000" unicode="&#8212;" /><glyph d="M46 422H966L957 358H37Z" glyph-name="emdash.cap" horiz-adv-x="1000" unicode="&#58502;" /><glyph glyph-name="emspace" horiz-adv-x="1000" unicode="&#8195;" /><glyph d="M41 382H461L452 318H32Z" glyph-name="endash" horiz-adv-x="500" unicode="&#8211;" /><glyph d="M46 422H466L457 358H37Z" glyph-name="endash.cap" horiz-adv-x="500" unicode="&#58500;" /><glyph d="M408 -63Q397 -143 351.5 -177Q306 -211 234 -211Q206 -211 187 -206.5Q168 -202 162 -199L170 -138Q177 -141 195 -144.5Q213 -148 230 -148Q276 -148 304 -127.5Q332 -107 340 -49L394 361Q402 421 374.5 449.5Q347 478 290 478Q261 478 237 470Q213 462 194 449.5Q175 437 161 422.5Q147 408 138 395L86 0H16L67 386L80 530H140V456Q168 494 212 517.5Q256 541 314 541Q400 541 437.5 493.5Q475 446 465 371Z" glyph-name="eng" horiz-adv-x="528" unicode="&#331;" /><glyph glyph-name="enspace" horiz-adv-x="500" unicode="&#8194;" /><glyph d="M289 478Q253 478 222.5 464.5Q192 451 169 426.5Q146 402 131 368Q116 334 110 294H414Q426 382 396 430Q366 478 289 478ZM103 236Q94 150 126.5 101Q159 52 245 52Q285 52 313 62.5Q341 73 359.5 89.5Q378 106 388 127.5Q398 149 401 170H468L466 157Q462 134 451.5 110.5Q441 87 423 65.5Q405 44 380 27Q355 10 322 0Q305 -7 287.5 -17.5Q270 -28 255.5 -42Q241 -56 231.5 -74Q222 -92 222 -113Q222 -136 238 -147Q254 -158 281 -158Q313 -158 339 -145L351 -191Q334 -201 310.5 -206Q287 -211 266 -211Q219 -211 192 -191Q165 -171 165 -129Q165 -91 182 -61.5Q199 -32 225 -10Q164 -7 123.5 15Q83 37 60.5 72.5Q38 108 32 155Q26 202 34 255L37 277Q45 334 64 382.5Q83 431 114.5 466Q146 501 189.5 521Q233 541 289 541Q349 541 389.5 521Q430 501 453 466Q476 431 482.5 382Q489 333 482 275L477 236Z" glyph-name="eogonek" horiz-adv-x="544" unicode="&#281;" /><glyph d="M38 321H543L534 255H29ZM68 525H573L564 459H59Z" glyph-name="equal" horiz-adv-x="600" unicode="=" /><glyph d="M-33 -36H222L214 -87H-41ZM-15 76H240L232 25H-23Z" glyph-name="equal.inf" horiz-adv-x="300" unicode="&#58749;" /><glyph d="M23 219H528L519 153H14ZM83 627H588L579 561H74ZM53 423H558L549 357H44Z" glyph-name="equivalence" horiz-adv-x="600" unicode="&#8801;" /><glyph d="M232 52Q307 52 351 104.5Q395 157 408 251L411 273Q417 318 413 356Q409 394 393.5 421Q378 448 350.5 463Q323 478 283 478Q208 478 164.5 425.5Q121 373 108 279L105 257Q92 162 122.5 107Q153 52 232 52ZM107 811Q170 806 226 790.5Q282 775 330 743L456 811L449 756L369 714Q398 690 419 662Q447 623 462.5 574Q478 525 484.5 473Q491 421 489.5 369.5Q488 318 482 275L479 253Q471 196 452.5 147.5Q434 99 404 63.5Q374 28 331 8.5Q288 -11 232 -11Q172 -11 131 9.5Q90 30 66 66Q42 102 34 150.5Q26 199 34 255L37 277Q45 334 63.5 382.5Q82 431 112 466.5Q142 502 184.5 521.5Q227 541 283 541Q368 541 413 496Q405 532 391.5 562.5Q378 593 358 620Q343 640 328.5 652Q314 664 298 676L114 577L122 632L254 703Q219 721 180 731.5Q141 742 99 747Z" glyph-name="eth" horiz-adv-x="544" unicode="&#240;" /><glyph d="M104 0H14L26 90H116ZM204 780 108 189H61L119 780Z" glyph-name="exclam" horiz-adv-x="217" unicode="!" /><glyph d="M84 530H174L162 440H72ZM-10 -200 81 341H127L75 -200Z" glyph-name="exclamdown" horiz-adv-x="217" unicode="&#161;" /><glyph d="M117 780H207L195 690H105ZM17 0 114 591H160L102 0Z" glyph-name="exclamdown.cap" horiz-adv-x="217" unicode="&#58433;" /><glyph d="M205 530H353L345 467H197L136 0H66L127 467H43L51 530H135L153 664Q164 744 210 777.5Q256 811 328 811Q356 811 375 806.5Q394 802 400 799L392 739Q385 742 367 745Q349 748 332 748Q286 748 257.5 728Q229 708 221 650Z" glyph-name="f" horiz-adv-x="380" unicode="f" /><glyph d="M342 860H263L272 930H351ZM205 530H353L345 467H197L136 0H66L127 467H43L51 530H135L153 664Q164 744 210 777.5Q256 811 328 811Q356 811 375 806.5Q394 802 400 799L392 739Q385 742 367 745Q349 748 332 748Q286 748 257.5 728Q229 708 221 650Z" glyph-name="fdotaccent" horiz-adv-x="380" unicode="&#7711;" /><glyph d="M570 655H480L492 745H582ZM473 530H543L474 0H404ZM205 530H353L345 467H197L136 0H66L127 467H43L51 530H135L153 664Q164 744 210 777.5Q256 811 328 811Q356 811 375 806.5Q394 802 400 799L392 739Q385 742 367 745Q349 748 332 748Q286 748 257.5 728Q229 708 221 650Z" glyph-name="fi" horiz-adv-x="596" unicode="&#64257;" /><glyph d="M1226 196Q1203 196 1183 183.5Q1163 171 1150 151Q1149 145 1147.5 134.5Q1146 124 1146 112Q1145 80 1159.5 61.5Q1174 43 1203 43H1209Q1236 43 1259 60.5Q1282 78 1287 117L1288 125Q1293 160 1277.5 178Q1262 196 1232 196ZM1356 346Q1315 346 1278.5 332.5Q1242 319 1212 288Q1195 271 1185 253Q1175 235 1168 216Q1182 229 1202 237.5Q1222 246 1248 246Q1270 246 1289.5 238.5Q1309 231 1322.5 216Q1336 201 1342 178Q1348 155 1344 125L1343 117Q1336 60 1300.5 26.5Q1265 -7 1206 -7Q1143 -7 1114 31Q1085 69 1093 138L1094 146Q1101 201 1119.5 242Q1138 283 1171 320Q1210 364 1259.5 380Q1309 396 1362 396ZM783 0 790 49H884L920 319L835 266L813 308L945 391H985L940 49H1035L1028 0ZM329 0 1007 780H1077L399 0ZM397 515Q389 469 405.5 451Q422 433 454 433H460Q487 433 510 450.5Q533 468 538 507L539 515Q544 553 527.5 571.5Q511 590 482 590H476Q421 590 396 548L349 563L388 780H625L619 730H431L410 613Q420 623 440.5 631.5Q461 640 484 640Q541 640 572 610Q603 580 595 515L594 507Q587 450 551.5 416.5Q516 383 457 383Q385 383 358 415.5Q331 448 339 507L340 515ZM34 390 41 439H135L171 709L86 656L64 698L196 781H236L191 439H286L279 390Z" glyph-name="fifteensixteenths" horiz-adv-x="1400" unicode="&#61986;" /><glyph d="M41 382H561L552 318H32Z" glyph-name="figuredash" horiz-adv-x="600" unicode="&#8210;" /><glyph d="M46 422H566L557 358H37Z" glyph-name="figuredash.cap" horiz-adv-x="600" unicode="&#58503;" /><glyph glyph-name="figurespace" horiz-adv-x="600" unicode="&#8199;" /><glyph d="M105 250Q96 199 103.5 162Q111 125 132 100.5Q153 76 186.5 64.5Q220 53 262 53H268Q303 53 335 63.5Q367 74 392.5 96Q418 118 435.5 152.5Q453 187 459 234L460 242Q466 289 456 324.5Q446 360 424.5 383.5Q403 407 371.5 418.5Q340 430 304 430H295Q238 430 189 406Q140 382 111 328L53 347L129 780H592L584 714H183L133 428Q158 457 205 475.5Q252 494 311 494Q364 494 408 477Q452 460 482 428Q512 396 525.5 349Q539 302 532 242L531 234Q523 174 500.5 128Q478 82 443.5 51.5Q409 21 363.5 5Q318 -11 266 -11Q199 -11 151.5 7Q104 25 74.5 57.5Q45 90 34.5 135.5Q24 181 32 236L34 250Z" glyph-name="five" horiz-adv-x="600" unicode="5" /><glyph d="M19 -75Q11 -121 27.5 -139Q44 -157 76 -157H82Q109 -157 132 -139.5Q155 -122 160 -83L161 -75Q166 -37 149.5 -18.5Q133 0 104 0H98Q43 0 18 -42L-29 -27L10 190H247L241 140H53L32 23Q42 33 62.5 41.5Q83 50 106 50Q163 50 194 20Q225 -10 217 -75L216 -83Q209 -140 173.5 -173.5Q138 -207 79 -207Q7 -207 -20 -174.5Q-47 -142 -39 -83L-38 -75Z" glyph-name="five.inf" horiz-adv-x="300" unicode="&#58742;" /><glyph d="M926 196Q903 196 883 183.5Q863 171 850 151Q849 145 847.5 134.5Q846 124 846 112Q845 80 859.5 61.5Q874 43 903 43H909Q936 43 959 60.5Q982 78 987 117L988 125Q993 160 977.5 178Q962 196 932 196ZM1056 346Q1015 346 978.5 332.5Q942 319 912 288Q895 271 885 253Q875 235 868 216Q882 229 902 237.5Q922 246 948 246Q970 246 989.5 238.5Q1009 231 1022.5 216Q1036 201 1042 178Q1048 155 1044 125L1043 117Q1036 60 1000.5 26.5Q965 -7 906 -7Q843 -7 814 31Q785 69 793 138L794 146Q801 201 819.5 242Q838 283 871 320Q910 364 959.5 380Q1009 396 1062 396ZM483 0 490 49H584L620 319L535 266L513 308L645 391H685L640 49H735L728 0ZM29 0 707 780H777L99 0ZM97 515Q89 469 105.5 451Q122 433 154 433H160Q187 433 210 450.5Q233 468 238 507L239 515Q244 553 227.5 571.5Q211 590 182 590H176Q121 590 96 548L49 563L88 780H325L319 730H131L110 613Q120 623 140.5 631.5Q161 640 184 640Q241 640 272 610Q303 580 295 515L294 507Q287 450 251.5 416.5Q216 383 157 383Q85 383 58 415.5Q31 448 39 507L40 515Z" glyph-name="fivesixteenths" horiz-adv-x="1100" unicode="&#61975;" /><glyph d="M509 800H579L474 0H404ZM205 530H353L345 467H197L136 0H66L127 467H43L51 530H135L153 664Q164 744 210 777.5Q256 811 328 811Q356 811 375 806.5Q394 802 400 799L392 739Q385 742 367 745Q349 748 332 748Q286 748 257.5 728Q229 708 221 650Z" glyph-name="fl" horiz-adv-x="596" unicode="&#64258;" /><glyph d="M105 272 191 273H353L391 559L405 661ZM318 0 345 207H11L17 255L422 780H491L424 273H554L544 207H416L389 0Z" glyph-name="four" horiz-adv-x="600" unicode="4" /><glyph d="M21 -57 57 -56H118L133 55L139 97ZM99 -200 112 -105H-50L-45 -65L150 190H206L174 -56H228L221 -105H167L155 -200Z" glyph-name="four.inf" horiz-adv-x="300" unicode="&#58741;" /><glyph glyph-name="fourperemspace" horiz-adv-x="250" unicode="&#8197;" /><glyph d="M-271 0 407 780H477L-201 0Z" glyph-name="fraction" horiz-adv-x="200" unicode="&#8260;" /><glyph d="M405 392Q399 406 388.5 421.5Q378 437 362.5 449.5Q347 462 326 470Q305 478 279 478Q204 478 162.5 432Q121 386 109 299L106 277Q94 190 124.5 140Q155 90 232 90Q283 90 317.5 113Q352 136 375 167ZM365 94Q342 65 303.5 46Q265 27 214 27Q158 27 120.5 46.5Q83 66 61.5 100Q40 134 34 179Q28 224 35 275L38 297Q45 351 62 395.5Q79 440 107 472.5Q135 505 175 523Q215 541 269 541Q299 541 324 532.5Q349 524 368.5 511.5Q388 499 401 483.5Q414 468 421 453L440 530H498L473 380L422 -8Q416 -53 401 -90Q386 -127 358.5 -154Q331 -181 290.5 -196Q250 -211 195 -211Q137 -211 98 -195.5Q59 -180 37 -153Q15 -126 8.5 -90Q2 -54 8 -13L10 0H75Q51 -148 195 -148Q235 -148 263.5 -138.5Q292 -129 310 -111Q328 -93 338 -66Q348 -39 353 -3Z" glyph-name="g" horiz-adv-x="537" unicode="g" /><glyph d="M405 392Q399 406 388.5 421.5Q378 437 362.5 449.5Q347 462 326 470Q305 478 279 478Q204 478 162.5 432Q121 386 109 299L106 277Q94 190 124.5 140Q155 90 232 90Q283 90 317.5 113Q352 136 375 167ZM365 94Q342 65 303.5 46Q265 27 214 27Q158 27 120.5 46.5Q83 66 61.5 100Q40 134 34 179Q28 224 35 275L38 297Q45 351 62 395.5Q79 440 107 472.5Q135 505 175 523Q215 541 269 541Q299 541 324 532.5Q349 524 368.5 511.5Q388 499 401 483.5Q414 468 421 453L440 530H498L473 380L422 -8Q416 -53 401 -90Q386 -127 358.5 -154Q331 -181 290.5 -196Q250 -211 195 -211Q137 -211 98 -195.5Q59 -180 37 -153Q15 -126 8.5 -90Q2 -54 8 -13L10 0H75Q51 -148 195 -148Q235 -148 263.5 -138.5Q292 -129 310 -111Q328 -93 338 -66Q348 -39 353 -3ZM289 603Q246 603 216.5 616Q187 629 169.5 652.5Q152 676 147 708.5Q142 741 147 780H201Q194 725 213.5 691.5Q233 658 289 658Q345 658 374.5 691.5Q404 725 411 780H469Q464 741 451.5 708.5Q439 676 417 652.5Q395 629 363.5 616Q332 603 289 603Z" glyph-name="gbreve" horiz-adv-x="537" unicode="&#287;" /><glyph d="M405 392Q399 406 388.5 421.5Q378 437 362.5 449.5Q347 462 326 470Q305 478 279 478Q204 478 162.5 432Q121 386 109 299L106 277Q94 190 124.5 140Q155 90 232 90Q283 90 317.5 113Q352 136 375 167ZM365 94Q342 65 303.5 46Q265 27 214 27Q158 27 120.5 46.5Q83 66 61.5 100Q40 134 34 179Q28 224 35 275L38 297Q45 351 62 395.5Q79 440 107 472.5Q135 505 175 523Q215 541 269 541Q299 541 324 532.5Q349 524 368.5 511.5Q388 499 401 483.5Q414 468 421 453L440 530H498L473 380L422 -8Q416 -53 401 -90Q386 -127 358.5 -154Q331 -181 290.5 -196Q250 -211 195 -211Q137 -211 98 -195.5Q59 -180 37 -153Q15 -126 8.5 -90Q2 -54 8 -13L10 0H75Q51 -148 195 -148Q235 -148 263.5 -138.5Q292 -129 310 -111Q328 -93 338 -66Q348 -39 353 -3ZM124 614 277 780H339L448 614H382L304 727L197 614Z" glyph-name="gcircumflex" horiz-adv-x="537" unicode="&#285;" /><glyph d="M252 666Q268 791 374 791L369 755Q338 755 318.5 740Q299 725 291 684H336L326 614H245ZM405 392Q399 406 388.5 421.5Q378 437 362.5 449.5Q347 462 326 470Q305 478 279 478Q204 478 162.5 432Q121 386 109 299L106 277Q94 190 124.5 140Q155 90 232 90Q283 90 317.5 113Q352 136 375 167ZM365 94Q342 65 303.5 46Q265 27 214 27Q158 27 120.5 46.5Q83 66 61.5 100Q40 134 34 179Q28 224 35 275L38 297Q45 351 62 395.5Q79 440 107 472.5Q135 505 175 523Q215 541 269 541Q299 541 324 532.5Q349 524 368.5 511.5Q388 499 401 483.5Q414 468 421 453L440 530H498L473 380L422 -8Q416 -53 401 -90Q386 -127 358.5 -154Q331 -181 290.5 -196Q250 -211 195 -211Q137 -211 98 -195.5Q59 -180 37 -153Q15 -126 8.5 -90Q2 -54 8 -13L10 0H75Q51 -148 195 -148Q235 -148 263.5 -138.5Q292 -129 310 -111Q328 -93 338 -66Q348 -39 353 -3Z" glyph-name="gcommaaccent" horiz-adv-x="537" unicode="&#291;" /><glyph d="M405 392Q399 406 388.5 421.5Q378 437 362.5 449.5Q347 462 326 470Q305 478 279 478Q204 478 162.5 432Q121 386 109 299L106 277Q94 190 124.5 140Q155 90 232 90Q283 90 317.5 113Q352 136 375 167ZM365 94Q342 65 303.5 46Q265 27 214 27Q158 27 120.5 46.5Q83 66 61.5 100Q40 134 34 179Q28 224 35 275L38 297Q45 351 62 395.5Q79 440 107 472.5Q135 505 175 523Q215 541 269 541Q299 541 324 532.5Q349 524 368.5 511.5Q388 499 401 483.5Q414 468 421 453L440 530H498L473 380L422 -8Q416 -53 401 -90Q386 -127 358.5 -154Q331 -181 290.5 -196Q250 -211 195 -211Q137 -211 98 -195.5Q59 -180 37 -153Q15 -126 8.5 -90Q2 -54 8 -13L10 0H75Q51 -148 195 -148Q235 -148 263.5 -138.5Q292 -129 310 -111Q328 -93 338 -66Q348 -39 353 -3ZM336 655H246L258 745H348Z" glyph-name="gdotaccent" horiz-adv-x="537" unicode="&#289;" /><glyph d="M321 52Q355 52 379 62.5Q403 73 418 90.5Q433 108 439.5 130Q446 152 446 176Q446 195 440 211.5Q434 228 420 244Q406 260 384 278Q362 296 331 319L261 370L267 415Q312 438 344 461Q376 484 397 510Q418 536 427.5 566Q437 596 437 633Q437 685 410 715.5Q383 746 320 746Q248 746 211 709Q174 672 165 604L86 0H16L96 609Q108 702 163 756.5Q218 811 320 811Q375 811 413.5 796Q452 781 474.5 754Q497 727 504.5 690Q512 653 506 609L505 601Q497 536 460 487.5Q423 439 348 394L389 364Q424 338 449.5 315Q475 292 491 269Q507 246 513 220.5Q519 195 515 164L514 156Q510 126 499 96.5Q488 67 465.5 43Q443 19 407.5 4Q372 -11 320 -11Q269 -11 236.5 2Q204 15 187 37Q170 59 165.5 88Q161 117 166 149L168 162H234Q231 138 231 118Q231 98 239.5 83.5Q248 69 267 60.5Q286 52 321 52Z" glyph-name="germandbls" horiz-adv-x="571" unicode="&#223;" /><glyph d="M249 780 317 614H245L173 780Z" glyph-name="grave" horiz-adv-x="500" unicode="`" /><glyph d="M302 950 347 840H275L228 950Z" glyph-name="grave.cap" horiz-adv-x="500" unicode="&#58401;" /><glyph d="M12 120 22 195 479 393 74 592 83 660 557 425 548 355Z" glyph-name="greater" horiz-adv-x="600" unicode="&gt;" /><glyph d="M462 458 75 596 85 667 566 493 557 423 29 249 39 322ZM21 179 549 353 540 287 12 113Z" glyph-name="greaterequal" horiz-adv-x="600" unicode="&#8805;" /><glyph d="M477 451 313 338 447 224 438 157 254 310 262 372 486 524ZM264 451 100 338 234 224 225 157 41 310 49 372 273 524Z" glyph-name="guillemotleft" horiz-adv-x="517" unicode="&#171;" /><glyph d="M483 501 319 388 453 274 444 207 260 360 268 422 492 574ZM271 501 107 388 241 274 232 207 48 360 56 422 280 574Z" glyph-name="guillemotleft.cap" horiz-adv-x="517" unicode="&#58451;" /><glyph d="M243 230 407 343 273 457 282 524 466 371 458 309 234 157ZM30 230 194 343 60 457 69 524 253 371 245 309 21 157Z" glyph-name="guillemotright" horiz-adv-x="517" unicode="&#187;" /><glyph d="M37 280 201 393 67 507 76 574 260 421 252 359 28 207ZM249 280 413 393 279 507 288 574 472 421 464 359 240 207Z" glyph-name="guillemotright.cap" horiz-adv-x="517" unicode="&#58452;" /><glyph d="M264 451 100 338 234 224 225 157 41 310 49 372 273 524Z" glyph-name="guilsinglleft" horiz-adv-x="304" unicode="&#8249;" /><glyph d="M271 501 107 388 241 274 232 207 48 360 56 422 280 574Z" glyph-name="guilsinglleft.cap" horiz-adv-x="304" unicode="&#58449;" /><glyph d="M30 230 194 343 60 457 69 524 253 371 245 309 21 157Z" glyph-name="guilsinglright" horiz-adv-x="304" unicode="&#8250;" /><glyph d="M37 280 201 393 67 507 76 574 260 421 252 359 28 207Z" glyph-name="guilsinglright.cap" horiz-adv-x="304" unicode="&#58450;" /><glyph d="M147 465Q172 497 214.5 519Q257 541 314 541Q400 541 437.5 493.5Q475 446 465 371L416 0H346L394 361Q402 421 374.5 449.5Q347 478 290 478Q261 478 237 470Q213 462 194 449.5Q175 437 161 422.5Q147 408 138 395L86 0H16L121 800H191Z" glyph-name="h" horiz-adv-x="528" unicode="h" /><glyph glyph-name="hairspace" horiz-adv-x="50" unicode="&#8202;" /><glyph d="M169 633 147 465Q172 497 214.5 519Q257 541 314 541Q400 541 437.5 493.5Q475 446 465 371L416 0H346L394 361Q402 421 374.5 449.5Q347 478 290 478Q261 478 237 470Q213 462 194 449.5Q175 437 161 422.5Q147 408 138 395L86 0H16L99 633H7L16 697H107L121 800H191L177 697H312L303 633Z" glyph-name="hbar" horiz-adv-x="528" unicode="&#295;" /><glyph d="M233 840 176 909 98 840H24L145 950H209L300 840ZM147 465Q172 497 214.5 519Q257 541 314 541Q400 541 437.5 493.5Q475 446 465 371L416 0H346L394 361Q402 421 374.5 449.5Q347 478 290 478Q261 478 237 470Q213 462 194 449.5Q175 437 161 422.5Q147 408 138 395L86 0H16L121 800H191Z" glyph-name="hcircumflex" horiz-adv-x="528" unicode="&#293;" /><glyph d="M449 -10Q437 9 414 40Q391 71 360 110Q329 149 292.5 193.5Q256 238 216 283Q190 312 161 348Q132 384 108 423.5Q84 463 68 504Q52 545 52 584Q52 628 65 666Q78 704 103 731.5Q128 759 163.5 774.5Q199 790 243 790Q289 790 323 777Q357 764 381 742.5Q405 721 421 692.5Q437 664 448 633H452Q463 664 479 692.5Q495 721 519 742.5Q543 764 576.5 777Q610 790 657 790Q701 790 736.5 774.5Q772 759 796.5 731.5Q821 704 834.5 666Q848 628 848 584Q848 545 832 504Q816 463 792 423.5Q768 384 739 348Q710 312 684 283Q644 238 607.5 193.5Q571 149 540 110Q509 71 486 40Q463 9 451 -10Z" glyph-name="heart" horiz-adv-x="900" unicode="&#9829;" /><glyph d="M70 0V450L425 790L780 450V0Z" glyph-name="house" horiz-adv-x="850" unicode="&#8962;" /><glyph d="M361 780 251 614H188L294 780ZM491 780 374 614H311L423 780Z" glyph-name="hungarumlaut" horiz-adv-x="500" unicode="&#733;" /><glyph d="M485 950 407 840H340L415 950ZM358 950 282 840H215L288 950Z" glyph-name="hungarumlaut.cap" horiz-adv-x="500" unicode="&#58411;" /><glyph d="M32 318 41 382H289L280 318Z" glyph-name="hyphen" horiz-adv-x="329" unicode="-" /><glyph d="M37 358 46 422H294L285 358Z" glyph-name="hyphen.cap" horiz-adv-x="329" unicode="&#58498;" /><glyph d="M190 655H100L112 745H202ZM93 530H163L94 0H24Z" glyph-name="i" horiz-adv-x="216" unicode="i" /><glyph d="M93 530H163L94 0H24ZM291 780 175 614H103L215 780Z" glyph-name="iacute" horiz-adv-x="216" unicode="&#237;" /><glyph d="M93 530H163L94 0H24ZM142 603Q99 603 69.5 616Q40 629 22.5 652.5Q5 676 0 708.5Q-5 741 0 780H54Q47 725 66.5 691.5Q86 658 142 658Q198 658 227.5 691.5Q257 725 264 780H322Q317 741 304.5 708.5Q292 676 270 652.5Q248 629 216.5 616Q185 603 142 603Z" glyph-name="ibreve" horiz-adv-x="216" unicode="&#301;" /><glyph d="M93 530H163L94 0H24ZM-23 614 130 780H192L301 614H235L157 727L50 614Z" glyph-name="icircumflex" horiz-adv-x="216" unicode="&#238;" /><glyph d="M93 530H163L94 0H24ZM273 655H183L195 745H285ZM106 655H16L28 745H118Z" glyph-name="idieresis" horiz-adv-x="216" unicode="&#239;" /><glyph d="M190 655H100L112 745H202ZM93 530H163L94 0H24Z" glyph-name="idotaccent" horiz-adv-x="216" unicode="&#59269;" /><glyph d="M93 530H163L94 0H24ZM107 780 175 614H103L31 780Z" glyph-name="igrave" horiz-adv-x="216" unicode="&#236;" /><glyph d="M357 655H267L279 745H369ZM260 530H330L253 -63Q242 -143 196.5 -177Q151 -211 79 -211Q51 -211 32 -206.5Q13 -202 7 -199L15 -138Q22 -141 40 -144.5Q58 -148 75 -148Q121 -148 149 -127.5Q177 -107 185 -49ZM190 655H100L112 745H202ZM93 530H163L94 0H24Z" glyph-name="ij" horiz-adv-x="383" unicode="&#307;" /><glyph d="M93 530H163L94 0H24ZM38 730H271L263 664H29Z" glyph-name="imacron" horiz-adv-x="216" unicode="&#299;" /><glyph d="M222 0H132L144 90H234ZM383 613Q383 659 365.5 687Q348 715 308 723L250 361Q272 391 295.5 418Q319 445 338.5 473.5Q358 502 370.5 535.5Q383 569 383 613ZM179 189 231 721Q203 713 183.5 694.5Q164 676 150 648Q136 620 127.5 583.5Q119 547 114 504H43L45 518Q54 582 69.5 632.5Q85 683 111.5 718Q138 753 177.5 772Q217 791 275 791Q372 791 414.5 744.5Q457 698 457 618Q457 562 442.5 523Q428 484 405 454Q382 424 354.5 398.5Q327 373 301.5 344Q276 315 255.5 278.5Q235 242 226 189Z" glyph-name="interrobang" horiz-adv-x="455" unicode="&#8253;" /><glyph d="M205 530H295L283 440H193ZM46 -45Q46 -87 64.5 -111.5Q83 -136 124 -143L178 177Q157 150 133.5 126.5Q110 103 90.5 78Q71 53 58.5 23.5Q46 -6 46 -45ZM248 341 202 -139Q252 -124 278.5 -74.5Q305 -25 315 60H387L385 46Q376 -17 359.5 -65.5Q343 -114 315.5 -146Q288 -178 248.5 -194.5Q209 -211 154 -211Q105 -211 70.5 -199.5Q36 -188 14.5 -166.5Q-7 -145 -17 -115.5Q-27 -86 -27 -50Q-27 5 -12.5 41Q2 77 24.5 103.5Q47 130 74 151Q101 172 126.5 197.5Q152 223 172 256.5Q192 290 201 341Z" glyph-name="interrobangdown" horiz-adv-x="455" unicode="&#59701;" /><glyph d="M236 780H326L314 690H224ZM75 167Q75 120 92 92.5Q109 65 149 57L208 419Q186 389 162.5 362Q139 335 119.5 306.5Q100 278 87.5 244.5Q75 211 75 167ZM279 591 227 59Q282 75 307.5 132Q333 189 344 276H415L413 262Q404 198 388.5 147.5Q373 97 346.5 61.5Q320 26 280.5 7.5Q241 -11 183 -11Q85 -11 43 35.5Q1 82 1 162Q1 218 15.5 257Q30 296 53 326Q76 356 103.5 381.5Q131 407 156.5 436Q182 465 202.5 501.5Q223 538 232 591Z" glyph-name="interrobangdown.cap" horiz-adv-x="455" unicode="&#59803;" /><glyph d="M300 791Q343 791 372.5 778Q402 765 419.5 741.5Q437 718 442 685.5Q447 653 442 614H388Q395 669 375.5 702.5Q356 736 300 736Q244 736 214.5 702.5Q185 669 178 614H120Q125 653 137.5 685.5Q150 718 172 741.5Q194 765 225.5 778Q257 791 300 791Z" glyph-name="invertedbreve" horiz-adv-x="500" unicode="&#58385;" /><glyph d="M326 961Q401 961 432 926.5Q463 892 456 840H403Q408 873 389 894Q370 915 323 915Q276 915 252 894Q228 873 223 840H166Q173 892 211.5 926.5Q250 961 326 961Z" glyph-name="invertedbreve.cap" horiz-adv-x="500" unicode="&#58407;" /><glyph d="M190 655H100L112 745H202ZM94 0Q77 -7 59.5 -17.5Q42 -28 27.5 -42Q13 -56 3.5 -74Q-6 -92 -6 -113Q-6 -136 10 -147Q26 -158 53 -158Q85 -158 111 -145L123 -191Q106 -201 82.5 -206Q59 -211 38 -211Q-9 -211 -36 -191Q-63 -171 -63 -129Q-63 -81 -37 -47Q-11 -13 25 9L93 530H163Z" glyph-name="iogonek" horiz-adv-x="216" unicode="&#303;" /><glyph d="M93 530H163L94 0H24ZM313 746Q305 692 279.5 667.5Q254 643 218 643Q196 643 178 652Q160 661 144 672Q128 683 113.5 692Q99 701 83 701Q68 701 56.5 690.5Q45 680 42 654H-11Q-4 708 21.5 732.5Q47 757 83 757Q105 757 123 748Q141 739 157 728Q173 717 187.5 708Q202 699 218 699Q233 699 244.5 709.5Q256 720 260 746Z" glyph-name="itilde" horiz-adv-x="216" unicode="&#297;" /><glyph d="M190 655H100L112 745H202ZM93 530H163L86 -63Q75 -143 29.5 -177Q-16 -211 -88 -211Q-116 -211 -135 -206.5Q-154 -202 -160 -199L-152 -138Q-145 -141 -127 -144.5Q-109 -148 -92 -148Q-46 -148 -18 -127.5Q10 -107 18 -49Z" glyph-name="j" horiz-adv-x="216" unicode="j" /><glyph d="M93 530H163L86 -63Q75 -143 29.5 -177Q-16 -211 -88 -211Q-116 -211 -135 -206.5Q-154 -202 -160 -199L-152 -138Q-145 -141 -127 -144.5Q-109 -148 -92 -148Q-46 -148 -18 -127.5Q10 -107 18 -49ZM-23 614 130 780H192L301 614H235L157 727L50 614Z" glyph-name="jcircumflex" horiz-adv-x="216" unicode="&#309;" /><glyph d="M121 800H191L119 254L405 530H494L285 330L425 0H349L232 280L106 158L86 0H16Z" glyph-name="k" horiz-adv-x="501" unicode="k" /><glyph d="M232 -107Q225 -159 194.5 -186.5Q164 -214 113 -214L118 -178Q144 -178 163.5 -165.5Q183 -153 191 -124H149L158 -56H239ZM121 800H191L119 254L405 530H494L285 330L425 0H349L232 280L106 158L86 0H16Z" glyph-name="kcommaaccent" horiz-adv-x="501" unicode="&#311;" /><glyph d="M155 530 119 254 405 530H494L285 330L425 0H349L232 280L106 158L86 0H16L85 530Z" glyph-name="kgreenlandic" horiz-adv-x="501" unicode="&#312;" /><glyph d="M129 800H199L94 0H24Z" glyph-name="l" horiz-adv-x="216" unicode="l" /><glyph d="M282 950 205 840H133L208 950ZM129 800H199L94 0H24Z" glyph-name="lacute" horiz-adv-x="217" unicode="&#314;" /><glyph d="M330 800 288 614H248L273 800ZM129 800H199L94 0H24Z" glyph-name="lcaron" horiz-adv-x="217" unicode="&#318;" /><glyph d="M86 -107Q79 -159 48.5 -186.5Q18 -214 -33 -214L-28 -178Q-2 -178 17.5 -165.5Q37 -153 45 -124H3L12 -56H93ZM129 800H199L94 0H24Z" glyph-name="lcommaaccent" horiz-adv-x="217" unicode="&#316;" /><glyph d="M312 305H222L234 395H324ZM129 800H199L94 0H24Z" glyph-name="ldot" horiz-adv-x="335" unicode="&#320;" /><glyph d="M589 660 579 585 122 387 527 188 518 120 44 355 53 425Z" glyph-name="less" horiz-adv-x="600" unicode="&lt;" /><glyph d="M517 113 35 287 43 348 525 174ZM157 455 544 317 534 249 53 423 62 493 590 667 580 591Z" glyph-name="lessequal" horiz-adv-x="600" unicode="&#8804;" /><glyph d="M72 557H575L530 213H462L499 491H63Z" glyph-name="logicalnot" horiz-adv-x="600" unicode="&#172;" /><glyph d="M8 64H232L223 0H-1Z" glyph-name="lowline" horiz-adv-x="320" unicode="&#58641;" /><glyph d="M26 332 129 403 181 800H251L206 456L329 541L320 471L196 384L146 0H76L120 333L17 262Z" glyph-name="lslash" horiz-adv-x="329" unicode="&#322;" /><glyph d="M626 0 675 374Q683 432 657 455Q631 478 583 478Q559 478 537.5 470.5Q516 463 498 451Q480 439 466 425Q452 411 443 398L391 0H321L370 374Q378 432 352 455Q326 478 278 478Q254 478 232.5 470.5Q211 463 193 451Q175 439 161 425Q147 411 138 398L86 0H16L67 386L80 530H140V459Q165 492 206 516.5Q247 541 302 541Q362 541 395 516.5Q428 492 438 453Q466 489 508.5 515Q551 541 607 541Q678 541 717 501Q756 461 746 384L696 0Z" glyph-name="m" horiz-adv-x="805" unicode="m" /><glyph d="M180 730H413L405 664H171Z" glyph-name="macron" horiz-adv-x="500" unicode="&#175;" /><glyph d="M209 922H435L428 868H202Z" glyph-name="macron.cap" horiz-adv-x="500" unicode="&#58405;" /><glyph d="M487 655H397L409 745H499ZM626 0 675 374Q683 432 657 455Q631 478 583 478Q559 478 537.5 470.5Q516 463 498 451Q480 439 466 425Q452 411 443 398L391 0H321L370 374Q378 432 352 455Q326 478 278 478Q254 478 232.5 470.5Q211 463 193 451Q175 439 161 425Q147 411 138 398L86 0H16L67 386L80 530H140V459Q165 492 206 516.5Q247 541 302 541Q362 541 395 516.5Q428 492 438 453Q466 489 508.5 515Q551 541 607 541Q678 541 717 501Q756 461 746 384L696 0Z" glyph-name="mdotaccent" horiz-adv-x="805" unicode="&#7745;" /><glyph d="M59 265Q59 322 80.5 372Q102 422 139.5 459.5Q177 497 227.5 519Q278 541 335 541Q392 541 442 519Q492 497 529.5 459.5Q567 422 589 372Q611 322 611 265Q611 208 589 157.5Q567 107 529.5 69.5Q492 32 442 10.5Q392 -11 335 -11Q278 -11 227.5 10.5Q177 32 139.5 69.5Q102 107 80.5 157.5Q59 208 59 265Z" glyph-name="mediumblackcircle" horiz-adv-x="670" unicode="&#9899;" /><glyph d="M124 265Q124 221 140.5 182.5Q157 144 185.5 115.5Q214 87 252.5 70.5Q291 54 335 54Q379 54 417.5 70.5Q456 87 484.5 115.5Q513 144 529.5 182.5Q546 221 546 265Q546 309 529.5 347.5Q513 386 484.5 414.5Q456 443 417.5 459.5Q379 476 335 476Q291 476 252.5 459.5Q214 443 185.5 414.5Q157 386 140.5 347.5Q124 309 124 265ZM59 265Q59 322 80.5 372Q102 422 139.5 459.5Q177 497 227.5 519Q278 541 335 541Q392 541 442 519Q492 497 529.5 459.5Q567 422 589 372Q611 322 611 265Q611 208 589 157.5Q567 107 529.5 69.5Q492 32 442 10.5Q392 -11 335 -11Q278 -11 227.5 10.5Q177 32 139.5 69.5Q102 107 80.5 157.5Q59 208 59 265Z" glyph-name="mediumwhitecircle" horiz-adv-x="670" unicode="&#9898;" /><glyph d="M53 423H558L549 357H44Z" glyph-name="minus" horiz-adv-x="600" unicode="&#8722;" /><glyph d="M-24 20H231L223 -31H-32Z" glyph-name="minus.inf" horiz-adv-x="300" unicode="&#58748;" /><glyph d="M8 173 254 390 66 607 119 654 308 438 552 654 594 607 349 390 537 173 483 126 295 342 49 126Z" glyph-name="multiply" horiz-adv-x="600" unicode="&#215;" /><glyph d="M346 0 394 361Q402 421 374.5 449.5Q347 478 290 478Q261 478 237 470Q213 462 194 449.5Q175 437 161 422.5Q147 408 138 395L86 0H16L67 386L80 530H140V456Q168 494 212 517.5Q256 541 314 541Q400 541 437.5 493.5Q475 446 465 371L416 0Z" glyph-name="n" horiz-adv-x="528" unicode="n" /><glyph d="M346 0 394 361Q402 421 374.5 449.5Q347 478 290 478Q261 478 237 470Q213 462 194 449.5Q175 437 161 422.5Q147 408 138 395L86 0H16L67 386L80 530H140V456Q168 494 212 517.5Q256 541 314 541Q400 541 437.5 493.5Q475 446 465 371L416 0ZM450 780 334 614H262L374 780Z" glyph-name="nacute" horiz-adv-x="528" unicode="&#324;" /><glyph d="M346 0 394 361Q402 421 374.5 449.5Q347 478 290 478Q261 478 237 470Q213 462 194 449.5Q175 437 161 422.5Q147 408 138 395L86 0H16L67 386L80 530H140V456Q168 494 212 517.5Q256 541 314 541Q400 541 437.5 493.5Q475 446 465 371L416 0ZM224 780 302 667 409 780H482L329 614H267L158 780Z" glyph-name="ncaron" horiz-adv-x="528" unicode="&#328;" /><glyph d="M346 0 394 361Q402 421 374.5 449.5Q347 478 290 478Q261 478 237 470Q213 462 194 449.5Q175 437 161 422.5Q147 408 138 395L86 0H16L67 386L80 530H140V456Q168 494 212 517.5Q256 541 314 541Q400 541 437.5 493.5Q475 446 465 371L416 0ZM244 -107Q237 -159 206.5 -186.5Q176 -214 125 -214L130 -178Q156 -178 175.5 -165.5Q195 -153 203 -124H161L170 -56H251Z" glyph-name="ncommaaccent" horiz-adv-x="528" unicode="&#326;" /><glyph d="M297 355Q357 355 404.5 384Q452 413 483 461Q484 467 486 475Q488 482 489 492Q490 502 492 514Q499 570 489.5 610Q480 650 458 675.5Q436 701 404.5 713Q373 725 337 725H331Q251 725 202 679Q153 633 142 547L141 539Q136 495 144.5 461Q153 427 173 403.5Q193 380 223 367.5Q253 355 292 355ZM41 55Q80 59 119 66.5Q158 74 197 88Q236 102 274 125Q312 148 350 183Q395 225 423.5 275.5Q452 326 465 372Q451 355 430.5 340Q410 325 386 314Q362 303 335.5 296.5Q309 290 284 290Q230 290 186.5 305.5Q143 321 114.5 352Q86 383 73 429Q60 475 68 537L69 545Q76 606 99 652.5Q122 699 156.5 729.5Q191 760 236.5 775.5Q282 791 335 791Q393 791 439.5 771.5Q486 752 516.5 715Q547 678 559.5 625Q572 572 563 505L561 491Q555 448 543.5 402Q532 356 513 310Q494 264 466.5 220.5Q439 177 402 140Q358 96 313 68.5Q268 41 221.5 24Q175 7 127.5 -0.5Q80 -8 32 -11Z" glyph-name="nine" horiz-adv-x="600" unicode="9" /><glyph d="M99 -7Q122 -7 142 5.5Q162 18 175 38Q176 44 177.5 54.5Q179 65 179 77Q180 109 165.5 127.5Q151 146 122 146H116Q89 146 66 128.5Q43 111 38 72L37 64Q32 29 47.5 11Q63 -7 93 -7ZM-33 -157Q8 -157 45.5 -143.5Q83 -130 113 -99Q130 -82 140 -64Q150 -46 157 -27Q143 -40 123 -48.5Q103 -57 77 -57Q54 -57 35 -49.5Q16 -42 2.5 -27Q-11 -12 -17 11Q-23 34 -19 64L-18 72Q-11 129 24.5 162.5Q60 196 119 196Q182 196 211 158Q240 120 232 51L231 43Q224 -12 205.5 -53Q187 -94 154 -131Q115 -175 64.5 -191Q14 -207 -39 -207Z" glyph-name="nine.inf" horiz-adv-x="300" unicode="&#58746;" /><glyph d="M926 196Q903 196 883 183.5Q863 171 850 151Q849 145 847.5 134.5Q846 124 846 112Q845 80 859.5 61.5Q874 43 903 43H909Q936 43 959 60.5Q982 78 987 117L988 125Q993 160 977.5 178Q962 196 932 196ZM1056 346Q1015 346 978.5 332.5Q942 319 912 288Q895 271 885 253Q875 235 868 216Q882 229 902 237.5Q922 246 948 246Q970 246 989.5 238.5Q1009 231 1022.5 216Q1036 201 1042 178Q1048 155 1044 125L1043 117Q1036 60 1000.5 26.5Q965 -7 906 -7Q843 -7 814 31Q785 69 793 138L794 146Q801 201 819.5 242Q838 283 871 320Q910 364 959.5 380Q1009 396 1062 396ZM483 0 490 49H584L620 319L535 266L513 308L645 391H685L640 49H735L728 0ZM29 0 707 780H777L99 0ZM177 583Q200 583 220 595.5Q240 608 253 628Q254 634 255.5 644.5Q257 655 257 667Q258 699 243.5 717.5Q229 736 200 736H194Q167 736 144 718.5Q121 701 116 662L115 654Q110 619 125.5 601Q141 583 171 583ZM45 433Q86 433 123.5 446.5Q161 460 191 491Q208 508 218 526Q228 544 235 563Q221 550 201 541.5Q181 533 155 533Q132 533 113 540.5Q94 548 80.5 563Q67 578 61 601Q55 624 59 654L60 662Q67 719 102.5 752.5Q138 786 197 786Q260 786 289 748Q318 710 310 641L309 633Q302 578 283.5 537Q265 496 232 459Q193 415 142.5 399Q92 383 39 383Z" glyph-name="ninesixteenths" horiz-adv-x="1100" unicode="&#61977;" /><glyph glyph-name="nonbreakingspace" horiz-adv-x="200" unicode="&#160;" /><glyph d="M68 525H363L454 649H526L436 525H573L564 459H388L287 321H543L534 255H239L148 131H76L166 255H29L38 321H214L315 459H59Z" glyph-name="notequal" horiz-adv-x="600" unicode="&#8800;" /><glyph d="M346 0 394 361Q402 421 374.5 449.5Q347 478 290 478Q261 478 237 470Q213 462 194 449.5Q175 437 161 422.5Q147 408 138 395L86 0H16L67 386L80 530H140V456Q168 494 212 517.5Q256 541 314 541Q400 541 437.5 493.5Q475 446 465 371L416 0ZM472 746Q464 692 438.5 667.5Q413 643 377 643Q355 643 337 652Q319 661 303 672Q287 683 272.5 692Q258 701 242 701Q227 701 215.5 690.5Q204 680 201 654H148Q155 708 180.5 732.5Q206 757 242 757Q264 757 282 748Q300 739 316 728Q332 717 346.5 708Q361 699 377 699Q392 699 403.5 709.5Q415 720 419 746Z" glyph-name="ntilde" horiz-adv-x="528" unicode="&#241;" /><glyph d="M201 301H339L402 479H264ZM315 235H177L94 0H26L109 235H15L23 301H133L196 479H104L113 545H219L303 780H371L287 545H425L509 780H577L493 545H588L580 479H470L407 301H499L490 235H383L300 0H232Z" glyph-name="numbersign" horiz-adv-x="600" unicode="#" /><glyph d="M727 591Q741 685 788 738Q835 791 913 791Q961 791 993.5 776.5Q1026 762 1044 736Q1062 710 1067 673.5Q1072 637 1065 592L1063 579Q1049 485 1002 432Q955 379 877 379Q829 379 796.5 393.5Q764 408 746 434Q728 460 723 496.5Q718 533 725 578ZM693 269H1016L1008 212H685ZM789 578Q778 511 799.5 473Q821 435 879 435Q931 435 959.5 470.5Q988 506 999 579L1001 592Q1012 659 990.5 697Q969 735 911 735Q859 735 830.5 699.5Q802 664 791 591ZM536 0H460L178 658L157 475L95 0H25L127 780H203L485 122L506 305L568 780H638Z" glyph-name="numero" horiz-adv-x="1077" unicode="&#8470;" /><glyph d="M232 -11Q172 -11 131 9.5Q90 30 66 66Q42 102 34 150.5Q26 199 34 255L37 277Q45 334 63.5 382.5Q82 431 112 466.5Q142 502 184.5 521.5Q227 541 283 541Q343 541 384 520.5Q425 500 449.5 464Q474 428 481.5 379.5Q489 331 482 275L479 253Q471 196 452.5 147.5Q434 99 404 63.5Q374 28 331 8.5Q288 -11 232 -11ZM232 52Q307 52 351 104.5Q395 157 408 251L411 273Q424 368 393 423Q362 478 283 478Q208 478 164.5 425.5Q121 373 108 279L105 257Q92 162 122.5 107Q153 52 232 52Z" glyph-name="o" horiz-adv-x="544" unicode="o" /><glyph d="M232 -11Q172 -11 131 9.5Q90 30 66 66Q42 102 34 150.5Q26 199 34 255L37 277Q45 334 63.5 382.5Q82 431 112 466.5Q142 502 184.5 521.5Q227 541 283 541Q343 541 384 520.5Q425 500 449.5 464Q474 428 481.5 379.5Q489 331 482 275L479 253Q471 196 452.5 147.5Q434 99 404 63.5Q374 28 331 8.5Q288 -11 232 -11ZM232 52Q307 52 351 104.5Q395 157 408 251L411 273Q424 368 393 423Q362 478 283 478Q208 478 164.5 425.5Q121 373 108 279L105 257Q92 162 122.5 107Q153 52 232 52ZM455 780 339 614H267L379 780Z" glyph-name="oacute" horiz-adv-x="544" unicode="&#243;" /><glyph d="M232 -11Q172 -11 131 9.5Q90 30 66 66Q42 102 34 150.5Q26 199 34 255L37 277Q45 334 63.5 382.5Q82 431 112 466.5Q142 502 184.5 521.5Q227 541 283 541Q343 541 384 520.5Q425 500 449.5 464Q474 428 481.5 379.5Q489 331 482 275L479 253Q471 196 452.5 147.5Q434 99 404 63.5Q374 28 331 8.5Q288 -11 232 -11ZM232 52Q307 52 351 104.5Q395 157 408 251L411 273Q424 368 393 423Q362 478 283 478Q208 478 164.5 425.5Q121 373 108 279L105 257Q92 162 122.5 107Q153 52 232 52ZM306 603Q263 603 233.5 616Q204 629 186.5 652.5Q169 676 164 708.5Q159 741 164 780H218Q211 725 230.5 691.5Q250 658 306 658Q362 658 391.5 691.5Q421 725 428 780H486Q481 741 468.5 708.5Q456 676 434 652.5Q412 629 380.5 616Q349 603 306 603Z" glyph-name="obreve" horiz-adv-x="544" unicode="&#335;" /><glyph d="M232 -11Q172 -11 131 9.5Q90 30 66 66Q42 102 34 150.5Q26 199 34 255L37 277Q45 334 63.5 382.5Q82 431 112 466.5Q142 502 184.5 521.5Q227 541 283 541Q343 541 384 520.5Q425 500 449.5 464Q474 428 481.5 379.5Q489 331 482 275L479 253Q471 196 452.5 147.5Q434 99 404 63.5Q374 28 331 8.5Q288 -11 232 -11ZM232 52Q307 52 351 104.5Q395 157 408 251L411 273Q424 368 393 423Q362 478 283 478Q208 478 164.5 425.5Q121 373 108 279L105 257Q92 162 122.5 107Q153 52 232 52ZM141 614 294 780H356L465 614H399L321 727L214 614Z" glyph-name="ocircumflex" horiz-adv-x="544" unicode="&#244;" /><glyph d="M232 -11Q172 -11 131 9.5Q90 30 66 66Q42 102 34 150.5Q26 199 34 255L37 277Q45 334 63.5 382.5Q82 431 112 466.5Q142 502 184.5 521.5Q227 541 283 541Q343 541 384 520.5Q425 500 449.5 464Q474 428 481.5 379.5Q489 331 482 275L479 253Q471 196 452.5 147.5Q434 99 404 63.5Q374 28 331 8.5Q288 -11 232 -11ZM232 52Q307 52 351 104.5Q395 157 408 251L411 273Q424 368 393 423Q362 478 283 478Q208 478 164.5 425.5Q121 373 108 279L105 257Q92 162 122.5 107Q153 52 232 52ZM437 655H347L359 745H449ZM270 655H180L192 745H282Z" glyph-name="odieresis" horiz-adv-x="544" unicode="&#246;" /><glyph d="M664 478Q628 478 597.5 464.5Q567 451 544 426.5Q521 402 506 368Q491 334 485 294H789Q801 382 771 430Q741 478 664 478ZM232 52Q307 52 351 104.5Q395 157 408 251L411 273Q424 368 393 423Q362 478 283 478Q208 478 164.5 425.5Q121 373 108 279L105 257Q92 162 122.5 107Q153 52 232 52ZM478 236Q469 150 501.5 101Q534 52 620 52Q660 52 688 62.5Q716 73 734.5 89.5Q753 106 763 127.5Q773 149 776 170H843L841 157Q836 128 820.5 98Q805 68 777.5 44Q750 20 710 4.5Q670 -11 618 -11Q535 -11 489 21Q443 53 426 106Q398 52 351 20.5Q304 -11 232 -11Q172 -11 131 9.5Q90 30 66 66Q42 102 34 150.5Q26 199 34 255L37 277Q45 334 63.5 382.5Q82 431 112 466.5Q142 502 184.5 521.5Q227 541 283 541Q359 541 403 508Q447 475 464 420Q493 476 542 508.5Q591 541 664 541Q724 541 764.5 521Q805 501 828 466Q851 431 857.5 382Q864 333 857 275L852 236Z" glyph-name="oe" horiz-adv-x="888" unicode="&#339;" /><glyph d="M234 0Q217 -7 199.5 -17.5Q182 -28 167.5 -42Q153 -56 143.5 -74Q134 -92 134 -113Q134 -136 150 -147Q166 -158 193 -158Q225 -158 251 -145L263 -191Q246 -201 222.5 -206Q199 -211 178 -211Q131 -211 104 -191Q77 -171 77 -129Q77 -96 90 -69.5Q103 -43 123.5 -22.5Q144 -2 170 12.5Q196 27 222 37Z" glyph-name="ogonek" horiz-adv-x="602" unicode="&#731;" /><glyph d="M232 -11Q172 -11 131 9.5Q90 30 66 66Q42 102 34 150.5Q26 199 34 255L37 277Q45 334 63.5 382.5Q82 431 112 466.5Q142 502 184.5 521.5Q227 541 283 541Q343 541 384 520.5Q425 500 449.5 464Q474 428 481.5 379.5Q489 331 482 275L479 253Q471 196 452.5 147.5Q434 99 404 63.5Q374 28 331 8.5Q288 -11 232 -11ZM232 52Q307 52 351 104.5Q395 157 408 251L411 273Q424 368 393 423Q362 478 283 478Q208 478 164.5 425.5Q121 373 108 279L105 257Q92 162 122.5 107Q153 52 232 52ZM271 780 339 614H267L195 780Z" glyph-name="ograve" horiz-adv-x="544" unicode="&#242;" /><glyph d="M232 -11Q172 -11 131 9.5Q90 30 66 66Q42 102 34 150.5Q26 199 34 255L37 277Q45 334 63.5 382.5Q82 431 112 466.5Q142 502 184.5 521.5Q227 541 283 541Q343 541 384 520.5Q425 500 449.5 464Q474 428 481.5 379.5Q489 331 482 275L479 253Q471 196 452.5 147.5Q434 99 404 63.5Q374 28 331 8.5Q288 -11 232 -11ZM232 52Q307 52 351 104.5Q395 157 408 251L411 273Q424 368 393 423Q362 478 283 478Q208 478 164.5 425.5Q121 373 108 279L105 257Q92 162 122.5 107Q153 52 232 52ZM383 780 273 614H210L316 780ZM513 780 396 614H333L445 780Z" glyph-name="ohungarumlaut" horiz-adv-x="544" unicode="&#337;" /><glyph d="M232 -11Q172 -11 131 9.5Q90 30 66 66Q42 102 34 150.5Q26 199 34 255L37 277Q45 334 63.5 382.5Q82 431 112 466.5Q142 502 184.5 521.5Q227 541 283 541Q343 541 384 520.5Q425 500 449.5 464Q474 428 481.5 379.5Q489 331 482 275L479 253Q471 196 452.5 147.5Q434 99 404 63.5Q374 28 331 8.5Q288 -11 232 -11ZM232 52Q307 52 351 104.5Q395 157 408 251L411 273Q424 368 393 423Q362 478 283 478Q208 478 164.5 425.5Q121 373 108 279L105 257Q92 162 122.5 107Q153 52 232 52ZM202 730H435L427 664H193Z" glyph-name="omacron" horiz-adv-x="544" unicode="&#333;" /><glyph d="M22 0 30 66H234L315 687L116 563L87 618L354 784H399L305 66H509L500 0Z" glyph-name="one" horiz-adv-x="600" unicode="1" /><glyph d="M-44 -200 -37 -151H57L93 119L8 66L-14 108L118 191H158L113 -151H208L201 -200Z" glyph-name="one.inf" horiz-adv-x="300" unicode="&#58738;" /><glyph d="M726 0H476L481 40L663 208Q683 227 693 241.5Q703 256 705 274L706 282Q711 316 694 331Q677 346 649 346H643Q613 346 592 327Q571 308 566 260H510L513 282Q521 335 552 365.5Q583 396 646 396Q680 396 703.5 387Q727 378 741 363Q755 348 760.5 328Q766 308 763 286L762 278Q758 246 742.5 225Q727 204 704 182L560 49H733ZM29 0 707 780H777L99 0ZM34 390 41 439H135L171 709L86 656L64 698L196 781H236L191 439H286L279 390Z" glyph-name="onehalf" horiz-adv-x="800" unicode="&#189;" /><glyph d="M548 143 584 144H645L660 255L666 297ZM626 0 639 95H477L482 135L677 390H733L701 144H755L748 95H694L682 0ZM29 0 707 780H777L99 0ZM34 390 41 439H135L171 709L86 656L64 698L196 781H236L191 439H286L279 390Z" glyph-name="onequarter" horiz-adv-x="800" unicode="&#188;" /><glyph d="M926 196Q903 196 883 183.5Q863 171 850 151Q849 145 847.5 134.5Q846 124 846 112Q845 80 859.5 61.5Q874 43 903 43H909Q936 43 959 60.5Q982 78 987 117L988 125Q993 160 977.5 178Q962 196 932 196ZM1056 346Q1015 346 978.5 332.5Q942 319 912 288Q895 271 885 253Q875 235 868 216Q882 229 902 237.5Q922 246 948 246Q970 246 989.5 238.5Q1009 231 1022.5 216Q1036 201 1042 178Q1048 155 1044 125L1043 117Q1036 60 1000.5 26.5Q965 -7 906 -7Q843 -7 814 31Q785 69 793 138L794 146Q801 201 819.5 242Q838 283 871 320Q910 364 959.5 380Q1009 396 1062 396ZM483 0 490 49H584L620 319L535 266L513 308L645 391H685L640 49H735L728 0ZM29 0 707 780H777L99 0ZM34 390 41 439H135L171 709L86 656L64 698L196 781H236L191 439H286L279 390Z" glyph-name="onesixteenth" horiz-adv-x="1100" unicode="&#61973;" /><glyph d="M34 390 41 439H135L171 709L86 656L64 698L196 781H236L191 439H286L279 390Z" glyph-name="onesuperior" horiz-adv-x="300" unicode="&#185;" /><glyph d="M32 318 41 382H294L285 318Z" glyph-name="onethirdemdash" horiz-adv-x="333" unicode="&#58481;" /><glyph d="M37 358 46 422H299L290 358Z" glyph-name="onethirdemdash.cap" horiz-adv-x="333" unicode="&#58499;" /><glyph d="M25 212 33 269H338L330 212ZM180 433Q200 433 218.5 438.5Q237 444 253 452.5Q269 461 280.5 470.5Q292 480 299 488L312 592L204 575Q166 569 144.5 552.5Q123 536 118 504L116 491Q107 433 180 433ZM300 441Q283 416 245 397.5Q207 379 163 379Q100 379 73 412Q46 445 54 493L56 506Q60 535 72 554.5Q84 574 103 586.5Q122 599 147 606Q172 613 202 618L318 635L320 648Q327 691 310 715Q293 739 244 739Q218 739 201 732Q184 725 173.5 713Q163 701 158 685.5Q153 670 150 652H89L91 665Q94 688 103 710.5Q112 733 130 751Q148 769 175.5 780Q203 791 244 791Q290 791 319 780Q348 769 363.5 748.5Q379 728 382.5 700.5Q386 673 382 640L363 499L353 388H300Z" glyph-name="ordfeminine" horiz-adv-x="390" unicode="&#170;" /><glyph d="M68 591Q82 685 129 738Q176 791 254 791Q302 791 334.5 776.5Q367 762 385 736Q403 710 408 673.5Q413 637 406 592L404 579Q390 485 343 432Q296 379 218 379Q170 379 137.5 393.5Q105 408 87 434Q69 460 64 496.5Q59 533 66 578ZM34 269H357L349 212H26ZM130 578Q119 511 140.5 473Q162 435 220 435Q272 435 300.5 470.5Q329 506 340 579L342 592Q353 659 331.5 697Q310 735 252 735Q200 735 171.5 699.5Q143 664 132 591Z" glyph-name="ordmasculine" horiz-adv-x="418" unicode="&#186;" /><glyph d="M377 443Q344 478 283 478Q208 478 164.5 425.5Q121 373 108 279L105 257Q96 181 112 132ZM37 277Q45 334 63.5 382.5Q82 431 112 466.5Q142 502 184.5 521.5Q227 541 283 541Q328 541 362 529Q396 517 421 495L451 530H516L454 457Q476 421 482.5 375Q489 329 482 275L479 253Q471 196 452.5 147.5Q434 99 404 63.5Q374 28 331.5 8.5Q289 -11 233 -11Q188 -11 154 1Q120 13 95 35L65 0H0L62 73Q40 109 33.5 155Q27 201 34 255ZM139 87Q172 52 233 52Q308 52 351.5 104.5Q395 157 408 251L411 273Q420 349 404 398Z" glyph-name="oslash" horiz-adv-x="544" unicode="&#248;" /><glyph d="M232 -11Q172 -11 131 9.5Q90 30 66 66Q42 102 34 150.5Q26 199 34 255L37 277Q45 334 63.5 382.5Q82 431 112 466.5Q142 502 184.5 521.5Q227 541 283 541Q343 541 384 520.5Q425 500 449.5 464Q474 428 481.5 379.5Q489 331 482 275L479 253Q471 196 452.5 147.5Q434 99 404 63.5Q374 28 331 8.5Q288 -11 232 -11ZM232 52Q307 52 351 104.5Q395 157 408 251L411 273Q424 368 393 423Q362 478 283 478Q208 478 164.5 425.5Q121 373 108 279L105 257Q92 162 122.5 107Q153 52 232 52ZM477 746Q469 692 443.5 667.5Q418 643 382 643Q360 643 342 652Q324 661 308 672Q292 683 277.5 692Q263 701 247 701Q232 701 220.5 690.5Q209 680 206 654H153Q160 708 185.5 732.5Q211 757 247 757Q269 757 287 748Q305 739 321 728Q337 717 351.5 708Q366 699 382 699Q397 699 408.5 709.5Q420 720 424 746Z" glyph-name="otilde" horiz-adv-x="544" unicode="&#245;" /><glyph d="M231 52Q306 52 348 105Q390 158 403 251L406 273Q419 369 388 423.5Q357 478 282 478Q231 478 196.5 455.5Q162 433 139 402L105 139Q111 125 122 109.5Q133 94 148.5 81Q164 68 184.5 60Q205 52 231 52ZM299 541Q353 541 390.5 520.5Q428 500 450 464.5Q472 429 478.5 380.5Q485 332 477 275L474 253Q466 195 448.5 146.5Q431 98 402.5 63Q374 28 334 8.5Q294 -11 240 -11Q210 -11 185.5 -3Q161 5 143 16.5Q125 28 113 41Q101 54 95 65L60 -200H-10L67 386L80 530H140V463Q165 498 207 519.5Q249 541 299 541Z" glyph-name="p" horiz-adv-x="537" unicode="p" /><glyph d="M131 544Q125 497 134.5 465.5Q144 434 163.5 415.5Q183 397 209.5 389.5Q236 382 263 382L306 715Q282 715 254.5 709Q227 703 202 685.5Q177 668 158 637.5Q139 607 133 559ZM60 563Q70 630 96.5 672Q123 714 159.5 738Q196 762 239 771Q282 780 325 780H499L397 0H325L419 715H378L285 0H213L254 317Q217 317 178 328Q139 339 109 365Q79 391 63 434.5Q47 478 57 543Z" glyph-name="paragraph" horiz-adv-x="513" unicode="&#182;" /><glyph d="M50 372Q61 459 82 528Q103 597 132 653Q161 709 196.5 754.5Q232 800 271 840H346Q304 797 268 749.5Q232 702 202.5 645.5Q173 589 152.5 521.5Q132 454 122 372L119 348Q110 277 115 213Q120 149 134.5 91.5Q149 34 171.5 -19Q194 -72 220 -120H145Q122 -75 100 -24.5Q78 26 63 83.5Q48 141 43 206.5Q38 272 47 348Z" glyph-name="parenleft" horiz-adv-x="317" unicode="(" /><glyph d="M63 402Q77 513 125 607.5Q173 702 236 780H311Q247 699 198 604Q149 509 135 402L132 378Q125 325 128.5 274Q132 223 142.5 175.5Q153 128 170.5 84Q188 40 209 0H135Q114 39 97 82Q80 125 69.5 172.5Q59 220 56 271.5Q53 323 60 378Z" glyph-name="parenleft.cap" horiz-adv-x="317" unicode="&#58513;" /><glyph d="M-24 2Q-16 70 7 114.5Q30 159 60 190H120Q92 159 66 111.5Q40 64 32 2L31 -6Q27 -38 29 -66Q31 -94 37 -118.5Q43 -143 51 -163.5Q59 -184 68 -200H12Q3 -185 -5 -163.5Q-13 -142 -18.5 -116.5Q-24 -91 -26 -63Q-28 -35 -25 -6Z" glyph-name="parenleft.inf" horiz-adv-x="169" unicode="&#58750;" /><glyph d="M263 348Q252 261 231 192Q210 123 181 67Q152 11 116.5 -34.5Q81 -80 42 -120H-33Q9 -77 45 -29.5Q81 18 110.5 74.5Q140 131 160.5 198.5Q181 266 191 348L194 372Q203 443 198 507Q193 571 178.5 628.5Q164 686 141.5 739Q119 792 93 840H168Q191 795 213 744.5Q235 694 250 636.5Q265 579 270 513.5Q275 448 266 372Z" glyph-name="parenright" horiz-adv-x="317" unicode=")" /><glyph d="M257 378Q243 267 195 172.5Q147 78 84 0H9Q73 81 122 176Q171 271 185 378L188 402Q201 508 177.5 604Q154 700 111 780H185Q228 703 250.5 607.5Q273 512 260 402Z" glyph-name="parenright.cap" horiz-adv-x="317" unicode="&#58514;" /><glyph d="M91 -12Q83 -80 60 -124.5Q37 -169 7 -200H-53Q-25 -169 1 -121.5Q27 -74 35 -12L36 -4Q40 27 38 55.5Q36 84 30 108.5Q24 133 16 153.5Q8 174 -1 190H55Q64 175 72 153.5Q80 132 85.5 106.5Q91 81 93 53Q95 25 92 -4Z" glyph-name="parenright.inf" horiz-adv-x="169" unicode="&#58751;" /><glyph d="M356 655H266L278 745H368ZM231 52Q306 52 348 105Q390 158 403 251L406 273Q419 369 388 423.5Q357 478 282 478Q231 478 196.5 455.5Q162 433 139 402L105 139Q111 125 122 109.5Q133 94 148.5 81Q164 68 184.5 60Q205 52 231 52ZM299 541Q353 541 390.5 520.5Q428 500 450 464.5Q472 429 478.5 380.5Q485 332 477 275L474 253Q466 195 448.5 146.5Q431 98 402.5 63Q374 28 334 8.5Q294 -11 240 -11Q210 -11 185.5 -3Q161 5 143 16.5Q125 28 113 41Q101 54 95 65L60 -200H-10L67 386L80 530H140V463Q165 498 207 519.5Q249 541 299 541Z" glyph-name="pdotaccent" horiz-adv-x="537" unicode="&#7767;" /><glyph d="M249 791Q275 791 293 787Q311 783 325 777Q365 760 408.5 754.5Q452 749 497 749Q524 749 553.5 752.5Q583 756 610 760.5Q637 765 658.5 770.5Q680 776 691 781L684 732L284 0H216L601 703Q599 702 589.5 699.5Q580 697 565 694.5Q550 692 530.5 690Q511 688 490 688Q461 688 438.5 691.5Q416 695 396 699Q413 670 407 617L406 608Q398 532 350.5 485Q303 438 226 438Q187 438 155.5 449.5Q124 461 103 483.5Q82 506 72.5 538.5Q63 571 68 612L69 621Q77 697 124.5 744Q172 791 249 791ZM128 610Q122 559 146 528Q170 497 222 497H230Q282 497 311 526.5Q340 556 346 610L347 619Q353 670 329 701Q305 732 253 732H245Q193 732 164 702.5Q135 673 129 619ZM520 172Q528 248 575.5 295Q623 342 700 342Q739 342 770 330.5Q801 319 822 296.5Q843 274 852.5 241.5Q862 209 858 168L857 159Q849 83 801.5 36Q754 -11 677 -11Q638 -11 606.5 0.5Q575 12 554 34.5Q533 57 523.5 89.5Q514 122 519 163ZM579 161Q573 110 597 79Q621 48 673 48H681Q733 48 762 77.5Q791 107 797 161L798 170Q804 221 780 252Q756 283 704 283H696Q644 283 615 253.5Q586 224 580 170Z" glyph-name="percent" horiz-adv-x="921" unicode="%" /><glyph d="M104 0H14L26 90H116Z" glyph-name="period" horiz-adv-x="217" unicode="." /><glyph d="M146 0H56L68 90H158Z" glyph-name="period.T" horiz-adv-x="300" unicode="&#61826;" /><glyph d="M144 305H54L66 395H156Z" glyph-name="periodcentered" horiz-adv-x="217" unicode="&#183;" /><glyph d="M149 345H59L71 435H161Z" glyph-name="periodcentered.cap" horiz-adv-x="217" unicode="&#58497;" /><glyph d="M910 172Q918 248 965.5 295Q1013 342 1090 342Q1129 342 1160 330.5Q1191 319 1212 296.5Q1233 274 1242.5 241.5Q1252 209 1248 168L1247 159Q1239 83 1191.5 36Q1144 -11 1067 -11Q1028 -11 996.5 0.5Q965 12 944 34.5Q923 57 913.5 89.5Q904 122 909 163ZM969 161Q963 110 987 79Q1011 48 1063 48H1071Q1123 48 1152 77.5Q1181 107 1187 161L1188 170Q1194 221 1170 252Q1146 283 1094 283H1086Q1034 283 1005 253.5Q976 224 970 170ZM249 791Q275 791 293 787Q311 783 325 777Q365 760 408.5 754.5Q452 749 497 749Q524 749 553.5 752.5Q583 756 610 760.5Q637 765 658.5 770.5Q680 776 691 781L684 732L284 0H216L601 703Q599 702 589.5 699.5Q580 697 565 694.5Q550 692 530.5 690Q511 688 490 688Q461 688 438.5 691.5Q416 695 396 699Q413 670 407 617L406 608Q398 532 350.5 485Q303 438 226 438Q187 438 155.5 449.5Q124 461 103 483.5Q82 506 72.5 538.5Q63 571 68 612L69 621Q77 697 124.5 744Q172 791 249 791ZM128 610Q122 559 146 528Q170 497 222 497H230Q282 497 311 526.5Q340 556 346 610L347 619Q353 670 329 701Q305 732 253 732H245Q193 732 164 702.5Q135 673 129 619ZM520 172Q528 248 575.5 295Q623 342 700 342Q739 342 770 330.5Q801 319 822 296.5Q843 274 852.5 241.5Q862 209 858 168L857 159Q849 83 801.5 36Q754 -11 677 -11Q638 -11 606.5 0.5Q575 12 554 34.5Q533 57 523.5 89.5Q514 122 519 163ZM579 161Q573 110 597 79Q621 48 673 48H681Q733 48 762 77.5Q791 107 797 161L798 170Q804 221 780 252Q756 283 704 283H696Q644 283 615 253.5Q586 224 580 170Z" glyph-name="perthousand" horiz-adv-x="1310" unicode="&#8240;" /><glyph d="M368 642 339 423H558L549 357H330L301 138H234L263 357H44L53 423H272L301 642Z" glyph-name="plus" horiz-adv-x="600" unicode="+" /><glyph d="M141 122 128 20H231L223 -31H121L108 -132H57L70 -31H-32L-24 20H78L91 122Z" glyph-name="plus.inf" horiz-adv-x="300" unicode="&#58747;" /><glyph d="M28 227H533L524 161H19ZM370 649 351 509H570L561 443H342L323 303H256L275 443H56L65 509H284L303 649Z" glyph-name="plusminus" horiz-adv-x="600" unicode="&#177;" /><glyph d="M475 396Q490 396 506 399.5Q522 403 534.5 412Q547 421 555.5 437.5Q564 454 564 480V487Q564 514 555.5 530.5Q547 547 534.5 556Q522 565 506 568Q490 571 475 571H368V396ZM368 155H301V625H483Q509 625 535.5 619Q562 613 583 598Q604 583 617.5 557Q631 531 631 490V478Q631 437 617.5 410.5Q604 384 583 369Q562 354 535.5 348Q509 342 483 342H368ZM102 390Q102 316 130 250.5Q158 185 206.5 136.5Q255 88 320.5 60Q386 32 460 32Q534 32 599.5 60Q665 88 713.5 136.5Q762 185 790 250.5Q818 316 818 390Q818 464 790 529.5Q762 595 713.5 643.5Q665 692 599.5 720Q534 748 460 748Q386 748 320.5 720Q255 692 206.5 643.5Q158 595 130 529.5Q102 464 102 390ZM59 390Q59 473 90.5 546Q122 619 176.5 673.5Q231 728 304 759.5Q377 791 460 791Q543 791 616 759.5Q689 728 743.5 673.5Q798 619 829.5 546Q861 473 861 390Q861 307 829.5 234Q798 161 743.5 106.5Q689 52 616 20.5Q543 -11 460 -11Q377 -11 304 20.5Q231 52 176.5 106.5Q122 161 90.5 234Q59 307 59 390Z" glyph-name="published" horiz-adv-x="920" unicode="&#8471;" /><glyph glyph-name="punctuationspace" horiz-adv-x="180" unicode="&#8200;" /><glyph d="M405 392Q399 406 388 421.5Q377 437 361.5 449.5Q346 462 325.5 470Q305 478 279 478Q204 478 162 425Q120 372 107 279L104 257Q91 161 122 106.5Q153 52 228 52Q279 52 313 75Q347 98 370 129ZM361 56Q338 27 299.5 8Q261 -11 211 -11Q157 -11 119 9.5Q81 30 59.5 65.5Q38 101 31.5 149.5Q25 198 33 255L36 277Q44 335 61.5 383.5Q79 432 107.5 467Q136 502 176 521.5Q216 541 270 541Q300 541 325 532.5Q350 524 369 511.5Q388 499 401 483.5Q414 468 421 453L440 530H498L473 380L397 -200H327Z" glyph-name="q" horiz-adv-x="539" unicode="q" /><glyph d="M222 0H132L144 90H234ZM273 726Q234 726 206.5 710.5Q179 695 160.5 666Q142 637 131 596Q120 555 114 504H43L45 518Q54 582 69.5 632.5Q85 683 111.5 718Q138 753 177.5 772Q217 791 275 791Q372 791 414.5 744.5Q457 698 457 618Q457 562 442.5 523Q428 484 405 454Q382 424 354.5 398.5Q327 373 301.5 344Q276 315 255.5 278.5Q235 242 226 189H179Q183 242 200 282Q217 322 239.5 354Q262 386 287.5 413.5Q313 441 334 470Q355 499 369 533.5Q383 568 383 613Q383 669 358 697.5Q333 726 273 726Z" glyph-name="question" horiz-adv-x="455" unicode="?" /><glyph d="M205 530H295L283 440H193ZM155 -146Q229 -146 266 -94.5Q303 -43 315 60H387L385 46Q376 -17 359.5 -65.5Q343 -114 315.5 -146Q288 -178 248.5 -194.5Q209 -211 154 -211Q105 -211 70.5 -199.5Q36 -188 14.5 -166.5Q-7 -145 -17 -115.5Q-27 -86 -27 -50Q-27 5 -12.5 41Q2 77 24.5 103.5Q47 130 74 151Q101 172 126.5 197.5Q152 223 172 256.5Q192 290 201 341H247Q243 289 226.5 252Q210 215 187.5 186Q165 157 140.5 132.5Q116 108 95 82Q74 56 60 26Q46 -4 46 -45Q46 -94 72 -120Q98 -146 155 -146Z" glyph-name="questiondown" horiz-adv-x="455" unicode="&#191;" /><glyph d="M236 780H326L314 690H224ZM185 54Q224 54 251.5 69.5Q279 85 297.5 114Q316 143 327 184Q338 225 344 276H415L413 262Q404 198 388.5 147.5Q373 97 346.5 61.5Q320 26 280.5 7.5Q241 -11 183 -11Q85 -11 43 35.5Q1 82 1 162Q1 218 15.5 257Q30 296 53 326Q76 356 103.5 381.5Q131 407 156.5 436Q182 465 202.5 501.5Q223 538 232 591H279Q275 537 258 497.5Q241 458 218.5 426Q196 394 170.5 366.5Q145 339 124 310Q103 281 89 246.5Q75 212 75 167Q75 111 100 82.5Q125 54 185 54Z" glyph-name="questiondown.cap" horiz-adv-x="455" unicode="&#58436;" /><glyph d="M322 780 272 511H222L243 780ZM201 780 151 511H101L122 780Z" glyph-name="quotedbl" horiz-adv-x="338" unicode="&quot;" /><glyph d="M251 15Q233 -119 121 -119L127 -76Q157 -76 176 -59.5Q195 -43 204 0H159L171 90H261ZM106 15Q88 -119 -24 -119L-18 -76Q12 -76 31 -59.5Q50 -43 59 0H14L26 90H116Z" glyph-name="quotedblbase" horiz-adv-x="363" unicode="&#8222;" /><glyph d="M101 661Q119 795 231 795L225 752Q195 752 176 735.5Q157 719 148 676H193L181 586H91ZM246 661Q264 795 376 795L370 752Q340 752 321 735.5Q302 719 293 676H338L326 586H236Z" glyph-name="quotedblleft" horiz-adv-x="363" unicode="&#8220;" /><glyph d="M341 705Q323 571 211 571L217 614Q247 614 266 630.5Q285 647 294 690H249L261 780H351ZM196 705Q178 571 66 571L72 614Q102 614 121 630.5Q140 647 149 690H104L116 780H206Z" glyph-name="quotedblright" horiz-adv-x="363" unicode="&#8221;" /><glyph d="M101 661Q119 795 231 795L225 752Q195 752 176 735.5Q157 719 148 676H193L181 586H91Z" glyph-name="quoteleft" horiz-adv-x="217" unicode="&#8216;" /><glyph d="M196 705Q178 571 66 571L72 614Q102 614 121 630.5Q140 647 149 690H104L116 780H206Z" glyph-name="quoteright" horiz-adv-x="217" unicode="&#8217;" /><glyph d="M106 15Q88 -119 -24 -119L-18 -76Q12 -76 31 -59.5Q50 -43 59 0H14L26 90H116Z" glyph-name="quotesinglbase" horiz-adv-x="217" unicode="&#8218;" /><glyph d="M201 780 151 511H101L122 780Z" glyph-name="quotesingle" horiz-adv-x="217" unicode="&apos;" /><glyph d="M297 541Q299 541 302 540.5Q305 540 307 540H311L303 471H289Q259 471 235 463Q211 455 192 442.5Q173 430 159.5 415Q146 400 137 387L86 0H16L67 386L80 530H140V461Q164 495 203.5 518Q243 541 297 541Z" glyph-name="r" horiz-adv-x="333" unicode="r" /><glyph d="M297 541Q299 541 302 540.5Q305 540 307 540H311L303 471H289Q259 471 235 463Q211 455 192 442.5Q173 430 159.5 415Q146 400 137 387L86 0H16L67 386L80 530H140V461Q164 495 203.5 518Q243 541 297 541ZM361 780 245 614H173L285 780Z" glyph-name="racute" horiz-adv-x="333" unicode="&#341;" /><glyph d="M297 541Q299 541 302 540.5Q305 540 307 540H311L303 471H289Q259 471 235 463Q211 455 192 442.5Q173 430 159.5 415Q146 400 137 387L86 0H16L67 386L80 530H140V461Q164 495 203.5 518Q243 541 297 541ZM135 780 213 667 320 780H393L240 614H178L69 780Z" glyph-name="rcaron" horiz-adv-x="333" unicode="&#345;" /><glyph d="M297 541Q299 541 302 540.5Q305 540 307 540H311L303 471H289Q259 471 235 463Q211 455 192 442.5Q173 430 159.5 415Q146 400 137 387L86 0H16L67 386L80 530H140V461Q164 495 203.5 518Q243 541 297 541ZM79 -107Q72 -159 41.5 -186.5Q11 -214 -40 -214L-35 -178Q-9 -178 10.5 -165.5Q30 -153 38 -124H-4L5 -56H86Z" glyph-name="rcommaaccent" horiz-adv-x="333" unicode="&#343;" /><glyph d="M194 698Q194 721 166 721H136V671H166Q194 671 194 695ZM229 693Q229 674 221 662.5Q213 651 199 646L229 579H193L166 642H136V579H101V751H173Q197 751 213 738.5Q229 726 229 700ZM43 665Q43 640 52.5 617.5Q62 595 78.5 578.5Q95 562 117.5 552.5Q140 543 165 543Q190 543 212.5 552.5Q235 562 251.5 578.5Q268 595 277.5 617.5Q287 640 287 665Q287 690 277.5 712.5Q268 735 251.5 751.5Q235 768 212.5 777.5Q190 787 165 787Q140 787 117.5 777.5Q95 768 78.5 751.5Q62 735 52.5 712.5Q43 690 43 665ZM19 665Q19 695 30.5 721.5Q42 748 62 768Q82 788 108.5 799.5Q135 811 165 811Q195 811 221.5 799.5Q248 788 268 768Q288 748 299.5 721.5Q311 695 311 665Q311 635 299.5 608.5Q288 582 268 562Q248 542 221.5 530.5Q195 519 165 519Q135 519 108.5 530.5Q82 542 62 562Q42 582 30.5 608.5Q19 635 19 665Z" glyph-name="registered" horiz-adv-x="330" unicode="&#174;" /><glyph d="M470 396Q485 396 501 399.5Q517 403 530 412Q543 421 551.5 437.5Q560 454 560 480V487Q560 514 551.5 530.5Q543 547 530 556Q517 565 501 568Q485 571 470 571H363V396ZM363 155H297V625H479Q505 625 531 619Q557 613 578 598Q599 583 612.5 557Q626 531 626 490V478Q626 423 603 394Q580 365 548 353L626 155H556L487 342H363ZM102 390Q102 316 130 250.5Q158 185 206.5 136.5Q255 88 320.5 60Q386 32 460 32Q534 32 599.5 60Q665 88 713.5 136.5Q762 185 790 250.5Q818 316 818 390Q818 464 790 529.5Q762 595 713.5 643.5Q665 692 599.5 720Q534 748 460 748Q386 748 320.5 720Q255 692 206.5 643.5Q158 595 130 529.5Q102 464 102 390ZM59 390Q59 473 90.5 546Q122 619 176.5 673.5Q231 728 304 759.5Q377 791 460 791Q543 791 616 759.5Q689 728 743.5 673.5Q798 619 829.5 546Q861 473 861 390Q861 307 829.5 234Q798 161 743.5 106.5Q689 52 616 20.5Q543 -11 460 -11Q377 -11 304 20.5Q231 52 176.5 106.5Q122 161 90.5 234Q59 307 59 390Z" glyph-name="registered.cap" horiz-adv-x="920" unicode="&#59804;" /><glyph d="M352 780 340 690H292Q286 646 303.5 630Q321 614 353 614L347 571Q295 571 269 604.5Q243 638 252 706L262 780ZM206 780 194 690H146Q140 646 157.5 630Q175 614 207 614L201 571Q149 571 123 604.5Q97 638 106 706L116 780Z" glyph-name="reversequotedblleft" horiz-adv-x="363" unicode="&#8223;" /><glyph d="M206 780 194 690H146Q140 646 157.5 630Q175 614 207 614L201 571Q149 571 123 604.5Q97 638 106 706L116 780Z" glyph-name="reversequoteleft" horiz-adv-x="217" unicode="&#8219;" /><glyph d="M284 603Q242 603 219.5 627.5Q197 652 197 690Q197 734 227.5 762.5Q258 791 301 791Q343 791 365.5 766.5Q388 742 388 704Q388 660 357.5 631.5Q327 603 284 603ZM284 641Q310 641 329.5 656.5Q349 672 349 704Q349 725 336.5 739Q324 753 301 753Q275 753 255.5 737.5Q236 722 236 690Q236 669 248.5 655Q261 641 284 641Z" glyph-name="ring" horiz-adv-x="500" unicode="&#730;" /><glyph d="M306 773Q264 773 241.5 797.5Q219 822 219 860Q219 904 249.5 932.5Q280 961 323 961Q365 961 387.5 936.5Q410 912 410 874Q410 830 379.5 801.5Q349 773 306 773ZM306 811Q332 811 351.5 826.5Q371 842 371 874Q371 895 358.5 909Q346 923 323 923Q297 923 277.5 907.5Q258 892 258 860Q258 839 270.5 825Q283 811 306 811Z" glyph-name="ring.cap" horiz-adv-x="500" unicode="&#58410;" /><glyph d="M321 382Q346 382 375 387.5Q404 393 430 409.5Q456 426 475.5 457Q495 488 502 538L504 553Q511 603 498.5 634.5Q486 666 463.5 684Q441 702 413 708.5Q385 715 360 715H227L184 382ZM164 230H372L364 165H155L134 0H62L83 165H-5L4 230H92L103 317H15L24 382H112L164 780H366Q408 780 450 770Q492 760 524 734.5Q556 709 572 665Q588 621 578 554L575 534Q565 467 538 425Q511 383 474 359Q437 335 394.5 326Q352 317 310 317H175Z" glyph-name="ruble" horiz-adv-x="600" unicode="&#8381;" /><glyph d="M222 52Q363 52 363 158Q363 198 332.5 215.5Q302 233 234 243Q134 257 95.5 294.5Q57 332 65 393L66 401Q74 467 126.5 504Q179 541 270 541Q327 541 365.5 528.5Q404 516 426.5 493.5Q449 471 456.5 440Q464 409 458 372L456 359H388Q396 416 370.5 447Q345 478 270 478Q207 478 171 455Q135 432 135 378Q135 360 141.5 347.5Q148 335 163.5 325.5Q179 316 204 309.5Q229 303 266 299Q357 288 399.5 251.5Q442 215 433 143L432 135Q424 70 371.5 29.5Q319 -11 222 -11Q163 -11 123.5 2Q84 15 61 37Q38 59 30.5 88Q23 117 28 149L30 162H99Q96 137 100 117Q104 97 118 82.5Q132 68 157.5 60Q183 52 222 52Z" glyph-name="s" horiz-adv-x="522" unicode="s" /><glyph d="M222 52Q363 52 363 158Q363 198 332.5 215.5Q302 233 234 243Q134 257 95.5 294.5Q57 332 65 393L66 401Q74 467 126.5 504Q179 541 270 541Q327 541 365.5 528.5Q404 516 426.5 493.5Q449 471 456.5 440Q464 409 458 372L456 359H388Q396 416 370.5 447Q345 478 270 478Q207 478 171 455Q135 432 135 378Q135 360 141.5 347.5Q148 335 163.5 325.5Q179 316 204 309.5Q229 303 266 299Q357 288 399.5 251.5Q442 215 433 143L432 135Q424 70 371.5 29.5Q319 -11 222 -11Q163 -11 123.5 2Q84 15 61 37Q38 59 30.5 88Q23 117 28 149L30 162H99Q96 137 100 117Q104 97 118 82.5Q132 68 157.5 60Q183 52 222 52ZM444 780 328 614H256L368 780Z" glyph-name="sacute" horiz-adv-x="522" unicode="&#347;" /><glyph d="M222 52Q363 52 363 158Q363 198 332.5 215.5Q302 233 234 243Q134 257 95.5 294.5Q57 332 65 393L66 401Q74 467 126.5 504Q179 541 270 541Q327 541 365.5 528.5Q404 516 426.5 493.5Q449 471 456.5 440Q464 409 458 372L456 359H388Q396 416 370.5 447Q345 478 270 478Q207 478 171 455Q135 432 135 378Q135 360 141.5 347.5Q148 335 163.5 325.5Q179 316 204 309.5Q229 303 266 299Q357 288 399.5 251.5Q442 215 433 143L432 135Q424 70 371.5 29.5Q319 -11 222 -11Q163 -11 123.5 2Q84 15 61 37Q38 59 30.5 88Q23 117 28 149L30 162H99Q96 137 100 117Q104 97 118 82.5Q132 68 157.5 60Q183 52 222 52ZM218 780 296 667 403 780H476L323 614H261L152 780Z" glyph-name="scaron" horiz-adv-x="522" unicode="&#353;" /><glyph d="M222 52Q363 52 363 158Q363 198 332.5 215.5Q302 233 234 243Q134 257 95.5 294.5Q57 332 65 393L66 401Q74 467 126.5 504Q179 541 270 541Q327 541 365.5 528.5Q404 516 426.5 493.5Q449 471 456.5 440Q464 409 458 372L456 359H388Q396 416 370.5 447Q345 478 270 478Q207 478 171 455Q135 432 135 378Q135 360 141.5 347.5Q148 335 163.5 325.5Q179 316 204 309.5Q229 303 266 299Q357 288 399.5 251.5Q442 215 433 143L432 135Q424 72 375.5 32.5Q327 -7 237 -10L212 -58H216Q232 -58 247.5 -61.5Q263 -65 275 -73Q287 -81 294.5 -94.5Q302 -108 302 -127Q302 -172 271.5 -191.5Q241 -211 194 -211Q165 -211 140.5 -203Q116 -195 102 -184L122 -148Q133 -156 151.5 -162.5Q170 -169 193 -169Q255 -169 255 -130Q255 -110 239 -103Q223 -96 200 -96Q194 -96 188.5 -96.5Q183 -97 178 -98Q173 -99 169 -99L156 -80L192 -10Q142 -7 108.5 7Q75 21 55.5 42.5Q36 64 29.5 91.5Q23 119 28 149L30 162H99Q96 137 100 117Q104 97 118 82.5Q132 68 157.5 60Q183 52 222 52Z" glyph-name="scedilla" horiz-adv-x="522" unicode="&#351;" /><glyph d="M222 52Q363 52 363 158Q363 198 332.5 215.5Q302 233 234 243Q134 257 95.5 294.5Q57 332 65 393L66 401Q74 467 126.5 504Q179 541 270 541Q327 541 365.5 528.5Q404 516 426.5 493.5Q449 471 456.5 440Q464 409 458 372L456 359H388Q396 416 370.5 447Q345 478 270 478Q207 478 171 455Q135 432 135 378Q135 360 141.5 347.5Q148 335 163.5 325.5Q179 316 204 309.5Q229 303 266 299Q357 288 399.5 251.5Q442 215 433 143L432 135Q424 70 371.5 29.5Q319 -11 222 -11Q163 -11 123.5 2Q84 15 61 37Q38 59 30.5 88Q23 117 28 149L30 162H99Q96 137 100 117Q104 97 118 82.5Q132 68 157.5 60Q183 52 222 52ZM130 614 283 780H345L454 614H388L310 727L203 614Z" glyph-name="scircumflex" horiz-adv-x="522" unicode="&#349;" /><glyph d="M222 52Q363 52 363 158Q363 198 332.5 215.5Q302 233 234 243Q134 257 95.5 294.5Q57 332 65 393L66 401Q74 467 126.5 504Q179 541 270 541Q327 541 365.5 528.5Q404 516 426.5 493.5Q449 471 456.5 440Q464 409 458 372L456 359H388Q396 416 370.5 447Q345 478 270 478Q207 478 171 455Q135 432 135 378Q135 360 141.5 347.5Q148 335 163.5 325.5Q179 316 204 309.5Q229 303 266 299Q357 288 399.5 251.5Q442 215 433 143L432 135Q424 70 371.5 29.5Q319 -11 222 -11Q163 -11 123.5 2Q84 15 61 37Q38 59 30.5 88Q23 117 28 149L30 162H99Q96 137 100 117Q104 97 118 82.5Q132 68 157.5 60Q183 52 222 52ZM238 -107Q231 -159 200.5 -186.5Q170 -214 119 -214L124 -178Q150 -178 169.5 -165.5Q189 -153 197 -124H155L164 -56H245Z" glyph-name="scommaaccent" horiz-adv-x="522" unicode="&#537;" /><glyph d="M345 259Q377 248 397 217.5Q417 187 411 137L410 129Q402 62 351.5 25.5Q301 -11 206 -11Q149 -11 110.5 1.5Q72 14 49.5 36.5Q27 59 19.5 90Q12 121 18 158L20 171H88Q80 114 105.5 83Q131 52 206 52Q271 52 306 75Q341 98 341 152Q341 187 312 204.5Q283 222 210 231Q119 242 77 279.5Q35 317 44 389L45 397Q51 444 80 474Q109 504 172 521Q140 532 120 562.5Q100 593 106 643L107 651Q115 718 165.5 754.5Q216 791 311 791Q368 791 406.5 778.5Q445 766 467.5 743.5Q490 721 497.5 690Q505 659 499 622L497 609H429Q437 666 411.5 697Q386 728 311 728Q246 728 211 705Q176 682 176 628Q176 610 182.5 597.5Q189 585 204.5 575.5Q220 566 245 559.5Q270 553 307 549Q398 538 440 500.5Q482 463 473 391L472 383Q466 336 437 306Q408 276 345 259ZM254 289Q326 289 365 322.5Q404 356 404 408Q404 452 366.5 471.5Q329 491 274 491H263Q191 491 152 457.5Q113 424 113 372Q113 328 150.5 308.5Q188 289 243 289Z" glyph-name="section" horiz-adv-x="513" unicode="&#167;" /><glyph d="M149 345H59L71 435H161ZM106 15Q88 -119 -24 -119L-18 -76Q12 -76 31 -59.5Q50 -43 59 0H14L26 90H116Z" glyph-name="semicolon" horiz-adv-x="217" unicode=";" /><glyph d="M191 345H101L113 435H203ZM148 15Q130 -119 18 -119L24 -76Q54 -76 73 -59.5Q92 -43 101 0H56L68 90H158Z" glyph-name="semicolon.T" horiz-adv-x="300" unicode="&#61829;" /><glyph d="M376 530H329L274 734L276 667V530H234V800H297L352 597L407 800H471V530H429V667L431 734ZM101 649Q56 655 38.5 673.5Q21 692 21 724V728Q21 763 44 784Q67 805 109 805Q158 805 177.5 782Q197 759 197 714V706H155Q155 738 145.5 752.5Q136 767 110 767H108Q63 767 63 731V728Q63 710 74 700Q85 690 117 686Q162 680 181 661.5Q200 643 200 609V605Q200 567 177 544.5Q154 522 109 522Q63 522 40.5 546.5Q18 571 18 617V621H60Q60 591 71 575.5Q82 560 109 560H111Q136 560 146.5 571Q157 582 157 602V604Q157 624 145 634Q133 644 101 649Z" glyph-name="servicemark" horiz-adv-x="523" unicode="&#8480;" /><glyph d="M111 780H603L598 736L202 0H124L512 716L400 714H168L139 500H74Z" glyph-name="seven" horiz-adv-x="600" unicode="7" /><glyph d="M-2 190H255L250 150L59 -200H-3L185 142L129 141H45L32 50H-21Z" glyph-name="seven.inf" horiz-adv-x="300" unicode="&#58744;" /><glyph d="M926 196Q903 196 883 183.5Q863 171 850 151Q849 145 847.5 134.5Q846 124 846 112Q845 80 859.5 61.5Q874 43 903 43H909Q936 43 959 60.5Q982 78 987 117L988 125Q993 160 977.5 178Q962 196 932 196ZM1056 346Q1015 346 978.5 332.5Q942 319 912 288Q895 271 885 253Q875 235 868 216Q882 229 902 237.5Q922 246 948 246Q970 246 989.5 238.5Q1009 231 1022.5 216Q1036 201 1042 178Q1048 155 1044 125L1043 117Q1036 60 1000.5 26.5Q965 -7 906 -7Q843 -7 814 31Q785 69 793 138L794 146Q801 201 819.5 242Q838 283 871 320Q910 364 959.5 380Q1009 396 1062 396ZM483 0 490 49H584L620 319L535 266L513 308L645 391H685L640 49H735L728 0ZM29 0 707 780H777L99 0ZM76 780H333L328 740L137 390H75L263 732L207 731H123L110 640H57Z" glyph-name="sevensixteenths" horiz-adv-x="1100" unicode="&#61976;" /><glyph d="M307 425Q247 425 199.5 396Q152 367 121 319Q120 312 118 304Q115 291 112 266Q105 210 114.5 170Q124 130 146 104.5Q168 79 199.5 67Q231 55 267 55H273Q353 55 402 101Q451 147 462 233L463 241Q468 284 459.5 318.5Q451 353 431 376.5Q411 400 381 412.5Q351 425 312 425ZM563 725Q524 721 485 713.5Q446 706 407 692Q368 678 329.5 655Q291 632 254 597Q209 555 180.5 504.5Q152 454 139 408Q153 425 173.5 440Q194 455 218 466Q242 477 268 483.5Q294 490 320 490Q374 490 417.5 474.5Q461 459 489.5 428Q518 397 530.5 350.5Q543 304 536 243L535 235Q527 173 504.5 127Q482 81 447.5 50.5Q413 20 367.5 4.5Q322 -11 269 -11Q210 -11 164 8.5Q118 28 87.5 65Q57 102 44.5 155Q32 208 41 275L43 289Q49 332 60.5 378Q72 424 91 470Q110 516 137 559Q164 602 202 640Q245 683 290.5 711Q336 739 382.5 756Q429 773 476.5 780.5Q524 788 572 791Z" glyph-name="six" horiz-adv-x="600" unicode="6" /><glyph d="M99 -4Q76 -4 56 -16.5Q36 -29 23 -49Q22 -55 20.5 -65.5Q19 -76 19 -88Q18 -120 32.5 -138.5Q47 -157 76 -157H82Q109 -157 132 -139.5Q155 -122 160 -83L161 -75Q166 -40 150.5 -22Q135 -4 105 -4ZM229 146Q188 146 151.5 132.5Q115 119 85 88Q68 71 58 53Q48 35 41 16Q55 29 75 37.5Q95 46 121 46Q143 46 162.5 38.5Q182 31 195.5 16Q209 1 215 -22Q221 -45 217 -75L216 -83Q209 -140 173.5 -173.5Q138 -207 79 -207Q16 -207 -13 -169Q-42 -131 -34 -62L-33 -54Q-26 1 -7.5 42Q11 83 44 120Q83 164 132.5 180Q182 196 235 196Z" glyph-name="six.inf" horiz-adv-x="300" unicode="&#58743;" /><glyph glyph-name="sixperemspace" horiz-adv-x="167" unicode="&#8198;" /><glyph d="M21 -120H-50L306 840H377Z" glyph-name="slash" horiz-adv-x="330" unicode="/" /><glyph d="M-20 0 274 780H346L52 0Z" glyph-name="slash.cap" horiz-adv-x="321" unicode="&#58465;" /><glyph glyph-name="space" horiz-adv-x="200" unicode=" " /><glyph d="M451 790Q463 771 486 742.5Q509 714 540 682Q571 650 607.5 618Q644 586 684 560Q717 539 746.5 515.5Q776 492 798.5 464.5Q821 437 834.5 405Q848 373 848 334Q848 297 834.5 265.5Q821 234 797 210.5Q773 187 741 173.5Q709 160 672 160Q635 160 604 173.5Q573 187 548 209.5Q523 232 504 261Q485 290 472 321L469 320Q473 269 479.5 227Q486 185 495.5 147Q505 109 518.5 73Q532 37 551 0H349Q368 37 381.5 73Q395 109 404.5 147Q414 185 420.5 227Q427 269 431 320L428 321Q415 290 396 261Q377 232 352 209.5Q327 187 296 173.5Q265 160 228 160Q191 160 159 173.5Q127 187 103 210.5Q79 234 65.5 265.5Q52 297 52 334Q52 373 65.5 405Q79 437 101.5 464.5Q124 492 153.5 515.5Q183 539 216 560Q256 586 292.5 618Q329 650 360 682Q391 714 414 742.5Q437 771 449 790Z" glyph-name="spade" horiz-adv-x="900" unicode="&#9824;" /><glyph d="M208 186 412 390 208 594 256 642 460 438 664 642 712 594 508 390 712 186 664 138 460 342 256 138ZM134 716V64H786V716ZM70 0V780H850V0Z" glyph-name="squaremultiply" horiz-adv-x="920" unicode="&#8864;" /><glyph d="M366 726Q323 726 293.5 710.5Q264 695 245.5 666.5Q227 638 219 598Q211 558 211 509Q211 489 213 465Q215 441 218 416H418L409 351H226Q234 283 242 210.5Q250 138 244 66H504L495 0H7L15 66H180Q184 143 173 212.5Q162 282 152 351H52L61 416H141Q139 434 138 456.5Q137 479 137 517Q137 576 149 626Q161 676 188.5 713Q216 750 259.5 770.5Q303 791 366 791Q430 791 473 772Q516 753 539.5 718.5Q563 684 569.5 635.5Q576 587 568 529L564 500H494Q501 549 499 590.5Q497 632 482.5 662Q468 692 439.5 709Q411 726 366 726Z" glyph-name="sterling" horiz-adv-x="600" unicode="&#163;" /><glyph d="M373 530 365 467H197L156 155Q152 123 156.5 103Q161 83 171.5 72Q182 61 198.5 56.5Q215 52 235 52Q258 52 276.5 55.5Q295 59 302 61L294 0Q287 -2 269.5 -6.5Q252 -11 225 -11Q189 -11 160.5 -2Q132 7 113.5 26Q95 45 87 75Q79 105 85 148L127 467H43L51 530H135L155 680H225L205 530Z" glyph-name="t" horiz-adv-x="400" unicode="t" /><glyph d="M166 233 156 155Q152 123 156.5 103Q161 83 171.5 72Q182 61 198.5 56.5Q215 52 235 52Q258 52 276.5 55.5Q295 59 302 61L294 0Q287 -2 269.5 -6.5Q252 -11 225 -11Q189 -11 160.5 -2Q132 7 113.5 26Q95 45 87 75Q79 105 85 148L96 233H15L24 297H104L127 467H43L51 530H135L155 680H225L205 530H373L365 467H197L174 297H305L296 233Z" glyph-name="tbar" horiz-adv-x="400" unicode="&#359;" /><glyph d="M373 530 365 467H197L156 155Q152 123 156.5 103Q161 83 171.5 72Q182 61 198.5 56.5Q215 52 235 52Q258 52 276.5 55.5Q295 59 302 61L294 0Q287 -2 269.5 -6.5Q252 -11 225 -11Q189 -11 160.5 -2Q132 7 113.5 26Q95 45 87 75Q79 105 85 148L127 467H43L51 530H135L155 680H225L205 530ZM372 800 330 614H290L315 800Z" glyph-name="tcaron" horiz-adv-x="400" unicode="&#357;" /><glyph d="M373 530 365 467H197L156 155Q152 123 156.5 103Q161 83 171.5 72Q182 61 198.5 56.5Q215 52 235 52Q258 52 276.5 55.5Q295 59 302 61L294 0Q287 -2 269.5 -6.5Q252 -11 225 -11Q189 -11 160.5 -2Q132 7 113.5 26Q95 45 87 75Q79 105 85 148L127 467H43L51 530H135L155 680H225L205 530ZM209 -107Q202 -159 171.5 -186.5Q141 -214 90 -214L95 -178Q121 -178 140.5 -165.5Q160 -153 168 -124H126L135 -56H216Z" glyph-name="tcommaaccent" horiz-adv-x="400" unicode="&#355;" /><glyph d="M238 740H159L168 810H247ZM373 530 365 467H197L156 155Q152 123 156.5 103Q161 83 171.5 72Q182 61 198.5 56.5Q215 52 235 52Q258 52 276.5 55.5Q295 59 302 61L294 0Q287 -2 269.5 -6.5Q252 -11 225 -11Q189 -11 160.5 -2Q132 7 113.5 26Q95 45 87 75Q79 105 85 148L127 467H43L51 530H135L155 680H225L205 530Z" glyph-name="tdotaccent" horiz-adv-x="400" unicode="&#7787;" /><glyph glyph-name="thinspace" horiz-adv-x="150" unicode="&#8201;" /><glyph d="M1226 196Q1203 196 1183 183.5Q1163 171 1150 151Q1149 145 1147.5 134.5Q1146 124 1146 112Q1145 80 1159.5 61.5Q1174 43 1203 43H1209Q1236 43 1259 60.5Q1282 78 1287 117L1288 125Q1293 160 1277.5 178Q1262 196 1232 196ZM1356 346Q1315 346 1278.5 332.5Q1242 319 1212 288Q1195 271 1185 253Q1175 235 1168 216Q1182 229 1202 237.5Q1222 246 1248 246Q1270 246 1289.5 238.5Q1309 231 1322.5 216Q1336 201 1342 178Q1348 155 1344 125L1343 117Q1336 60 1300.5 26.5Q1265 -7 1206 -7Q1143 -7 1114 31Q1085 69 1093 138L1094 146Q1101 201 1119.5 242Q1138 283 1171 320Q1210 364 1259.5 380Q1309 396 1362 396ZM783 0 790 49H884L920 319L835 266L813 308L945 391H985L940 49H1035L1028 0ZM329 0 1007 780H1077L399 0ZM397 515Q389 469 405.5 451Q422 433 454 433H461Q487 433 508.5 445.5Q530 458 535 492L536 500Q540 532 524.5 548Q509 564 480 564H425L431 614H485Q517 614 535 626.5Q553 639 557 668L558 676Q562 708 545 722Q528 736 500 736H494Q464 736 443 717Q422 698 417 650H361L364 672Q372 725 403 755.5Q434 786 497 786Q530 786 553.5 777.5Q577 769 591.5 754.5Q606 740 612 721Q618 702 615 680L614 672Q610 639 590.5 616.5Q571 594 545 589Q571 582 584 557Q597 532 592 499L591 491Q585 445 550.5 414Q516 383 457 383Q385 383 358 415.5Q331 448 339 507L340 515ZM34 390 41 439H135L171 709L86 656L64 698L196 781H236L191 439H286L279 390Z" glyph-name="thirteensixteenths" horiz-adv-x="1400" unicode="&#61985;" /><glyph d="M231 52Q306 52 348 105Q390 158 403 251L406 273Q419 369 388 423.5Q357 478 282 478Q231 478 196.5 455.5Q162 433 139 402L105 139Q111 125 122 109.5Q133 94 148.5 81Q164 68 184.5 60Q205 52 231 52ZM192 800 149 474Q172 503 210.5 522Q249 541 299 541Q353 541 390.5 520.5Q428 500 450 464.5Q472 429 478.5 380.5Q485 332 477 275L474 253Q466 195 448.5 146.5Q431 98 402.5 63Q374 28 334 8.5Q294 -11 240 -11Q210 -11 185.5 -3Q161 5 143 16.5Q125 28 113 41Q101 54 95 65L60 -200H-10L122 800Z" glyph-name="thorn" horiz-adv-x="537" unicode="&#254;" /><glyph d="M105 250Q96 199 103.5 162Q111 125 132 100.5Q153 76 186.5 64.5Q220 53 262 53H268Q302 53 333 62.5Q364 72 389 91Q414 110 431 138.5Q448 167 453 206L454 214Q464 290 424 328Q384 366 312 366H198L207 430H316Q352 430 383 438Q414 446 438 462.5Q462 479 477 505.5Q492 532 497 569L498 577Q502 612 492.5 639.5Q483 667 462.5 686.5Q442 706 411 716.5Q380 727 343 727H336Q250 727 205 678Q160 629 146 520H75L78 542Q86 600 104.5 646Q123 692 155 724.5Q187 757 233 774Q279 791 342 791Q402 791 447.5 775Q493 759 522 730.5Q551 702 564 663.5Q577 625 571 579L570 571Q561 501 519 456.5Q477 412 418 397Q475 381 505.5 332.5Q536 284 527 210L526 202Q520 155 498.5 116Q477 77 442.5 49Q408 21 363 5Q318 -11 266 -11Q199 -11 151.5 7Q104 25 74.5 57.5Q45 90 34.5 135.5Q24 181 32 236L34 250Z" glyph-name="three" horiz-adv-x="600" unicode="3" /><glyph d="M19 -75Q11 -121 27.5 -139Q44 -157 76 -157H83Q109 -157 130.5 -144.5Q152 -132 157 -98L158 -90Q162 -58 146.5 -42Q131 -26 102 -26H47L53 24H107Q139 24 157 36.5Q175 49 179 78L180 86Q184 118 167 132Q150 146 122 146H116Q86 146 65 127Q44 108 39 60H-17L-14 82Q-6 135 25 165.5Q56 196 119 196Q152 196 175.5 187.5Q199 179 213.5 164.5Q228 150 234 131Q240 112 237 90L236 82Q232 49 212.5 26.5Q193 4 167 -1Q193 -8 206 -33Q219 -58 214 -91L213 -99Q207 -145 172.5 -176Q138 -207 79 -207Q7 -207 -20 -174.5Q-47 -142 -39 -83L-38 -75Z" glyph-name="three.inf" horiz-adv-x="300" unicode="&#58740;" /><glyph glyph-name="threeperemspace" horiz-adv-x="333" unicode="&#8196;" /><glyph d="M41 382H711L702 318H32Z" glyph-name="threequarteremdash" horiz-adv-x="750" unicode="&#58482;" /><glyph d="M46 422H716L707 358H37Z" glyph-name="threequarteremdash.cap" horiz-adv-x="750" unicode="&#58501;" /><glyph d="M548 143 584 144H645L660 255L666 297ZM626 0 639 95H477L482 135L677 390H733L701 144H755L748 95H694L682 0ZM29 0 707 780H777L99 0ZM97 515Q89 469 105.5 451Q122 433 154 433H161Q187 433 208.5 445.5Q230 458 235 492L236 500Q240 532 224.5 548Q209 564 180 564H125L131 614H185Q217 614 235 626.5Q253 639 257 668L258 676Q262 708 245 722Q228 736 200 736H194Q164 736 143 717Q122 698 117 650H61L64 672Q72 725 103 755.5Q134 786 197 786Q230 786 253.5 777.5Q277 769 291.5 754.5Q306 740 312 721Q318 702 315 680L314 672Q310 639 290.5 616.5Q271 594 245 589Q271 582 284 557Q297 532 292 499L291 491Q285 445 250.5 414Q216 383 157 383Q85 383 58 415.5Q31 448 39 507L40 515Z" glyph-name="threequarters" horiz-adv-x="800" unicode="&#190;" /><glyph d="M926 196Q903 196 883 183.5Q863 171 850 151Q849 145 847.5 134.5Q846 124 846 112Q845 80 859.5 61.5Q874 43 903 43H909Q936 43 959 60.5Q982 78 987 117L988 125Q993 160 977.5 178Q962 196 932 196ZM1056 346Q1015 346 978.5 332.5Q942 319 912 288Q895 271 885 253Q875 235 868 216Q882 229 902 237.5Q922 246 948 246Q970 246 989.5 238.5Q1009 231 1022.5 216Q1036 201 1042 178Q1048 155 1044 125L1043 117Q1036 60 1000.5 26.5Q965 -7 906 -7Q843 -7 814 31Q785 69 793 138L794 146Q801 201 819.5 242Q838 283 871 320Q910 364 959.5 380Q1009 396 1062 396ZM483 0 490 49H584L620 319L535 266L513 308L645 391H685L640 49H735L728 0ZM29 0 707 780H777L99 0ZM97 515Q89 469 105.5 451Q122 433 154 433H161Q187 433 208.5 445.5Q230 458 235 492L236 500Q240 532 224.5 548Q209 564 180 564H125L131 614H185Q217 614 235 626.5Q253 639 257 668L258 676Q262 708 245 722Q228 736 200 736H194Q164 736 143 717Q122 698 117 650H61L64 672Q72 725 103 755.5Q134 786 197 786Q230 786 253.5 777.5Q277 769 291.5 754.5Q306 740 312 721Q318 702 315 680L314 672Q310 639 290.5 616.5Q271 594 245 589Q271 582 284 557Q297 532 292 499L291 491Q285 445 250.5 414Q216 383 157 383Q85 383 58 415.5Q31 448 39 507L40 515Z" glyph-name="threesixteenths" horiz-adv-x="1100" unicode="&#61974;" /><glyph d="M97 515Q89 469 105.5 451Q122 433 154 433H161Q187 433 208.5 445.5Q230 458 235 492L236 500Q240 532 224.5 548Q209 564 180 564H125L131 614H185Q217 614 235 626.5Q253 639 257 668L258 676Q262 708 245 722Q228 736 200 736H194Q164 736 143 717Q122 698 117 650H61L64 672Q72 725 103 755.5Q134 786 197 786Q230 786 253.5 777.5Q277 769 291.5 754.5Q306 740 312 721Q318 702 315 680L314 672Q310 639 290.5 616.5Q271 594 245 589Q271 582 284 557Q297 532 292 499L291 491Q285 445 250.5 414Q216 383 157 383Q85 383 58 415.5Q31 448 39 507L40 515Z" glyph-name="threesuperior" horiz-adv-x="300" unicode="&#179;" /><glyph d="M455 746Q447 692 421.5 667.5Q396 643 360 643Q338 643 320 652Q302 661 286 672Q270 683 255.5 692Q241 701 225 701Q210 701 198.5 690.5Q187 680 184 654H131Q138 708 163.5 732.5Q189 757 225 757Q247 757 265 748Q283 739 299 728Q315 717 329.5 708Q344 699 360 699Q375 699 386.5 709.5Q398 720 402 746Z" glyph-name="tilde" horiz-adv-x="500" unicode="&#732;" /><glyph d="M475 936Q470 887 443.5 865Q417 843 382 843Q359 843 342 852Q325 861 310.5 872Q296 883 282.5 892Q269 901 254 901Q237 901 224 890Q211 879 209 854H161Q166 903 192.5 925Q219 947 254 947Q276 947 293.5 938Q311 929 325.5 918Q340 907 353.5 898Q367 889 382 889Q399 889 412 900Q425 911 427 936Z" glyph-name="tilde.cap" horiz-adv-x="500" unicode="&#58404;" /><glyph d="M376 530H329L274 734L276 667V530H234V800H297L352 597L407 800H471V530H429V667L431 734ZM131 530H89V762H19V800H201V762H131Z" glyph-name="trademark" horiz-adv-x="523" unicode="&#8482;" /><glyph d="M64 780H136L465 64L794 780H866L500 -11H430Z" glyph-name="triagdn" horiz-adv-x="930" unicode="&#9660;" /><glyph d="M850 791V719L134 390L850 61V-11L59 355V425Z" glyph-name="triaglf" horiz-adv-x="930" unicode="&#9668;" /><glyph d="M871 355 80 -11V61L796 390L80 719V791L871 425Z" glyph-name="triagrt" horiz-adv-x="930" unicode="&#9658;" /><glyph d="M866 0H794L465 716L136 0H64L430 791H500Z" glyph-name="triagup" horiz-adv-x="930" unicode="&#9650;" /><glyph d="M443 780 393 511H343L364 780ZM322 780 272 511H222L243 780ZM201 780 151 511H101L122 780Z" glyph-name="tripleprime" horiz-adv-x="460" unicode="&#8244;" /><glyph d="M504 66 495 0H7L13 49L396 403Q419 425 436.5 443.5Q454 462 466.5 481Q479 500 486.5 519.5Q494 539 497 562L498 570Q502 606 493 635Q484 664 463 684.5Q442 705 411.5 716Q381 727 343 727H336Q251 727 205.5 678Q160 629 146 520H75L78 542Q86 600 104.5 646Q123 692 155 724.5Q187 757 233 774Q279 791 342 791Q401 791 446.5 775Q492 759 521.5 730.5Q551 702 564 662.5Q577 623 571 577L570 569Q566 535 558.5 509.5Q551 484 537.5 462Q524 440 504 418Q484 396 455 369L125 65L201 66Z" glyph-name="two" horiz-adv-x="600" unicode="2" /><glyph d="M199 -200H-51L-46 -160L136 8Q156 27 166 41.5Q176 56 178 74L179 82Q184 116 167 131Q150 146 122 146H116Q86 146 65 127Q44 108 39 60H-17L-14 82Q-6 135 25 165.5Q56 196 119 196Q153 196 176.5 187Q200 178 214 163Q228 148 233.5 128Q239 108 236 86L235 78Q231 46 215.5 25Q200 4 177 -18L33 -151H206Z" glyph-name="two.inf" horiz-adv-x="300" unicode="&#58739;" /><glyph d="M277 390H27L32 430L214 598Q234 617 244 631.5Q254 646 256 664L257 672Q262 706 245 721Q228 736 200 736H194Q164 736 143 717Q122 698 117 650H61L64 672Q72 725 103 755.5Q134 786 197 786Q231 786 254.5 777Q278 768 292 753Q306 738 311.5 718Q317 698 314 676L313 668Q309 636 293.5 615Q278 594 255 572L111 439H284Z" glyph-name="twosuperior" horiz-adv-x="300" unicode="&#178;" /><glyph d="M152 530 104 169Q96 109 123.5 80.5Q151 52 208 52Q237 52 261 60Q285 68 304 80.5Q323 93 337 107.5Q351 122 360 135L412 530H482L431 144L418 0H358V74Q330 36 286 12.5Q242 -11 184 -11Q98 -11 60.5 36.5Q23 84 33 159L82 530Z" glyph-name="u" horiz-adv-x="528" unicode="u" /><glyph d="M152 530 104 169Q96 109 123.5 80.5Q151 52 208 52Q237 52 261 60Q285 68 304 80.5Q323 93 337 107.5Q351 122 360 135L412 530H482L431 144L418 0H358V74Q330 36 286 12.5Q242 -11 184 -11Q98 -11 60.5 36.5Q23 84 33 159L82 530ZM444 780 328 614H256L368 780Z" glyph-name="uacute" horiz-adv-x="528" unicode="&#250;" /><glyph d="M152 530 104 169Q96 109 123.5 80.5Q151 52 208 52Q237 52 261 60Q285 68 304 80.5Q323 93 337 107.5Q351 122 360 135L412 530H482L431 144L418 0H358V74Q330 36 286 12.5Q242 -11 184 -11Q98 -11 60.5 36.5Q23 84 33 159L82 530ZM295 603Q252 603 222.5 616Q193 629 175.5 652.5Q158 676 153 708.5Q148 741 153 780H207Q200 725 219.5 691.5Q239 658 295 658Q351 658 380.5 691.5Q410 725 417 780H475Q470 741 457.5 708.5Q445 676 423 652.5Q401 629 369.5 616Q338 603 295 603Z" glyph-name="ubreve" horiz-adv-x="528" unicode="&#365;" /><glyph d="M152 530 104 169Q96 109 123.5 80.5Q151 52 208 52Q237 52 261 60Q285 68 304 80.5Q323 93 337 107.5Q351 122 360 135L412 530H482L431 144L418 0H358V74Q330 36 286 12.5Q242 -11 184 -11Q98 -11 60.5 36.5Q23 84 33 159L82 530ZM130 614 283 780H345L454 614H388L310 727L203 614Z" glyph-name="ucircumflex" horiz-adv-x="528" unicode="&#251;" /><glyph d="M152 530 104 169Q96 109 123.5 80.5Q151 52 208 52Q237 52 261 60Q285 68 304 80.5Q323 93 337 107.5Q351 122 360 135L412 530H482L431 144L418 0H358V74Q330 36 286 12.5Q242 -11 184 -11Q98 -11 60.5 36.5Q23 84 33 159L82 530ZM426 655H336L348 745H438ZM259 655H169L181 745H271Z" glyph-name="udieresis" horiz-adv-x="528" unicode="&#252;" /><glyph d="M152 530 104 169Q96 109 123.5 80.5Q151 52 208 52Q237 52 261 60Q285 68 304 80.5Q323 93 337 107.5Q351 122 360 135L412 530H482L431 144L418 0H358V74Q330 36 286 12.5Q242 -11 184 -11Q98 -11 60.5 36.5Q23 84 33 159L82 530ZM260 780 328 614H256L184 780Z" glyph-name="ugrave" horiz-adv-x="528" unicode="&#249;" /><glyph d="M152 530 104 169Q96 109 123.5 80.5Q151 52 208 52Q237 52 261 60Q285 68 304 80.5Q323 93 337 107.5Q351 122 360 135L412 530H482L431 144L418 0H358V74Q330 36 286 12.5Q242 -11 184 -11Q98 -11 60.5 36.5Q23 84 33 159L82 530ZM372 780 262 614H199L305 780ZM502 780 385 614H322L434 780Z" glyph-name="uhungarumlaut" horiz-adv-x="528" unicode="&#369;" /><glyph d="M152 530 104 169Q96 109 123.5 80.5Q151 52 208 52Q237 52 261 60Q285 68 304 80.5Q323 93 337 107.5Q351 122 360 135L412 530H482L431 144L418 0H358V74Q330 36 286 12.5Q242 -11 184 -11Q98 -11 60.5 36.5Q23 84 33 159L82 530ZM191 730H424L416 664H182Z" glyph-name="umacron" horiz-adv-x="528" unicode="&#363;" /><glyph d="M-10 -71H214L205 -135H-19Z" glyph-name="underscore" horiz-adv-x="320" unicode="_" /><glyph d="M-10 -71H494L485 -135H-19Z" glyph-name="underscoremonospace" horiz-adv-x="600" unicode="&#65343;" /><glyph d="M32 318 41 382H289L280 318Z" glyph-name="uni00AD" horiz-adv-x="329" unicode="&#173;" /><glyph d="M41 382H1161L1152 318H32Z" glyph-name="uni2015" horiz-adv-x="1200" unicode="&#8213;" /><glyph d="M46 422H1166L1157 358H37Z" glyph-name="uni2015.cap" horiz-adv-x="1200" unicode="&#58504;" /><glyph d="M107 501Q99 442 158 442H161Q190 442 205 455.5Q220 469 225 501L247 669Q255 728 196 728H193Q163 728 148 714Q133 700 129 668ZM291 501Q283 445 252.5 414Q222 383 158 383Q92 383 63 416.5Q34 450 41 501L63 669Q70 724 101 755Q132 786 196 786Q262 786 291 753Q320 720 313 669Z" glyph-name="uni2070" horiz-adv-x="300" unicode="&#8304;" /><glyph d="M99 533 135 534H196L211 645L217 687ZM177 390 190 485H28L33 525L228 780H284L252 534H306L299 485H245L233 390Z" glyph-name="uni2074" horiz-adv-x="300" unicode="&#8308;" /><glyph d="M97 515Q89 469 105.5 451Q122 433 154 433H160Q187 433 210 450.5Q233 468 238 507L239 515Q244 553 227.5 571.5Q211 590 182 590H176Q121 590 96 548L49 563L88 780H325L319 730H131L110 613Q120 623 140.5 631.5Q161 640 184 640Q241 640 272 610Q303 580 295 515L294 507Q287 450 251.5 416.5Q216 383 157 383Q85 383 58 415.5Q31 448 39 507L40 515Z" glyph-name="uni2075" horiz-adv-x="300" unicode="&#8309;" /><glyph d="M177 586Q154 586 134 573.5Q114 561 101 541Q100 535 98.5 524.5Q97 514 97 502Q96 470 110.5 451.5Q125 433 154 433H160Q187 433 210 450.5Q233 468 238 507L239 515Q244 550 228.5 568Q213 586 183 586ZM307 736Q266 736 229.5 722.5Q193 709 163 678Q146 661 136 643Q126 625 119 606Q133 619 153 627.5Q173 636 199 636Q221 636 240.5 628.5Q260 621 273.5 606Q287 591 293 568Q299 545 295 515L294 507Q287 450 251.5 416.5Q216 383 157 383Q94 383 65 421Q36 459 44 528L45 536Q52 591 70.5 632Q89 673 122 710Q161 754 210.5 770Q260 786 313 786Z" glyph-name="uni2076" horiz-adv-x="300" unicode="&#8310;" /><glyph d="M76 780H333L328 740L137 390H75L263 732L207 731H123L110 640H57Z" glyph-name="uni2077" horiz-adv-x="300" unicode="&#8311;" /><glyph d="M161 432Q187 432 208.5 445Q230 458 235 492L236 500Q240 532 224.5 548Q209 564 180 564H170Q138 564 120 548.5Q102 533 98 504L97 496Q93 464 109.5 448Q126 432 154 432ZM193 736Q167 736 145.5 724Q124 712 120 681L119 673Q116 647 131 630.5Q146 614 176 614H185Q217 614 235.5 628Q254 642 257 668L258 676Q262 706 244.5 721Q227 736 199 736ZM157 382Q122 382 98 391.5Q74 401 60.5 416.5Q47 432 42 452Q37 472 40 493L41 501Q45 534 65.5 559Q86 584 112 589Q87 597 73 619Q59 641 63 673L64 681Q70 727 103 756.5Q136 786 196 786Q229 786 252.5 777.5Q276 769 291 754.5Q306 740 312 721Q318 702 315 680L314 672Q310 639 290.5 616.5Q271 594 245 589Q271 582 284 557Q297 532 292 499L291 491Q285 445 252 413.5Q219 382 157 382Z" glyph-name="uni2078" horiz-adv-x="300" unicode="&#8312;" /><glyph d="M177 583Q200 583 220 595.5Q240 608 253 628Q254 634 255.5 644.5Q257 655 257 667Q258 699 243.5 717.5Q229 736 200 736H194Q167 736 144 718.5Q121 701 116 662L115 654Q110 619 125.5 601Q141 583 171 583ZM45 433Q86 433 123.5 446.5Q161 460 191 491Q208 508 218 526Q228 544 235 563Q221 550 201 541.5Q181 533 155 533Q132 533 113 540.5Q94 548 80.5 563Q67 578 61 601Q55 624 59 654L60 662Q67 719 102.5 752.5Q138 786 197 786Q260 786 289 748Q318 710 310 641L309 633Q302 578 283.5 537Q265 496 232 459Q193 415 142.5 399Q92 383 39 383Z" glyph-name="uni2079" horiz-adv-x="300" unicode="&#8313;" /><glyph d="M219 712 206 610H309L301 559H199L186 458H135L148 559H46L54 610H156L169 712Z" glyph-name="uni207A" horiz-adv-x="300" unicode="&#8314;" /><glyph d="M54 610H309L301 559H46Z" glyph-name="uni207B" horiz-adv-x="300" unicode="&#8315;" /><glyph d="M45 554H300L292 503H37ZM63 666H318L310 615H55Z" glyph-name="uni207C" horiz-adv-x="300" unicode="&#8316;" /><glyph d="M54 592Q62 660 85 704.5Q108 749 138 780H198Q170 749 144 701.5Q118 654 110 592L109 584Q105 552 107 524Q109 496 115 471.5Q121 447 129 426.5Q137 406 146 390H90Q81 405 73 426.5Q65 448 59.5 473.5Q54 499 52 527Q50 555 53 584Z" glyph-name="uni207D" horiz-adv-x="169" unicode="&#8317;" /><glyph d="M169 578Q161 510 138 465.5Q115 421 85 390H25Q53 421 79 468.5Q105 516 113 578L114 586Q118 617 116 645.5Q114 674 108 698.5Q102 723 94 743.5Q86 764 77 780H133Q142 765 150 743.5Q158 722 163.5 696.5Q169 671 171 643Q173 615 170 586Z" glyph-name="uni207E" horiz-adv-x="169" unicode="&#8318;" /><glyph d="M56 111Q48 52 107 52H110Q139 52 154 65.5Q169 79 174 111L196 279Q204 338 145 338H142Q112 338 97 324Q82 310 78 278ZM240 111Q232 55 201.5 24Q171 -7 107 -7Q41 -7 12 26.5Q-17 60 -10 111L12 279Q19 334 50 365Q81 396 145 396Q211 396 240 363Q269 330 262 279Z" glyph-name="uni2080" horiz-adv-x="300" unicode="&#8320;" /><glyph d="M-17 0 -10 49H84L120 319L35 266L13 308L145 391H185L140 49H235L228 0Z" glyph-name="uni2081" horiz-adv-x="300" unicode="&#8321;" /><glyph d="M226 0H-24L-19 40L163 208Q183 227 193 241.5Q203 256 205 274L206 282Q211 316 194 331Q177 346 149 346H143Q113 346 92 327Q71 308 66 260H10L13 282Q21 335 52 365.5Q83 396 146 396Q180 396 203.5 387Q227 378 241 363Q255 348 260.5 328Q266 308 263 286L262 278Q258 246 242.5 225Q227 204 204 182L60 49H233Z" glyph-name="uni2082" horiz-adv-x="300" unicode="&#8322;" /><glyph d="M46 125Q38 79 54.5 61Q71 43 103 43H110Q136 43 157.5 55.5Q179 68 184 102L185 110Q189 142 173.5 158Q158 174 129 174H74L80 224H134Q166 224 184 236.5Q202 249 206 278L207 286Q211 318 194 332Q177 346 149 346H143Q113 346 92 327Q71 308 66 260H10L13 282Q21 335 52 365.5Q83 396 146 396Q179 396 202.5 387.5Q226 379 240.5 364.5Q255 350 261 331Q267 312 264 290L263 282Q259 249 239.5 226.5Q220 204 194 199Q220 192 233 167Q246 142 241 109L240 101Q234 55 199.5 24Q165 -7 106 -7Q34 -7 7 25.5Q-20 58 -12 117L-11 125Z" glyph-name="uni2083" horiz-adv-x="300" unicode="&#8323;" /><glyph d="M48 143 84 144H145L160 255L166 297ZM126 0 139 95H-23L-18 135L177 390H233L201 144H255L248 95H194L182 0Z" glyph-name="uni2084" horiz-adv-x="300" unicode="&#8324;" /><glyph d="M46 125Q38 79 54.5 61Q71 43 103 43H109Q136 43 159 60.5Q182 78 187 117L188 125Q193 163 176.5 181.5Q160 200 131 200H125Q70 200 45 158L-2 173L37 390H274L268 340H80L59 223Q69 233 89.5 241.5Q110 250 133 250Q190 250 221 220Q252 190 244 125L243 117Q236 60 200.5 26.5Q165 -7 106 -7Q34 -7 7 25.5Q-20 58 -12 117L-11 125Z" glyph-name="uni2085" horiz-adv-x="300" unicode="&#8325;" /><glyph d="M126 196Q103 196 83 183.5Q63 171 50 151Q49 145 47.5 134.5Q46 124 46 112Q45 80 59.5 61.5Q74 43 103 43H109Q136 43 159 60.5Q182 78 187 117L188 125Q193 160 177.5 178Q162 196 132 196ZM256 346Q215 346 178.5 332.5Q142 319 112 288Q95 271 85 253Q75 235 68 216Q82 229 102 237.5Q122 246 148 246Q170 246 189.5 238.5Q209 231 222.5 216Q236 201 242 178Q248 155 244 125L243 117Q236 60 200.5 26.5Q165 -7 106 -7Q43 -7 14 31Q-15 69 -7 138L-6 146Q1 201 19.5 242Q38 283 71 320Q110 364 159.5 380Q209 396 262 396Z" glyph-name="uni2086" horiz-adv-x="300" unicode="&#8326;" /><glyph d="M25 390H282L277 350L86 0H24L212 342L156 341H72L59 250H6Z" glyph-name="uni2087" horiz-adv-x="300" unicode="&#8327;" /><glyph d="M110 42Q136 42 157.5 55Q179 68 184 102L185 110Q189 142 173.5 158Q158 174 129 174H119Q87 174 69 158.5Q51 143 47 114L46 106Q42 74 58.5 58Q75 42 103 42ZM142 346Q116 346 94.5 334Q73 322 69 291L68 283Q65 257 80 240.5Q95 224 125 224H134Q166 224 184.5 238Q203 252 206 278L207 286Q211 316 193.5 331Q176 346 148 346ZM106 -8Q71 -8 47 1.5Q23 11 9.5 26.5Q-4 42 -9 62Q-14 82 -11 103L-10 111Q-6 144 14.5 169Q35 194 61 199Q36 207 22 229Q8 251 12 283L13 291Q19 337 52 366.5Q85 396 145 396Q178 396 201.5 387.5Q225 379 240 364.5Q255 350 261 331Q267 312 264 290L263 282Q259 249 239.5 226.5Q220 204 194 199Q220 192 233 167Q246 142 241 109L240 101Q234 55 201 23.5Q168 -8 106 -8Z" glyph-name="uni2088" horiz-adv-x="300" unicode="&#8328;" /><glyph d="M126 193Q149 193 169 205.5Q189 218 202 238Q203 244 204.5 254.5Q206 265 206 277Q207 309 192.5 327.5Q178 346 149 346H143Q116 346 93 328.5Q70 311 65 272L64 264Q59 229 74.5 211Q90 193 120 193ZM-6 43Q35 43 72.5 56.5Q110 70 140 101Q157 118 167 136Q177 154 184 173Q170 160 150 151.5Q130 143 104 143Q81 143 62 150.5Q43 158 29.5 173Q16 188 10 211Q4 234 8 264L9 272Q16 329 51.5 362.5Q87 396 146 396Q209 396 238 358Q267 320 259 251L258 243Q251 188 232.5 147Q214 106 181 69Q142 25 91.5 9Q41 -7 -12 -7Z" glyph-name="uni2089" horiz-adv-x="300" unicode="&#8329;" /><glyph d="M168 322 155 220H258L250 169H148L135 68H84L97 169H-5L3 220H105L118 322Z" glyph-name="uni208A" horiz-adv-x="300" unicode="&#8330;" /><glyph d="M3 220H258L250 169H-5Z" glyph-name="uni208B" horiz-adv-x="300" unicode="&#8331;" /><glyph d="M-6 164H249L241 113H-14ZM12 276H267L259 225H4Z" glyph-name="uni208C" horiz-adv-x="300" unicode="&#8332;" /><glyph d="M3 202Q11 270 34 314.5Q57 359 87 390H147Q119 359 93 311.5Q67 264 59 202L58 194Q54 162 56 134Q58 106 64 81.5Q70 57 78 36.5Q86 16 95 0H39Q30 15 22 36.5Q14 58 8.5 83.5Q3 109 1 137Q-1 165 2 194Z" glyph-name="uni208D" horiz-adv-x="169" unicode="&#8333;" /><glyph d="M118 188Q110 120 87 75.5Q64 31 34 0H-26Q2 31 28 78.5Q54 126 62 188L63 196Q67 227 65 255.5Q63 284 57 308.5Q51 333 43 353.5Q35 374 26 390H82Q91 375 99 353.5Q107 332 112.5 306.5Q118 281 120 253Q122 225 119 196Z" glyph-name="uni208E" horiz-adv-x="169" unicode="&#8334;" /><glyph d="M546 125Q538 79 554.5 61Q571 43 603 43H610Q636 43 657.5 55.5Q679 68 684 102L685 110Q689 142 673.5 158Q658 174 629 174H574L580 224H634Q666 224 684 236.5Q702 249 706 278L707 286Q711 318 694 332Q677 346 649 346H643Q613 346 592 327Q571 308 566 260H510L513 282Q521 335 552 365.5Q583 396 646 396Q679 396 702.5 387.5Q726 379 740.5 364.5Q755 350 761 331Q767 312 764 290L763 282Q759 249 739.5 226.5Q720 204 694 199Q720 192 733 167Q746 142 741 109L740 101Q734 55 699.5 24Q665 -7 606 -7Q534 -7 507 25.5Q480 58 488 117L489 125ZM29 0 707 780H777L99 0ZM34 390 41 439H135L171 709L86 656L64 698L196 781H236L191 439H286L279 390Z" glyph-name="uni2153" horiz-adv-x="800" unicode="&#8531;" /><glyph d="M546 125Q538 79 554.5 61Q571 43 603 43H610Q636 43 657.5 55.5Q679 68 684 102L685 110Q689 142 673.5 158Q658 174 629 174H574L580 224H634Q666 224 684 236.5Q702 249 706 278L707 286Q711 318 694 332Q677 346 649 346H643Q613 346 592 327Q571 308 566 260H510L513 282Q521 335 552 365.5Q583 396 646 396Q679 396 702.5 387.5Q726 379 740.5 364.5Q755 350 761 331Q767 312 764 290L763 282Q759 249 739.5 226.5Q720 204 694 199Q720 192 733 167Q746 142 741 109L740 101Q734 55 699.5 24Q665 -7 606 -7Q534 -7 507 25.5Q480 58 488 117L489 125ZM29 0 707 780H777L99 0ZM277 390H27L32 430L214 598Q234 617 244 631.5Q254 646 256 664L257 672Q262 706 245 721Q228 736 200 736H194Q164 736 143 717Q122 698 117 650H61L64 672Q72 725 103 755.5Q134 786 197 786Q231 786 254.5 777Q278 768 292 753Q306 738 311.5 718Q317 698 314 676L313 668Q309 636 293.5 615Q278 594 255 572L111 439H284Z" glyph-name="uni2154" horiz-adv-x="800" unicode="&#8532;" /><glyph d="M546 125Q538 79 554.5 61Q571 43 603 43H609Q636 43 659 60.5Q682 78 687 117L688 125Q693 163 676.5 181.5Q660 200 631 200H625Q570 200 545 158L498 173L537 390H774L768 340H580L559 223Q569 233 589.5 241.5Q610 250 633 250Q690 250 721 220Q752 190 744 125L743 117Q736 60 700.5 26.5Q665 -7 606 -7Q534 -7 507 25.5Q480 58 488 117L489 125ZM29 0 707 780H777L99 0ZM34 390 41 439H135L171 709L86 656L64 698L196 781H236L191 439H286L279 390Z" glyph-name="uni2155" horiz-adv-x="800" unicode="&#8533;" /><glyph d="M546 125Q538 79 554.5 61Q571 43 603 43H609Q636 43 659 60.5Q682 78 687 117L688 125Q693 163 676.5 181.5Q660 200 631 200H625Q570 200 545 158L498 173L537 390H774L768 340H580L559 223Q569 233 589.5 241.5Q610 250 633 250Q690 250 721 220Q752 190 744 125L743 117Q736 60 700.5 26.5Q665 -7 606 -7Q534 -7 507 25.5Q480 58 488 117L489 125ZM29 0 707 780H777L99 0ZM277 390H27L32 430L214 598Q234 617 244 631.5Q254 646 256 664L257 672Q262 706 245 721Q228 736 200 736H194Q164 736 143 717Q122 698 117 650H61L64 672Q72 725 103 755.5Q134 786 197 786Q231 786 254.5 777Q278 768 292 753Q306 738 311.5 718Q317 698 314 676L313 668Q309 636 293.5 615Q278 594 255 572L111 439H284Z" glyph-name="uni2156" horiz-adv-x="800" unicode="&#8534;" /><glyph d="M546 125Q538 79 554.5 61Q571 43 603 43H609Q636 43 659 60.5Q682 78 687 117L688 125Q693 163 676.5 181.5Q660 200 631 200H625Q570 200 545 158L498 173L537 390H774L768 340H580L559 223Q569 233 589.5 241.5Q610 250 633 250Q690 250 721 220Q752 190 744 125L743 117Q736 60 700.5 26.5Q665 -7 606 -7Q534 -7 507 25.5Q480 58 488 117L489 125ZM29 0 707 780H777L99 0ZM97 515Q89 469 105.5 451Q122 433 154 433H161Q187 433 208.5 445.5Q230 458 235 492L236 500Q240 532 224.5 548Q209 564 180 564H125L131 614H185Q217 614 235 626.5Q253 639 257 668L258 676Q262 708 245 722Q228 736 200 736H194Q164 736 143 717Q122 698 117 650H61L64 672Q72 725 103 755.5Q134 786 197 786Q230 786 253.5 777.5Q277 769 291.5 754.5Q306 740 312 721Q318 702 315 680L314 672Q310 639 290.5 616.5Q271 594 245 589Q271 582 284 557Q297 532 292 499L291 491Q285 445 250.5 414Q216 383 157 383Q85 383 58 415.5Q31 448 39 507L40 515Z" glyph-name="uni2157" horiz-adv-x="800" unicode="&#8535;" /><glyph d="M546 125Q538 79 554.5 61Q571 43 603 43H609Q636 43 659 60.5Q682 78 687 117L688 125Q693 163 676.5 181.5Q660 200 631 200H625Q570 200 545 158L498 173L537 390H774L768 340H580L559 223Q569 233 589.5 241.5Q610 250 633 250Q690 250 721 220Q752 190 744 125L743 117Q736 60 700.5 26.5Q665 -7 606 -7Q534 -7 507 25.5Q480 58 488 117L489 125ZM29 0 707 780H777L99 0ZM99 533 135 534H196L211 645L217 687ZM177 390 190 485H28L33 525L228 780H284L252 534H306L299 485H245L233 390Z" glyph-name="uni2158" horiz-adv-x="800" unicode="&#8536;" /><glyph d="M626 196Q603 196 583 183.5Q563 171 550 151Q549 145 547.5 134.5Q546 124 546 112Q545 80 559.5 61.5Q574 43 603 43H609Q636 43 659 60.5Q682 78 687 117L688 125Q693 160 677.5 178Q662 196 632 196ZM756 346Q715 346 678.5 332.5Q642 319 612 288Q595 271 585 253Q575 235 568 216Q582 229 602 237.5Q622 246 648 246Q670 246 689.5 238.5Q709 231 722.5 216Q736 201 742 178Q748 155 744 125L743 117Q736 60 700.5 26.5Q665 -7 606 -7Q543 -7 514 31Q485 69 493 138L494 146Q501 201 519.5 242Q538 283 571 320Q610 364 659.5 380Q709 396 762 396ZM29 0 707 780H777L99 0ZM34 390 41 439H135L171 709L86 656L64 698L196 781H236L191 439H286L279 390Z" glyph-name="uni2159" horiz-adv-x="800" unicode="&#8537;" /><glyph d="M626 196Q603 196 583 183.5Q563 171 550 151Q549 145 547.5 134.5Q546 124 546 112Q545 80 559.5 61.5Q574 43 603 43H609Q636 43 659 60.5Q682 78 687 117L688 125Q693 160 677.5 178Q662 196 632 196ZM756 346Q715 346 678.5 332.5Q642 319 612 288Q595 271 585 253Q575 235 568 216Q582 229 602 237.5Q622 246 648 246Q670 246 689.5 238.5Q709 231 722.5 216Q736 201 742 178Q748 155 744 125L743 117Q736 60 700.5 26.5Q665 -7 606 -7Q543 -7 514 31Q485 69 493 138L494 146Q501 201 519.5 242Q538 283 571 320Q610 364 659.5 380Q709 396 762 396ZM29 0 707 780H777L99 0ZM97 515Q89 469 105.5 451Q122 433 154 433H160Q187 433 210 450.5Q233 468 238 507L239 515Q244 553 227.5 571.5Q211 590 182 590H176Q121 590 96 548L49 563L88 780H325L319 730H131L110 613Q120 623 140.5 631.5Q161 640 184 640Q241 640 272 610Q303 580 295 515L294 507Q287 450 251.5 416.5Q216 383 157 383Q85 383 58 415.5Q31 448 39 507L40 515Z" glyph-name="uni215A" horiz-adv-x="800" unicode="&#8538;" /><glyph d="M610 42Q636 42 657.5 55Q679 68 684 102L685 110Q689 142 673.5 158Q658 174 629 174H619Q587 174 569 158.5Q551 143 547 114L546 106Q542 74 558.5 58Q575 42 603 42ZM642 346Q616 346 594.5 334Q573 322 569 291L568 283Q565 257 580 240.5Q595 224 625 224H634Q666 224 684.5 238Q703 252 706 278L707 286Q711 316 693.5 331Q676 346 648 346ZM606 -8Q571 -8 547 1.5Q523 11 509.5 26.5Q496 42 491 62Q486 82 489 103L490 111Q494 144 514.5 169Q535 194 561 199Q536 207 522 229Q508 251 512 283L513 291Q519 337 552 366.5Q585 396 645 396Q678 396 701.5 387.5Q725 379 740 364.5Q755 350 761 331Q767 312 764 290L763 282Q759 249 739.5 226.5Q720 204 694 199Q720 192 733 167Q746 142 741 109L740 101Q734 55 701 23.5Q668 -8 606 -8ZM29 0 707 780H777L99 0ZM34 390 41 439H135L171 709L86 656L64 698L196 781H236L191 439H286L279 390Z" glyph-name="uni215B" horiz-adv-x="800" unicode="&#8539;" /><glyph d="M610 42Q636 42 657.5 55Q679 68 684 102L685 110Q689 142 673.5 158Q658 174 629 174H619Q587 174 569 158.5Q551 143 547 114L546 106Q542 74 558.5 58Q575 42 603 42ZM642 346Q616 346 594.5 334Q573 322 569 291L568 283Q565 257 580 240.5Q595 224 625 224H634Q666 224 684.5 238Q703 252 706 278L707 286Q711 316 693.5 331Q676 346 648 346ZM606 -8Q571 -8 547 1.5Q523 11 509.5 26.5Q496 42 491 62Q486 82 489 103L490 111Q494 144 514.5 169Q535 194 561 199Q536 207 522 229Q508 251 512 283L513 291Q519 337 552 366.5Q585 396 645 396Q678 396 701.5 387.5Q725 379 740 364.5Q755 350 761 331Q767 312 764 290L763 282Q759 249 739.5 226.5Q720 204 694 199Q720 192 733 167Q746 142 741 109L740 101Q734 55 701 23.5Q668 -8 606 -8ZM29 0 707 780H777L99 0ZM97 515Q89 469 105.5 451Q122 433 154 433H161Q187 433 208.5 445.5Q230 458 235 492L236 500Q240 532 224.5 548Q209 564 180 564H125L131 614H185Q217 614 235 626.5Q253 639 257 668L258 676Q262 708 245 722Q228 736 200 736H194Q164 736 143 717Q122 698 117 650H61L64 672Q72 725 103 755.5Q134 786 197 786Q230 786 253.5 777.5Q277 769 291.5 754.5Q306 740 312 721Q318 702 315 680L314 672Q310 639 290.5 616.5Q271 594 245 589Q271 582 284 557Q297 532 292 499L291 491Q285 445 250.5 414Q216 383 157 383Q85 383 58 415.5Q31 448 39 507L40 515Z" glyph-name="uni215C" horiz-adv-x="800" unicode="&#8540;" /><glyph d="M610 42Q636 42 657.5 55Q679 68 684 102L685 110Q689 142 673.5 158Q658 174 629 174H619Q587 174 569 158.5Q551 143 547 114L546 106Q542 74 558.5 58Q575 42 603 42ZM642 346Q616 346 594.5 334Q573 322 569 291L568 283Q565 257 580 240.5Q595 224 625 224H634Q666 224 684.5 238Q703 252 706 278L707 286Q711 316 693.5 331Q676 346 648 346ZM606 -8Q571 -8 547 1.5Q523 11 509.5 26.5Q496 42 491 62Q486 82 489 103L490 111Q494 144 514.5 169Q535 194 561 199Q536 207 522 229Q508 251 512 283L513 291Q519 337 552 366.5Q585 396 645 396Q678 396 701.5 387.5Q725 379 740 364.5Q755 350 761 331Q767 312 764 290L763 282Q759 249 739.5 226.5Q720 204 694 199Q720 192 733 167Q746 142 741 109L740 101Q734 55 701 23.5Q668 -8 606 -8ZM29 0 707 780H777L99 0ZM97 515Q89 469 105.5 451Q122 433 154 433H160Q187 433 210 450.5Q233 468 238 507L239 515Q244 553 227.5 571.5Q211 590 182 590H176Q121 590 96 548L49 563L88 780H325L319 730H131L110 613Q120 623 140.5 631.5Q161 640 184 640Q241 640 272 610Q303 580 295 515L294 507Q287 450 251.5 416.5Q216 383 157 383Q85 383 58 415.5Q31 448 39 507L40 515Z" glyph-name="uni215D" horiz-adv-x="800" unicode="&#8541;" /><glyph d="M610 42Q636 42 657.5 55Q679 68 684 102L685 110Q689 142 673.5 158Q658 174 629 174H619Q587 174 569 158.5Q551 143 547 114L546 106Q542 74 558.5 58Q575 42 603 42ZM642 346Q616 346 594.5 334Q573 322 569 291L568 283Q565 257 580 240.5Q595 224 625 224H634Q666 224 684.5 238Q703 252 706 278L707 286Q711 316 693.5 331Q676 346 648 346ZM606 -8Q571 -8 547 1.5Q523 11 509.5 26.5Q496 42 491 62Q486 82 489 103L490 111Q494 144 514.5 169Q535 194 561 199Q536 207 522 229Q508 251 512 283L513 291Q519 337 552 366.5Q585 396 645 396Q678 396 701.5 387.5Q725 379 740 364.5Q755 350 761 331Q767 312 764 290L763 282Q759 249 739.5 226.5Q720 204 694 199Q720 192 733 167Q746 142 741 109L740 101Q734 55 701 23.5Q668 -8 606 -8ZM29 0 707 780H777L99 0ZM76 780H333L328 740L137 390H75L263 732L207 731H123L110 640H57Z" glyph-name="uni215E" horiz-adv-x="800" unicode="&#8542;" /><glyph d="M29 0 707 780H777L99 0ZM34 390 41 439H135L171 709L86 656L64 698L196 781H236L191 439H286L279 390Z" glyph-name="uni215F" horiz-adv-x="500" unicode="&#8543;" /><glyph d="M70 0V780H850V714H183L861 36L814 -11L136 667V0Z" glyph-name="uni2196" horiz-adv-x="920" unicode="&#8598;" /><glyph d="M784 0V667L106 -11L59 36L737 714H70V780H850V0Z" glyph-name="uni2197" horiz-adv-x="920" unicode="&#8599;" /><glyph d="M70 66H737L59 744L106 791L784 113V780H850V0H70Z" glyph-name="uni2198" horiz-adv-x="920" unicode="&#8600;" /><glyph d="M850 0H70V780H136V113L814 791L861 744L183 66H850Z" glyph-name="uni2199" horiz-adv-x="920" unicode="&#8601;" /><glyph d="M826 -25 8 275 59 326 798 52 524 791 575 842 875 24Z" glyph-name="uni25E2" horiz-adv-x="930" unicode="&#9698;" /><glyph d="M355 842 406 791 132 52 871 326 922 275 104 -25 55 24Z" glyph-name="uni25E3" horiz-adv-x="930" unicode="&#9699;" /><glyph d="M79 781 104 805 922 505 871 454 132 727 406 -11 355 -62 55 756Z" glyph-name="uni25E4" horiz-adv-x="930" unicode="&#9700;" /><glyph d="M875 756 575 -62 524 -11 797 727 59 454 8 505 826 805 851 781Z" glyph-name="uni25E5" horiz-adv-x="930" unicode="&#9701;" /><glyph d="M180 -10 279 297 19 486H341L440 792L539 486H861L601 297L700 -10L440 180Z" glyph-name="uni2605" horiz-adv-x="880" unicode="&#9733;" /><glyph d="M479 -11 437 191Q437 189 436.5 182.5Q436 176 433.5 166.5Q431 157 425 146Q419 135 408 125Q396 114 384 106Q372 98 362 90Q352 82 346 72Q340 62 340 47Q340 39 342 33Q344 27 346 22Q349 17 352 12Q329 19 317.5 36.5Q306 54 306 74Q306 104 327 125Q349 147 358.5 174.5Q368 202 368 220L196 107L309 279Q308 278 303 273.5Q298 269 290 264.5Q282 260 270 256.5Q258 253 243 253Q229 253 211.5 257Q194 261 181 261Q161 261 149 253.5Q137 246 131 237Q124 226 122 213Q114 227 114 241Q114 270 134.5 290Q155 310 185 310Q202 310 218.5 315Q235 320 248.5 326.5Q262 333 270.5 339.5Q279 346 281 348L79 390L281 432Q279 432 272.5 432.5Q266 433 256.5 435.5Q247 438 236 444Q225 450 215 461Q204 473 196 485Q188 497 180 507Q172 517 162 523Q152 529 137 529Q129 529 123 527Q117 525 112 523Q107 520 102 517Q109 540 126.5 551.5Q144 563 164 563Q194 563 215 542Q237 520 264.5 510.5Q292 501 310 501L197 673L369 560Q368 561 363.5 566Q359 571 354.5 579Q350 587 346.5 599Q343 611 343 626Q343 640 347 657.5Q351 675 351 688Q351 708 343.5 720Q336 732 327 738Q316 745 303 747Q317 755 331 755Q360 755 380 734.5Q400 714 400 684Q400 667 405 650.5Q410 634 416.5 620.5Q423 607 429.5 598Q436 589 438 588L480 790L522 588Q522 589 522.5 596Q523 603 525.5 612.5Q528 622 534 633Q540 644 551 654Q563 665 575 673Q587 681 597 689Q607 697 613 707Q619 717 619 732Q619 740 617 746Q615 752 613 757Q610 762 607 767Q630 760 641.5 742.5Q653 725 653 705Q653 675 632 654Q610 632 600.5 604.5Q591 577 591 559L763 672L650 500Q651 501 656 505.5Q661 510 669 514.5Q677 519 689 522.5Q701 526 716 526Q730 526 747.5 522Q765 518 778 518Q798 518 810 525.5Q822 533 828 542Q835 553 837 566Q845 552 845 538Q845 509 824.5 489Q804 469 774 469Q757 469 740.5 464Q724 459 710.5 452.5Q697 446 688 439.5Q679 433 678 431L880 389L678 347Q679 347 686 346.5Q693 346 702.5 343.5Q712 341 723 335Q734 329 744 318Q755 306 763 294Q771 282 779 272Q787 262 797 256Q807 250 822 250Q830 250 836 252Q842 254 847 256Q852 259 857 262Q850 239 832.5 227.5Q815 216 795 216Q765 216 744 237Q722 259 694.5 268.5Q667 278 649 278L762 106L590 219Q591 218 595.5 213Q600 208 604.5 200Q609 192 612.5 180Q616 168 616 153Q616 139 612 121.5Q608 104 608 91Q608 71 615.5 59Q623 47 632 41Q643 34 656 32Q642 24 628 24Q599 24 579 44.5Q559 65 559 95Q559 112 554 128.5Q549 145 542.5 158.5Q536 172 529.5 180.5Q523 189 521 191Z" glyph-name="uni263C" horiz-adv-x="960" unicode="&#9788;" /><glyph d="M624 728Q557 728 498 701.5Q439 675 395 629Q351 583 325.5 521.5Q300 460 300 390Q300 320 325.5 258.5Q351 197 395 151Q439 105 498 78.5Q557 52 624 52Q673 52 720 67Q669 30 607.5 10Q546 -10 480 -10Q397 -10 324 21.5Q251 53 197 107Q143 161 111.5 234Q80 307 80 390Q80 473 111.5 546Q143 619 197 673Q251 727 324 758.5Q397 790 480 790Q546 790 607.5 769.5Q669 749 720 713Q697 720 673 724Q649 728 624 728Z" glyph-name="uni263E" horiz-adv-x="960" unicode="&#9790;" /><glyph d="M875 410Q879 403 882 391.5Q885 380 885 366Q885 340 873.5 317Q862 294 845 277Q828 260 808.5 250Q789 240 773 240L657 441L806 527ZM311 41Q303 41 290.5 44Q278 47 267 54Q244 67 230 88.5Q216 110 209.5 133Q203 156 204.5 178Q206 200 214 214H446V41ZM267 717Q271 724 280 732.5Q289 741 301 748Q323 761 348.5 762.5Q374 764 397.5 758Q421 752 439.5 739.5Q458 727 466 713L350 512L200 598ZM404 780H597Q611 780 623.5 778.5Q636 777 647.5 772.5Q659 768 669 759Q679 750 689 733L717 684L760 708L699 542L526 573L567 597L495 722Q484 742 468 753Q452 764 438 770Q421 777 404 779ZM184 122 88 290Q82 302 76.5 313.5Q71 325 69.5 337Q68 349 71 362.5Q74 376 84 393L112 442L70 466L244 497L303 331L262 355Q243 321 227 294Q213 271 202 251.5Q191 232 190 230Q179 210 177 191.5Q175 173 177 157Q180 139 186 122ZM864 264 768 97Q760 85 753 75Q746 65 736 57.5Q726 50 713 45.5Q700 41 680 41H623V-8L510 128L623 263V214H768Q790 214 808 222Q826 230 838 240Q852 251 863 266Z" glyph-name="uni267B" horiz-adv-x="960" unicode="&#9851;" /></font>
</defs>
</svg>
