<?xml version="1.0" standalone="no"?><!DOCTYPE svg PUBLIC "-//W3C//DTD SVG 1.1//EN" "http://www.w3.org/Graphics/SVG/1.1/DTD/svg11.dtd" ><svg version="1.1" xmlns="http://www.w3.org/2000/svg"><defs><font horiz-adv-x="0" id="font"><font-face ascent="750" bbox="-313 -230 1374.25 970" cap-height="780" descent="-250" font-family="Cooper Hewitt" font-stretch="normal" font-style="normal" font-weight="600" units-per-em="1000" x-height="530" /><missing-glyph d="M800 115V665L525 390ZM160 665V115L435 390ZM480 435 759 714H201ZM201 66H759L480 345ZM90 780H870V0H90Z" horiz-adv-x="960" /><glyph d="M270 322H366L349 560ZM508 780 592 0H389L377 158H215L164 0H-40L248 780Z" glyph-name="A" horiz-adv-x="650" unicode="A" /><glyph d="M299 322H394L402 560ZM913 780 892 616H585V480H824L802 316H585L586 164H832L811 0H384L388 158H227L159 0H-45L324 780Z" glyph-name="AE" horiz-adv-x="900" unicode="&#198;" /><glyph d="M270 322H366L349 560ZM556 950 477 840H295L363 950ZM508 780 592 0H389L377 158H215L164 0H-40L248 780Z" glyph-name="Aacute" horiz-adv-x="650" unicode="&#193;" /><glyph d="M270 322H366L349 560ZM384 824Q324 824 287.5 834.5Q251 845 231.5 862Q212 879 207.5 902Q203 925 206 950H331Q329 935 344 927.5Q359 920 397 920Q435 920 452 927.5Q469 935 471 950H596Q593 925 582 902Q571 879 547 862Q523 845 483.5 834.5Q444 824 384 824ZM508 780 592 0H389L377 158H215L164 0H-40L248 780Z" glyph-name="Abreve" horiz-adv-x="650" unicode="&#258;" /><glyph d="M270 322H366L349 560ZM161 840 306 950H496L611 840H446L391 879L326 840ZM508 780 592 0H389L377 158H215L164 0H-40L248 780Z" glyph-name="Acircumflex" horiz-adv-x="650" unicode="&#194;" /><glyph d="M270 322H366L349 560ZM551 840H401L416 950H566ZM371 840H221L236 950H386ZM508 780 592 0H389L377 158H215L164 0H-40L248 780Z" glyph-name="Adieresis" horiz-adv-x="650" unicode="&#196;" /><glyph d="M270 322H366L349 560ZM439 950 477 840H295L246 950ZM508 780 592 0H389L377 158H215L164 0H-40L248 780Z" glyph-name="Agrave" horiz-adv-x="650" unicode="&#192;" /><glyph d="M270 322H366L349 560ZM241 950H561L546 840H226ZM508 780 592 0H389L377 158H215L164 0H-40L248 780Z" glyph-name="Amacron" horiz-adv-x="650" unicode="&#256;" /><glyph d="M508 780 592 0H389L349 560L164 0H-40L248 780Z" glyph-name="Anocross" horiz-adv-x="650" unicode="&#59185;" /><glyph d="M270 322H366L349 560ZM592 0Q583 -4 571.5 -9.5Q560 -15 550.5 -22.5Q541 -30 534.5 -40Q528 -50 528 -63Q528 -75 537.5 -82.5Q547 -90 563 -90Q577 -90 586 -86.5Q595 -83 600 -80L626 -190Q609 -200 579 -208Q549 -216 515 -216Q456 -216 421.5 -193.5Q387 -171 387 -123Q387 -87 402.5 -55.5Q418 -24 443 0H389L377 158H215L164 0H-40L248 780H508Z" glyph-name="Aogonek" horiz-adv-x="650" unicode="&#260;" /><glyph d="M393 904Q370 904 353.5 889Q337 874 337 850Q337 830 349 818Q361 806 380 806Q403 806 419.5 821Q436 836 436 860Q436 880 424 892Q412 904 393 904ZM270 322H366L349 560ZM297 780Q276 806 276 842Q276 868 286 890.5Q296 913 312.5 929.5Q329 946 351.5 955Q374 964 399 964Q442 964 469.5 937Q497 910 497 868Q497 841 486.5 819Q476 797 459 780H508L592 0H389L377 158H215L164 0H-40L248 780Z" glyph-name="Aring" horiz-adv-x="650" unicode="&#197;" /><glyph d="M270 322H366L349 560ZM596 950Q591 914 578.5 890Q566 866 548.5 851.5Q531 837 510.5 830.5Q490 824 469 824Q445 824 424 831Q403 838 385.5 847Q368 856 352.5 863Q337 870 323 870Q309 870 298.5 863.5Q288 857 286 840H191Q196 876 208.5 900Q221 924 238.5 938.5Q256 953 276.5 959.5Q297 966 318 966Q342 966 363 959Q384 952 401.5 943Q419 934 434.5 927Q450 920 464 920Q478 920 488.5 926.5Q499 933 501 950ZM508 780 592 0H389L377 158H215L164 0H-40L248 780Z" glyph-name="Atilde" horiz-adv-x="650" unicode="&#195;" /><glyph d="M272 616 254 480H336Q346 480 358.5 482Q371 484 381.5 490.5Q392 497 400 509.5Q408 522 410 542L411 553Q413 574 408.5 586Q404 598 395.5 605Q387 612 376 614Q365 616 354 616ZM232 316 212 164H307Q319 164 332.5 166.5Q346 169 358 176.5Q370 184 379 198Q388 212 390 235L391 246Q393 269 388 282.5Q383 296 373 303.5Q363 311 351 313.5Q339 316 327 316ZM378 780Q423 780 467.5 773Q512 766 545.5 743Q579 720 596.5 676Q614 632 604 559L601 537Q594 487 572.5 455Q551 423 519 403Q554 383 571.5 347.5Q589 312 583 252L581 232Q573 155 543 109.5Q513 64 470 39.5Q427 15 377 7.5Q327 0 281 0H1L103 780Z" glyph-name="B" horiz-adv-x="645" unicode="B" /><glyph d="M272 616 254 480H336Q346 480 358.5 482Q371 484 381.5 490.5Q392 497 400 509.5Q408 522 410 542L411 553Q413 574 408.5 586Q404 598 395.5 605Q387 612 376 614Q365 616 354 616ZM232 316 212 164H307Q319 164 332.5 166.5Q346 169 358 176.5Q370 184 379 198Q388 212 390 235L391 246Q393 269 388 282.5Q383 296 373 303.5Q363 311 351 313.5Q339 316 327 316ZM378 780Q423 780 467.5 773Q512 766 545.5 743Q579 720 596.5 676Q614 632 604 559L601 537Q594 487 572.5 455Q551 423 519 403Q554 383 571.5 347.5Q589 312 583 252L581 232Q573 155 543 109.5Q513 64 470 39.5Q427 15 377 7.5Q327 0 281 0H1L103 780ZM441 840H291L306 950H456Z" glyph-name="Bdotaccent" horiz-adv-x="645" unicode="&#7682;" /><glyph d="M225 370Q218 319 217 278Q216 237 224.5 208.5Q233 180 252 165Q271 150 305 150H316Q366 150 390 183.5Q414 217 421 270H611L610 261Q602 185 577 132.5Q552 80 512.5 47.5Q473 15 419.5 0.5Q366 -14 300 -14Q221 -14 164.5 8Q108 30 74 76.5Q40 123 29 196Q18 269 32 370L37 408Q50 509 77 582Q104 655 146 702Q188 749 247 771.5Q306 794 385 794Q528 794 595 727.5Q662 661 644 519L639 480H449Q453 514 453.5 541.5Q454 569 446.5 588.5Q439 608 423 619Q407 630 379 630H368Q332 630 308.5 614.5Q285 599 270 570Q255 541 246 500Q237 459 230 408Z" glyph-name="C" horiz-adv-x="660" unicode="C" /><glyph d="M225 370Q218 319 217 278Q216 237 224.5 208.5Q233 180 252 165Q271 150 305 150H316Q366 150 390 183.5Q414 217 421 270H611L610 261Q602 185 577 132.5Q552 80 512.5 47.5Q473 15 419.5 0.5Q366 -14 300 -14Q221 -14 164.5 8Q108 30 74 76.5Q40 123 29 196Q18 269 32 370L37 408Q50 509 77 582Q104 655 146 702Q188 749 247 771.5Q306 794 385 794Q528 794 595 727.5Q662 661 644 519L639 480H449Q453 514 453.5 541.5Q454 569 446.5 588.5Q439 608 423 619Q407 630 379 630H368Q332 630 308.5 614.5Q285 599 270 570Q255 541 246 500Q237 459 230 408ZM566 950 487 840H305L373 950Z" glyph-name="Cacute" horiz-adv-x="660" unicode="&#262;" /><glyph d="M225 370Q218 319 217 278Q216 237 224.5 208.5Q233 180 252 165Q271 150 305 150H316Q366 150 390 183.5Q414 217 421 270H611L610 261Q602 185 577 132.5Q552 80 512.5 47.5Q473 15 419.5 0.5Q366 -14 300 -14Q221 -14 164.5 8Q108 30 74 76.5Q40 123 29 196Q18 269 32 370L37 408Q50 509 77 582Q104 655 146 702Q188 749 247 771.5Q306 794 385 794Q528 794 595 727.5Q662 661 644 519L639 480H449Q453 514 453.5 541.5Q454 569 446.5 588.5Q439 608 423 619Q407 630 379 630H368Q332 630 308.5 614.5Q285 599 270 570Q255 541 246 500Q237 459 230 408ZM351 950 405 910 471 950H636L491 840H301L186 950Z" glyph-name="Ccaron" horiz-adv-x="660" unicode="&#268;" /><glyph d="M197 -121Q207 -128 225.5 -133Q244 -138 264 -138Q292 -138 301.5 -132Q311 -126 311 -115Q311 -105 302 -99.5Q293 -94 270 -94Q262 -94 255 -95Q248 -96 242 -97Q235 -98 229 -99L219 -70L250 -11Q119 2 63 93Q7 184 32 370L37 408Q50 509 77 582Q104 655 146 702Q188 749 247 771.5Q306 794 385 794Q528 794 595 727.5Q662 661 644 519L639 480H449Q453 514 453.5 541.5Q454 569 446.5 588.5Q439 608 423 619Q407 630 379 630H368Q332 630 308.5 614.5Q285 599 270 570Q255 541 246 500Q237 459 230 408L225 370Q218 319 217 278Q216 237 224.5 208.5Q233 180 252 165Q271 150 305 150H316Q366 150 390 183.5Q414 217 421 270H611L610 261Q602 189 579.5 138.5Q557 88 521.5 55.5Q486 23 437.5 6.5Q389 -10 330 -13L317 -37Q356 -41 381 -59Q406 -77 406 -115Q406 -163 371 -189.5Q336 -216 272 -216Q230 -216 202 -206.5Q174 -197 161 -188Z" glyph-name="Ccedilla" horiz-adv-x="660" unicode="&#199;" /><glyph d="M225 370Q218 319 217 278Q216 237 224.5 208.5Q233 180 252 165Q271 150 305 150H316Q366 150 390 183.5Q414 217 421 270H611L610 261Q602 185 577 132.5Q552 80 512.5 47.5Q473 15 419.5 0.5Q366 -14 300 -14Q221 -14 164.5 8Q108 30 74 76.5Q40 123 29 196Q18 269 32 370L37 408Q50 509 77 582Q104 655 146 702Q188 749 247 771.5Q306 794 385 794Q528 794 595 727.5Q662 661 644 519L639 480H449Q453 514 453.5 541.5Q454 569 446.5 588.5Q439 608 423 619Q407 630 379 630H368Q332 630 308.5 614.5Q285 599 270 570Q255 541 246 500Q237 459 230 408ZM171 840 316 950H506L621 840H456L401 879L336 840Z" glyph-name="Ccircumflex" horiz-adv-x="660" unicode="&#264;" /><glyph d="M225 370Q218 319 217 278Q216 237 224.5 208.5Q233 180 252 165Q271 150 305 150H316Q366 150 390 183.5Q414 217 421 270H611L610 261Q602 185 577 132.5Q552 80 512.5 47.5Q473 15 419.5 0.5Q366 -14 300 -14Q221 -14 164.5 8Q108 30 74 76.5Q40 123 29 196Q18 269 32 370L37 408Q50 509 77 582Q104 655 146 702Q188 749 247 771.5Q306 794 385 794Q528 794 595 727.5Q662 661 644 519L639 480H449Q453 514 453.5 541.5Q454 569 446.5 588.5Q439 608 423 619Q407 630 379 630H368Q332 630 308.5 614.5Q285 599 270 570Q255 541 246 500Q237 459 230 408ZM471 840H321L336 950H486Z" glyph-name="Cdotaccent" horiz-adv-x="660" unicode="&#266;" /><glyph d="M267 164Q316 164 347 177.5Q378 191 397 217.5Q416 244 426 282.5Q436 321 443 372L448 410Q455 461 453.5 499.5Q452 538 438 564Q424 590 395 603Q366 616 317 616H272L212 164ZM636 372Q622 271 595.5 200Q569 129 524 84.5Q479 40 413.5 20Q348 0 256 0H1L103 780H348Q440 780 502.5 760Q565 740 600 696Q635 652 644.5 581.5Q654 511 641 410Z" glyph-name="D" horiz-adv-x="670" unicode="D" /><glyph d="M267 164Q316 164 347 177.5Q378 191 397 217.5Q416 244 426 282.5Q436 321 443 372L448 410Q455 461 453.5 499.5Q452 538 438 564Q424 590 395 603Q366 616 317 616H272L212 164ZM636 372Q622 271 595.5 200Q569 129 524 84.5Q479 40 413.5 20Q348 0 256 0H1L103 780H348Q440 780 502.5 760Q565 740 600 696Q635 652 644.5 581.5Q654 511 641 410ZM336 950 390 910 456 950H621L476 840H286L171 950Z" glyph-name="Dcaron" horiz-adv-x="670" unicode="&#270;" /><glyph d="M326 164Q375 164 406 177.5Q437 191 456 217.5Q475 244 485 282.5Q495 321 502 372L507 410Q514 461 512.5 499.5Q511 538 497 564Q483 590 454 603Q425 616 376 616H331L311 470H462L444 330H293L271 164ZM695 372Q681 271 654.5 200Q628 129 583 84.5Q538 40 472.5 20Q407 0 315 0H60L103 330H4L22 470H121L162 780H407Q499 780 561.5 760Q624 740 659 696Q694 652 703.5 581.5Q713 511 700 410Z" glyph-name="Dcroat" horiz-adv-x="730" unicode="&#272;" /><glyph d="M267 164Q316 164 347 177.5Q378 191 397 217.5Q416 244 426 282.5Q436 321 443 372L448 410Q455 461 453.5 499.5Q452 538 438 564Q424 590 395 603Q366 616 317 616H272L212 164ZM636 372Q622 271 595.5 200Q569 129 524 84.5Q479 40 413.5 20Q348 0 256 0H1L103 780H348Q440 780 502.5 760Q565 740 600 696Q635 652 644.5 581.5Q654 511 641 410ZM456 840H306L321 950H471Z" glyph-name="Ddotaccent" horiz-adv-x="670" unicode="&#7690;" /><glyph d="M593 780 572 616H272L254 480H504L482 316H232L212 164H512L491 0H1L103 780Z" glyph-name="E" horiz-adv-x="580" unicode="E" /><glyph d="M526 950 447 840H265L333 950ZM593 780 572 616H272L254 480H504L482 316H232L212 164H512L491 0H1L103 780Z" glyph-name="Eacute" horiz-adv-x="580" unicode="&#201;" /><glyph d="M354 824Q294 824 257.5 834.5Q221 845 201.5 862Q182 879 177.5 902Q173 925 176 950H301Q299 935 314 927.5Q329 920 367 920Q405 920 422 927.5Q439 935 441 950H566Q563 925 552 902Q541 879 517 862Q493 845 453.5 834.5Q414 824 354 824ZM593 780 572 616H272L254 480H504L482 316H232L212 164H512L491 0H1L103 780Z" glyph-name="Ebreve" horiz-adv-x="580" unicode="&#276;" /><glyph d="M311 950 365 910 431 950H596L451 840H261L146 950ZM593 780 572 616H272L254 480H504L482 316H232L212 164H512L491 0H1L103 780Z" glyph-name="Ecaron" horiz-adv-x="580" unicode="&#282;" /><glyph d="M131 840 276 950H466L581 840H416L361 879L296 840ZM593 780 572 616H272L254 480H504L482 316H232L212 164H512L491 0H1L103 780Z" glyph-name="Ecircumflex" horiz-adv-x="580" unicode="&#202;" /><glyph d="M341 840H191L206 950H356ZM521 840H371L386 950H536ZM593 780 572 616H272L254 480H504L482 316H232L212 164H512L491 0H1L103 780Z" glyph-name="Edieresis" horiz-adv-x="580" unicode="&#203;" /><glyph d="M431 840H281L296 950H446ZM593 780 572 616H272L254 480H504L482 316H232L212 164H512L491 0H1L103 780Z" glyph-name="Edotaccent" horiz-adv-x="580" unicode="&#278;" /><glyph d="M409 950 447 840H265L216 950ZM593 780 572 616H272L254 480H504L482 316H232L212 164H512L491 0H1L103 780Z" glyph-name="Egrave" horiz-adv-x="580" unicode="&#200;" /><glyph d="M211 950H531L516 840H196ZM593 780 572 616H272L254 480H504L482 316H232L212 164H512L491 0H1L103 780Z" glyph-name="Emacron" horiz-adv-x="580" unicode="&#274;" /><glyph d="M590 -5Q582 -63 561.5 -103Q541 -143 510 -167.5Q479 -192 438.5 -203Q398 -214 350 -214Q312 -214 291 -209Q270 -204 263 -200L283 -50Q287 -52 301.5 -54Q316 -56 328 -56Q351 -56 369.5 -49.5Q388 -43 399 -22L232 430L217 280L181 0H1L103 780H303L462 350L476 500L513 780H693Z" glyph-name="Eng" horiz-adv-x="690" unicode="&#330;" /><glyph d="M491 0Q482 -4 470.5 -9.5Q459 -15 449.5 -22.5Q440 -30 433.5 -40Q427 -50 427 -63Q427 -75 436.5 -82.5Q446 -90 462 -90Q476 -90 485 -86.5Q494 -83 499 -80L525 -190Q508 -200 478 -208Q448 -216 414 -216Q355 -216 320.5 -193.5Q286 -171 286 -123Q286 -87 301.5 -55.5Q317 -24 342 0H1L103 780H593L572 616H272L254 480H504L482 316H232L212 164H512Z" glyph-name="Eogonek" horiz-adv-x="580" unicode="&#280;" /><glyph d="M443 630H428Q345 630 303 602Q261 574 255 527L186 0H-4L66 532Q74 593 100 642Q126 691 172.5 724.5Q219 758 287.5 776Q356 794 450 794Q517 794 575 784Q633 774 678 757L661 627L539 470L553 468Q616 459 661.5 442Q707 425 736 396.5Q765 368 776 327Q787 286 781 229L779 211Q767 102 695 44Q623 -14 485 -14Q419 -14 372 0Q325 14 297 46.5Q269 79 260.5 130.5Q252 182 264 257L266 270H456Q451 235 454 211.5Q457 188 464.5 174.5Q472 161 483.5 155.5Q495 150 508 150H518Q544 150 564 170Q584 190 587 220L588 230Q591 259 573 281.5Q555 304 500 310L297 334L315 464Z" glyph-name="Eszett" horiz-adv-x="820" unicode="&#7838;" /><glyph d="M326 164Q375 164 406 177.5Q437 191 456 217.5Q475 244 485 282.5Q495 321 502 372L507 410Q514 461 512.5 499.5Q511 538 497 564Q483 590 454 603Q425 616 376 616H331L311 470H462L444 330H293L271 164ZM695 372Q681 271 654.5 200Q628 129 583 84.5Q538 40 472.5 20Q407 0 315 0H60L103 330H4L22 470H121L162 780H407Q499 780 561.5 760Q624 740 659 696Q694 652 703.5 581.5Q713 511 700 410Z" glyph-name="Eth" horiz-adv-x="730" unicode="&#208;" /><glyph d="M20 300 41 460H105Q136 635 208 714.5Q280 794 393 794Q508 794 556 734.5Q604 675 586 539L581 500H421Q430 568 423 599Q416 630 388 630H378Q346 630 328 584.5Q310 539 297 460H492L391 300H277Q271 229 278.5 189.5Q286 150 315 150H325Q350 150 365.5 173.5Q381 197 388 250H548L547 241Q539 173 521 124.5Q503 76 472 45Q441 14 397.5 0Q354 -14 297 -14Q182 -14 128 60.5Q74 135 85 300Z" glyph-name="Euro" horiz-adv-x="600" unicode="&#8364;" /><glyph d="M593 780 572 616H272L254 480H504L482 316H232L191 0H1L103 780Z" glyph-name="F" horiz-adv-x="560" unicode="F" /><glyph d="M431 840H281L296 950H446ZM593 780 572 616H272L254 480H504L482 316H232L191 0H1L103 780Z" glyph-name="Fdotaccent" horiz-adv-x="560" unicode="&#7710;" /><glyph d="M310 -14Q231 -14 173 8Q115 30 79 76.5Q43 123 30.5 196Q18 269 32 370L37 408Q50 509 77.5 582Q105 655 148.5 702Q192 749 252 771.5Q312 794 391 794Q534 794 603 727Q672 660 654 519L649 480H459Q463 514 463 541.5Q463 569 455 588.5Q447 608 430 619Q413 630 385 630H374Q338 630 314 614.5Q290 599 273.5 570Q257 541 247 500Q237 459 230 408L225 370Q218 319 219 278Q220 237 230.5 208.5Q241 180 262.5 165Q284 150 320 150H331Q353 150 377.5 156Q402 162 417 170L430 270H336L358 434H642L595 78Q572 60 545.5 43Q519 26 485.5 13.5Q452 1 408.5 -6.5Q365 -14 310 -14Z" glyph-name="G" horiz-adv-x="680" unicode="G" /><glyph d="M310 -14Q231 -14 173 8Q115 30 79 76.5Q43 123 30.5 196Q18 269 32 370L37 408Q50 509 77.5 582Q105 655 148.5 702Q192 749 252 771.5Q312 794 391 794Q534 794 603 727Q672 660 654 519L649 480H459Q463 514 463 541.5Q463 569 455 588.5Q447 608 430 619Q413 630 385 630H374Q338 630 314 614.5Q290 599 273.5 570Q257 541 247 500Q237 459 230 408L225 370Q218 319 219 278Q220 237 230.5 208.5Q241 180 262.5 165Q284 150 320 150H331Q353 150 377.5 156Q402 162 417 170L430 270H336L358 434H642L595 78Q572 60 545.5 43Q519 26 485.5 13.5Q452 1 408.5 -6.5Q365 -14 310 -14ZM399 824Q339 824 302.5 834.5Q266 845 246.5 862Q227 879 222.5 902Q218 925 221 950H346Q344 935 359 927.5Q374 920 412 920Q450 920 467 927.5Q484 935 486 950H611Q608 925 597 902Q586 879 562 862Q538 845 498.5 834.5Q459 824 399 824Z" glyph-name="Gbreve" horiz-adv-x="680" unicode="&#286;" /><glyph d="M310 -14Q231 -14 173 8Q115 30 79 76.5Q43 123 30.5 196Q18 269 32 370L37 408Q50 509 77.5 582Q105 655 148.5 702Q192 749 252 771.5Q312 794 391 794Q534 794 603 727Q672 660 654 519L649 480H459Q463 514 463 541.5Q463 569 455 588.5Q447 608 430 619Q413 630 385 630H374Q338 630 314 614.5Q290 599 273.5 570Q257 541 247 500Q237 459 230 408L225 370Q218 319 219 278Q220 237 230.5 208.5Q241 180 262.5 165Q284 150 320 150H331Q353 150 377.5 156Q402 162 417 170L430 270H336L358 434H642L595 78Q572 60 545.5 43Q519 26 485.5 13.5Q452 1 408.5 -6.5Q365 -14 310 -14ZM176 840 321 950H511L626 840H461L406 879L341 840Z" glyph-name="Gcircumflex" horiz-adv-x="680" unicode="&#284;" /><glyph d="M310 -14Q231 -14 173 8Q115 30 79 76.5Q43 123 30.5 196Q18 269 32 370L37 408Q50 509 77.5 582Q105 655 148.5 702Q192 749 252 771.5Q312 794 391 794Q534 794 603 727Q672 660 654 519L649 480H459Q463 514 463 541.5Q463 569 455 588.5Q447 608 430 619Q413 630 385 630H374Q338 630 314 614.5Q290 599 273.5 570Q257 541 247 500Q237 459 230 408L225 370Q218 319 219 278Q220 237 230.5 208.5Q241 180 262.5 165Q284 150 320 150H331Q353 150 377.5 156Q402 162 417 170L430 270H336L358 434H642L595 78Q572 60 545.5 43Q519 26 485.5 13.5Q452 1 408.5 -6.5Q365 -14 310 -14ZM367 -100Q358 -172 315.5 -201Q273 -230 190 -230L198 -170Q230 -170 253 -163.5Q276 -157 290 -140H202L215 -40H375Z" glyph-name="Gcommaaccent" horiz-adv-x="680" unicode="&#290;" /><glyph d="M310 -14Q231 -14 173 8Q115 30 79 76.5Q43 123 30.5 196Q18 269 32 370L37 408Q50 509 77.5 582Q105 655 148.5 702Q192 749 252 771.5Q312 794 391 794Q534 794 603 727Q672 660 654 519L649 480H459Q463 514 463 541.5Q463 569 455 588.5Q447 608 430 619Q413 630 385 630H374Q338 630 314 614.5Q290 599 273.5 570Q257 541 247 500Q237 459 230 408L225 370Q218 319 219 278Q220 237 230.5 208.5Q241 180 262.5 165Q284 150 320 150H331Q353 150 377.5 156Q402 162 417 170L430 270H336L358 434H642L595 78Q572 60 545.5 43Q519 26 485.5 13.5Q452 1 408.5 -6.5Q365 -14 310 -14ZM476 840H326L341 950H491Z" glyph-name="Gdotaccent" horiz-adv-x="680" unicode="&#288;" /><glyph d="M673 780 571 0H381L422 316H232L191 0H1L103 780H293L254 480H444L483 780Z" glyph-name="H" horiz-adv-x="670" unicode="H" /><glyph d="M444 480 454 560H264L254 480ZM673 780 571 0H381L422 316H232L191 0H1L103 780H293L283 700H473L483 780Z" glyph-name="Hbar" horiz-adv-x="670" unicode="&#294;" /><glyph d="M171 840 316 950H506L621 840H456L401 879L336 840ZM673 780 571 0H381L422 316H232L191 0H1L103 780H293L254 480H444L483 780Z" glyph-name="Hcircumflex" horiz-adv-x="670" unicode="&#292;" /><glyph d="M196 0H6L108 780H298Z" glyph-name="I" horiz-adv-x="300" unicode="I" /><glyph d="M196 0H6L108 780H298ZM459 780H649L573 202Q565 142 544 100.5Q523 59 491.5 33.5Q460 8 420 -3Q380 -14 334 -14Q292 -14 268 -8Q244 -2 236 3L256 158Q261 156 276.5 153Q292 150 305 150Q321 150 334.5 152.5Q348 155 358.5 163Q369 171 376 185.5Q383 200 386 223Z" glyph-name="IJ" horiz-adv-x="641" unicode="&#306;" /><glyph d="M381 950 302 840H120L188 950ZM196 0H6L108 780H298Z" glyph-name="Iacute" horiz-adv-x="300" unicode="&#205;" /><glyph d="M209 824Q149 824 112.5 834.5Q76 845 56.5 862Q37 879 32.5 902Q28 925 31 950H156Q154 935 169 927.5Q184 920 222 920Q260 920 277 927.5Q294 935 296 950H421Q418 925 407 902Q396 879 372 862Q348 845 308.5 834.5Q269 824 209 824ZM196 0H6L108 780H298Z" glyph-name="Ibreve" horiz-adv-x="300" unicode="&#300;" /><glyph d="M-14 840 131 950H321L436 840H271L216 879L151 840ZM196 0H6L108 780H298Z" glyph-name="Icircumflex" horiz-adv-x="300" unicode="&#206;" /><glyph d="M196 840H46L61 950H211ZM376 840H226L241 950H391ZM196 0H6L108 780H298Z" glyph-name="Idieresis" horiz-adv-x="300" unicode="&#207;" /><glyph d="M286 840H136L151 950H301ZM196 0H6L108 780H298Z" glyph-name="Idotaccent" horiz-adv-x="300" unicode="&#304;" /><glyph d="M264 950 302 840H120L71 950ZM196 0H6L108 780H298Z" glyph-name="Igrave" horiz-adv-x="300" unicode="&#204;" /><glyph d="M66 950H386L371 840H51ZM196 0H6L108 780H298Z" glyph-name="Imacron" horiz-adv-x="300" unicode="&#298;" /><glyph d="M6 0 108 780H298L196 0Q187 -4 175.5 -9.5Q164 -15 154.5 -22.5Q145 -30 138.5 -40Q132 -50 132 -63Q132 -75 141.5 -82.5Q151 -90 167 -90Q181 -90 190 -86.5Q199 -83 204 -80L230 -190Q213 -200 183 -208Q153 -216 119 -216Q60 -216 25.5 -193.5Q-9 -171 -9 -123Q-9 -87 6.5 -55.5Q22 -24 47 0Z" glyph-name="Iogonek" horiz-adv-x="300" unicode="&#302;" /><glyph d="M421 950Q416 914 403.5 890Q391 866 373.5 851.5Q356 837 335.5 830.5Q315 824 294 824Q270 824 249 831Q228 838 210.5 847Q193 856 177.5 863Q162 870 148 870Q134 870 123.5 863.5Q113 857 111 840H16Q21 876 33.5 900Q46 924 63.5 938.5Q81 953 101.5 959.5Q122 966 143 966Q167 966 188 959Q209 952 226.5 943Q244 934 259.5 927Q275 920 289 920Q303 920 313.5 926.5Q324 933 326 950ZM196 0H6L108 780H298Z" glyph-name="Itilde" horiz-adv-x="300" unicode="&#296;" /><glyph d="M558 780 487 238Q479 178 459.5 131Q440 84 407 52Q374 20 327 3Q280 -14 216 -14Q148 -14 103.5 3Q59 20 34 52.5Q9 85 2 132Q-5 179 3 240L7 270H187Q179 211 185 180.5Q191 150 226 150Q261 150 277 179.5Q293 209 300 260L368 780Z" glyph-name="J" horiz-adv-x="550" unicode="J" /><glyph d="M558 780 487 238Q479 178 459.5 131Q440 84 407 52Q374 20 327 3Q280 -14 216 -14Q148 -14 103.5 3Q59 20 34 52.5Q9 85 2 132Q-5 179 3 240L7 270H187Q179 211 185 180.5Q191 150 226 150Q261 150 277 179.5Q293 209 300 260L368 780ZM246 840 391 950H581L696 840H531L476 879L411 840Z" glyph-name="Jcircumflex" horiz-adv-x="550" unicode="&#308;" /><glyph d="M258 512 453 780H683L429 473L581 0H371L283 297L219 220L191 0H1L103 780H293Z" glyph-name="K" horiz-adv-x="645" unicode="K" /><glyph d="M342 -100Q333 -172 290.5 -201Q248 -230 165 -230L173 -170Q205 -170 228 -163.5Q251 -157 265 -140H177L190 -40H350ZM258 512 453 780H683L429 473L581 0H371L283 297L219 220L191 0H1L103 780H293Z" glyph-name="Kcommaaccent" horiz-adv-x="645" unicode="&#310;" /><glyph d="M1 0 103 780H293L212 164H487L466 0Z" glyph-name="L" horiz-adv-x="530" unicode="L" /><glyph d="M376 950 297 840H115L183 950ZM1 0 103 780H293L212 164H487L466 0Z" glyph-name="Lacute" horiz-adv-x="530" unicode="&#313;" /><glyph d="M504 800 451 590H371L399 800ZM1 0 103 780H293L212 164H487L466 0Z" glyph-name="Lcaron" horiz-adv-x="530" unicode="&#317;" /><glyph d="M299 -100Q290 -172 247.5 -201Q205 -230 122 -230L130 -170Q162 -170 185 -163.5Q208 -157 222 -140H134L147 -40H307ZM1 0 103 780H293L212 164H487L466 0Z" glyph-name="Lcommaaccent" horiz-adv-x="530" unicode="&#315;" /><glyph d="M495 303H305L330 493H520ZM1 0 103 780H293L212 164H487L466 0Z" glyph-name="Ldot" horiz-adv-x="530" unicode="&#319;" /><glyph d="M3 320 109 368 163 780H353L311 461L492 544L472 388L291 305L272 164H547L526 0H61L88 212L-18 164Z" glyph-name="Lslash" horiz-adv-x="590" unicode="&#321;" /><glyph d="M494 0H298L245 450L230 300L191 0H1L103 780H386L439 330L610 780H893L791 0H601L640 300L665 450Z" glyph-name="M" horiz-adv-x="890" unicode="M" /><glyph d="M581 840H431L446 950H596ZM494 0H298L245 450L230 300L191 0H1L103 780H386L439 330L610 780H893L791 0H601L640 300L665 450Z" glyph-name="Mdotaccent" horiz-adv-x="890" unicode="&#7744;" /><glyph d="M591 0H391L232 430L217 280L181 0H1L103 780H303L462 350L476 500L513 780H693Z" glyph-name="N" horiz-adv-x="690" unicode="N" /><glyph d="M576 950 497 840H315L383 950ZM591 0H391L232 430L217 280L181 0H1L103 780H303L462 350L476 500L513 780H693Z" glyph-name="Nacute" horiz-adv-x="690" unicode="&#323;" /><glyph d="M361 950 415 910 481 950H646L501 840H311L196 950ZM591 0H391L232 430L217 280L181 0H1L103 780H303L462 350L476 500L513 780H693Z" glyph-name="Ncaron" horiz-adv-x="690" unicode="&#327;" /><glyph d="M362 -100Q353 -172 310.5 -201Q268 -230 185 -230L193 -170Q225 -170 248 -163.5Q271 -157 285 -140H197L210 -40H370ZM591 0H391L232 430L217 280L181 0H1L103 780H303L462 350L476 500L513 780H693Z" glyph-name="Ncommaaccent" horiz-adv-x="690" unicode="&#325;" /><glyph d="M616 950Q611 914 598.5 890Q586 866 568.5 851.5Q551 837 530.5 830.5Q510 824 489 824Q465 824 444 831Q423 838 405.5 847Q388 856 372.5 863Q357 870 343 870Q329 870 318.5 863.5Q308 857 306 840H211Q216 876 228.5 900Q241 924 258.5 938.5Q276 953 296.5 959.5Q317 966 338 966Q362 966 383 959Q404 952 421.5 943Q439 934 454.5 927Q470 920 484 920Q498 920 508.5 926.5Q519 933 521 950ZM591 0H391L232 430L217 280L181 0H1L103 780H303L462 350L476 500L513 780H693Z" glyph-name="Ntilde" horiz-adv-x="690" unicode="&#209;" /><glyph d="M316 150Q350 150 373 165.5Q396 181 412 210Q428 239 437.5 280Q447 321 454 372L459 410Q466 461 467 501.5Q468 542 459.5 570.5Q451 599 432 614.5Q413 630 379 630H368Q334 630 311 614.5Q288 599 272 570Q256 541 246.5 500Q237 459 230 408L225 370Q218 319 217 278Q216 237 224.5 208.5Q233 180 252 165Q271 150 305 150ZM385 794Q464 794 520.5 772Q577 750 610.5 703.5Q644 657 654.5 584Q665 511 652 410L647 372Q633 271 607 198Q581 125 539 78Q497 31 438 8.5Q379 -14 300 -14Q221 -14 164.5 8Q108 30 74 76.5Q40 123 29 196Q18 269 32 370L37 408Q50 509 77 582Q104 655 146 702Q188 749 247 771.5Q306 794 385 794Z" glyph-name="O" horiz-adv-x="680" unicode="O" /><glyph d="M225 370Q218 319 219.5 280.5Q221 242 235 216Q249 190 278 177Q307 164 356 164H382L441 616H406Q357 616 326 602.5Q295 589 276 562.5Q257 536 247 497.5Q237 459 230 408ZM37 408Q50 509 77 580Q104 651 149 695.5Q194 740 259.5 760Q325 780 417 780H953L932 616H632L614 480H864L842 316H592L572 164H872L851 0H325Q233 0 170.5 20Q108 40 73 84Q38 128 28 198.5Q18 269 32 370Z" glyph-name="OE" horiz-adv-x="940" unicode="&#338;" /><glyph d="M316 150Q350 150 373 165.5Q396 181 412 210Q428 239 437.5 280Q447 321 454 372L459 410Q466 461 467 501.5Q468 542 459.5 570.5Q451 599 432 614.5Q413 630 379 630H368Q334 630 311 614.5Q288 599 272 570Q256 541 246.5 500Q237 459 230 408L225 370Q218 319 217 278Q216 237 224.5 208.5Q233 180 252 165Q271 150 305 150ZM385 794Q464 794 520.5 772Q577 750 610.5 703.5Q644 657 654.5 584Q665 511 652 410L647 372Q633 271 607 198Q581 125 539 78Q497 31 438 8.5Q379 -14 300 -14Q221 -14 164.5 8Q108 30 74 76.5Q40 123 29 196Q18 269 32 370L37 408Q50 509 77 582Q104 655 146 702Q188 749 247 771.5Q306 794 385 794ZM571 950 492 840H310L378 950Z" glyph-name="Oacute" horiz-adv-x="680" unicode="&#211;" /><glyph d="M316 150Q350 150 373 165.5Q396 181 412 210Q428 239 437.5 280Q447 321 454 372L459 410Q466 461 467 501.5Q468 542 459.5 570.5Q451 599 432 614.5Q413 630 379 630H368Q334 630 311 614.5Q288 599 272 570Q256 541 246.5 500Q237 459 230 408L225 370Q218 319 217 278Q216 237 224.5 208.5Q233 180 252 165Q271 150 305 150ZM385 794Q464 794 520.5 772Q577 750 610.5 703.5Q644 657 654.5 584Q665 511 652 410L647 372Q633 271 607 198Q581 125 539 78Q497 31 438 8.5Q379 -14 300 -14Q221 -14 164.5 8Q108 30 74 76.5Q40 123 29 196Q18 269 32 370L37 408Q50 509 77 582Q104 655 146 702Q188 749 247 771.5Q306 794 385 794ZM399 824Q339 824 302.5 834.5Q266 845 246.5 862Q227 879 222.5 902Q218 925 221 950H346Q344 935 359 927.5Q374 920 412 920Q450 920 467 927.5Q484 935 486 950H611Q608 925 597 902Q586 879 562 862Q538 845 498.5 834.5Q459 824 399 824Z" glyph-name="Obreve" horiz-adv-x="680" unicode="&#334;" /><glyph d="M316 150Q350 150 373 165.5Q396 181 412 210Q428 239 437.5 280Q447 321 454 372L459 410Q466 461 467 501.5Q468 542 459.5 570.5Q451 599 432 614.5Q413 630 379 630H368Q334 630 311 614.5Q288 599 272 570Q256 541 246.5 500Q237 459 230 408L225 370Q218 319 217 278Q216 237 224.5 208.5Q233 180 252 165Q271 150 305 150ZM385 794Q464 794 520.5 772Q577 750 610.5 703.5Q644 657 654.5 584Q665 511 652 410L647 372Q633 271 607 198Q581 125 539 78Q497 31 438 8.5Q379 -14 300 -14Q221 -14 164.5 8Q108 30 74 76.5Q40 123 29 196Q18 269 32 370L37 408Q50 509 77 582Q104 655 146 702Q188 749 247 771.5Q306 794 385 794ZM176 840 321 950H511L626 840H461L406 879L341 840Z" glyph-name="Ocircumflex" horiz-adv-x="680" unicode="&#212;" /><glyph d="M316 150Q350 150 373 165.5Q396 181 412 210Q428 239 437.5 280Q447 321 454 372L459 410Q466 461 467 501.5Q468 542 459.5 570.5Q451 599 432 614.5Q413 630 379 630H368Q334 630 311 614.5Q288 599 272 570Q256 541 246.5 500Q237 459 230 408L225 370Q218 319 217 278Q216 237 224.5 208.5Q233 180 252 165Q271 150 305 150ZM385 794Q464 794 520.5 772Q577 750 610.5 703.5Q644 657 654.5 584Q665 511 652 410L647 372Q633 271 607 198Q581 125 539 78Q497 31 438 8.5Q379 -14 300 -14Q221 -14 164.5 8Q108 30 74 76.5Q40 123 29 196Q18 269 32 370L37 408Q50 509 77 582Q104 655 146 702Q188 749 247 771.5Q306 794 385 794ZM566 840H416L431 950H581ZM386 840H236L251 950H401Z" glyph-name="Odieresis" horiz-adv-x="680" unicode="&#214;" /><glyph d="M316 150Q350 150 373 165.5Q396 181 412 210Q428 239 437.5 280Q447 321 454 372L459 410Q466 461 467 501.5Q468 542 459.5 570.5Q451 599 432 614.5Q413 630 379 630H368Q334 630 311 614.5Q288 599 272 570Q256 541 246.5 500Q237 459 230 408L225 370Q218 319 217 278Q216 237 224.5 208.5Q233 180 252 165Q271 150 305 150ZM385 794Q464 794 520.5 772Q577 750 610.5 703.5Q644 657 654.5 584Q665 511 652 410L647 372Q633 271 607 198Q581 125 539 78Q497 31 438 8.5Q379 -14 300 -14Q221 -14 164.5 8Q108 30 74 76.5Q40 123 29 196Q18 269 32 370L37 408Q50 509 77 582Q104 655 146 702Q188 749 247 771.5Q306 794 385 794ZM454 950 492 840H310L261 950Z" glyph-name="Ograve" horiz-adv-x="680" unicode="&#210;" /><glyph d="M316 150Q350 150 373 165.5Q396 181 412 210Q428 239 437.5 280Q447 321 454 372L459 410Q466 461 467 501.5Q468 542 459.5 570.5Q451 599 432 614.5Q413 630 379 630H368Q334 630 311 614.5Q288 599 272 570Q256 541 246.5 500Q237 459 230 408L225 370Q218 319 217 278Q216 237 224.5 208.5Q233 180 252 165Q271 150 305 150ZM385 794Q464 794 520.5 772Q577 750 610.5 703.5Q644 657 654.5 584Q665 511 652 410L647 372Q633 271 607 198Q581 125 539 78Q497 31 438 8.5Q379 -14 300 -14Q221 -14 164.5 8Q108 30 74 76.5Q40 123 29 196Q18 269 32 370L37 408Q50 509 77 582Q104 655 146 702Q188 749 247 771.5Q306 794 385 794ZM651 950 572 840H410L478 950ZM461 950 392 840H230L288 950Z" glyph-name="Ohungarumlaut" horiz-adv-x="680" unicode="&#336;" /><glyph d="M316 150Q350 150 373 165.5Q396 181 412 210Q428 239 437.5 280Q447 321 454 372L459 410Q466 461 467 501.5Q468 542 459.5 570.5Q451 599 432 614.5Q413 630 379 630H368Q334 630 311 614.5Q288 599 272 570Q256 541 246.5 500Q237 459 230 408L225 370Q218 319 217 278Q216 237 224.5 208.5Q233 180 252 165Q271 150 305 150ZM385 794Q464 794 520.5 772Q577 750 610.5 703.5Q644 657 654.5 584Q665 511 652 410L647 372Q633 271 607 198Q581 125 539 78Q497 31 438 8.5Q379 -14 300 -14Q221 -14 164.5 8Q108 30 74 76.5Q40 123 29 196Q18 269 32 370L37 408Q50 509 77 582Q104 655 146 702Q188 749 247 771.5Q306 794 385 794ZM256 950H576L561 840H241Z" glyph-name="Omacron" horiz-adv-x="680" unicode="&#332;" /><glyph d="M316 150Q350 150 373 165.5Q396 181 412 210Q428 239 437.5 280Q447 321 454 372L459 410Q461 429 463 446Q465 463 466 479L236 183Q255 150 305 150ZM225 370Q222 351 220.5 334Q219 317 218 301L448 597Q426 630 379 630H368Q334 630 311 614.5Q288 599 272 570Q256 541 246.5 500Q237 459 230 408ZM385 794Q500 794 565 748L590 780H700L624 682Q650 635 657 568Q664 501 652 410L647 372Q633 271 607 198Q581 125 539 78Q497 31 438 8.5Q379 -14 300 -14Q243 -14 198 -3Q153 8 119 32L94 0H-16L60 98Q8 190 32 370L37 408Q50 509 77 582Q104 655 146 702Q188 749 247 771.5Q306 794 385 794Z" glyph-name="Oslash" horiz-adv-x="680" unicode="&#216;" /><glyph d="M316 150Q350 150 373 165.5Q396 181 412 210Q428 239 437.5 280Q447 321 454 372L459 410Q466 461 467 501.5Q468 542 459.5 570.5Q451 599 432 614.5Q413 630 379 630H368Q334 630 311 614.5Q288 599 272 570Q256 541 246.5 500Q237 459 230 408L225 370Q218 319 217 278Q216 237 224.5 208.5Q233 180 252 165Q271 150 305 150ZM385 794Q464 794 520.5 772Q577 750 610.5 703.5Q644 657 654.5 584Q665 511 652 410L647 372Q633 271 607 198Q581 125 539 78Q497 31 438 8.5Q379 -14 300 -14Q221 -14 164.5 8Q108 30 74 76.5Q40 123 29 196Q18 269 32 370L37 408Q50 509 77 582Q104 655 146 702Q188 749 247 771.5Q306 794 385 794ZM611 950Q606 914 593.5 890Q581 866 563.5 851.5Q546 837 525.5 830.5Q505 824 484 824Q460 824 439 831Q418 838 400.5 847Q383 856 367.5 863Q352 870 338 870Q324 870 313.5 863.5Q303 857 301 840H206Q211 876 223.5 900Q236 924 253.5 938.5Q271 953 291.5 959.5Q312 966 333 966Q357 966 378 959Q399 952 416.5 943Q434 934 449.5 927Q465 920 479 920Q493 920 503.5 926.5Q514 933 516 950Z" glyph-name="Otilde" horiz-adv-x="680" unicode="&#213;" /><glyph d="M334 432Q348 432 363 435.5Q378 439 391.5 448.5Q405 458 414.5 475Q424 492 427 519L428 530Q431 558 425.5 575Q420 592 410 601Q400 610 386.5 613Q373 616 359 616H272L247 432ZM191 0H1L103 780H372Q421 780 470.5 772Q520 764 557 738.5Q594 713 613 665Q632 617 621 536L618 514Q607 433 575.5 384.5Q544 336 500.5 310Q457 284 405.5 276Q354 268 305 268H226Z" glyph-name="P" horiz-adv-x="620" unicode="P" /><glyph d="M334 432Q348 432 363 435.5Q378 439 391.5 448.5Q405 458 414.5 475Q424 492 427 519L428 530Q431 558 425.5 575Q420 592 410 601Q400 610 386.5 613Q373 616 359 616H272L247 432ZM191 0H1L103 780H372Q421 780 470.5 772Q520 764 557 738.5Q594 713 613 665Q632 617 621 536L618 514Q607 433 575.5 384.5Q544 336 500.5 310Q457 284 405.5 276Q354 268 305 268H226ZM431 840H281L296 950H446Z" glyph-name="Pdotaccent" horiz-adv-x="620" unicode="&#7766;" /><glyph d="M406 199Q425 228 435.5 271.5Q446 315 454 372L459 410Q466 461 467 501.5Q468 542 459.5 570.5Q451 599 432 614.5Q413 630 379 630H368Q334 630 311 614.5Q288 599 272 570Q256 541 246.5 500Q237 459 230 408L225 370Q219 325 217.5 288Q216 251 221 223Q226 195 239.5 177Q253 159 277 153L246 273H386ZM385 794Q464 794 520.5 772Q577 750 610.5 703.5Q644 657 654.5 584Q665 511 652 410L647 372Q627 228 581.5 140.5Q536 53 455 16L487 -100H342L320 -13Q315 -13 310 -13.5Q305 -14 300 -14Q221 -14 164.5 8Q108 30 74 76.5Q40 123 29 196Q18 269 32 370L37 408Q50 509 77 582Q104 655 146 702Q188 749 247 771.5Q306 794 385 794Z" glyph-name="Q" horiz-adv-x="680" unicode="Q" /><glyph d="M191 0H1L103 780H372Q421 780 470.5 772Q520 764 557 738.5Q594 713 613 665Q632 617 621 536L618 514Q605 419 564 367.5Q523 316 468 294L551 0H346L279 268H226ZM334 432Q348 432 363 435.5Q378 439 391.5 448.5Q405 458 414.5 475Q424 492 427 519L428 530Q431 558 425.5 575Q420 592 410 601Q400 610 386.5 613Q373 616 359 616H272L247 432Z" glyph-name="R" horiz-adv-x="635" unicode="R" /><glyph d="M191 0H1L103 780H372Q421 780 470.5 772Q520 764 557 738.5Q594 713 613 665Q632 617 621 536L618 514Q605 419 564 367.5Q523 316 468 294L551 0H346L279 268H226ZM334 432Q348 432 363 435.5Q378 439 391.5 448.5Q405 458 414.5 475Q424 492 427 519L428 530Q431 558 425.5 575Q420 592 410 601Q400 610 386.5 613Q373 616 359 616H272L247 432ZM536 950 457 840H275L343 950Z" glyph-name="Racute" horiz-adv-x="635" unicode="&#340;" /><glyph d="M191 0H1L103 780H372Q421 780 470.5 772Q520 764 557 738.5Q594 713 613 665Q632 617 621 536L618 514Q605 419 564 367.5Q523 316 468 294L551 0H346L279 268H226ZM334 432Q348 432 363 435.5Q378 439 391.5 448.5Q405 458 414.5 475Q424 492 427 519L428 530Q431 558 425.5 575Q420 592 410 601Q400 610 386.5 613Q373 616 359 616H272L247 432ZM321 950 375 910 441 950H606L461 840H271L156 950Z" glyph-name="Rcaron" horiz-adv-x="635" unicode="&#344;" /><glyph d="M191 0H1L103 780H372Q421 780 470.5 772Q520 764 557 738.5Q594 713 613 665Q632 617 621 536L618 514Q605 419 564 367.5Q523 316 468 294L551 0H346L279 268H226ZM334 432Q348 432 363 435.5Q378 439 391.5 448.5Q405 458 414.5 475Q424 492 427 519L428 530Q431 558 425.5 575Q420 592 410 601Q400 610 386.5 613Q373 616 359 616H272L247 432ZM332 -100Q323 -172 280.5 -201Q238 -230 155 -230L163 -170Q195 -170 218 -163.5Q241 -157 255 -140H167L180 -40H340Z" glyph-name="Rcommaaccent" horiz-adv-x="635" unicode="&#342;" /><glyph d="M277 314Q152 330 98.5 384Q45 438 57 544L59 562Q65 614 86.5 656.5Q108 699 147 729.5Q186 760 241.5 777Q297 794 370 794Q517 794 579 726Q641 658 624 524L621 500H431Q440 566 423 598Q406 630 353 630H343Q301 630 278 609.5Q255 589 252 560L251 550Q249 534 252.5 521Q256 508 268.5 498Q281 488 304.5 480Q328 472 367 467Q430 458 475 441Q520 424 548 395.5Q576 367 586.5 326Q597 285 591 229L589 211Q577 100 497.5 43Q418 -14 279 -14Q136 -14 66.5 52Q-3 118 14 254L16 270H206Q198 205 219 177.5Q240 150 289 150H299Q348 150 371 170.5Q394 191 397 220L398 230Q399 245 395.5 258Q392 271 379 281.5Q366 292 341.5 300.5Q317 309 277 314Z" glyph-name="S" horiz-adv-x="640" unicode="S" /><glyph d="M277 314Q152 330 98.5 384Q45 438 57 544L59 562Q65 614 86.5 656.5Q108 699 147 729.5Q186 760 241.5 777Q297 794 370 794Q517 794 579 726Q641 658 624 524L621 500H431Q440 566 423 598Q406 630 353 630H343Q301 630 278 609.5Q255 589 252 560L251 550Q249 534 252.5 521Q256 508 268.5 498Q281 488 304.5 480Q328 472 367 467Q430 458 475 441Q520 424 548 395.5Q576 367 586.5 326Q597 285 591 229L589 211Q577 100 497.5 43Q418 -14 279 -14Q136 -14 66.5 52Q-3 118 14 254L16 270H206Q198 205 219 177.5Q240 150 289 150H299Q348 150 371 170.5Q394 191 397 220L398 230Q399 245 395.5 258Q392 271 379 281.5Q366 292 341.5 300.5Q317 309 277 314ZM551 950 472 840H290L358 950Z" glyph-name="Sacute" horiz-adv-x="640" unicode="&#346;" /><glyph d="M277 314Q152 330 98.5 384Q45 438 57 544L59 562Q65 614 86.5 656.5Q108 699 147 729.5Q186 760 241.5 777Q297 794 370 794Q517 794 579 726Q641 658 624 524L621 500H431Q440 566 423 598Q406 630 353 630H343Q301 630 278 609.5Q255 589 252 560L251 550Q249 534 252.5 521Q256 508 268.5 498Q281 488 304.5 480Q328 472 367 467Q430 458 475 441Q520 424 548 395.5Q576 367 586.5 326Q597 285 591 229L589 211Q577 100 497.5 43Q418 -14 279 -14Q136 -14 66.5 52Q-3 118 14 254L16 270H206Q198 205 219 177.5Q240 150 289 150H299Q348 150 371 170.5Q394 191 397 220L398 230Q399 245 395.5 258Q392 271 379 281.5Q366 292 341.5 300.5Q317 309 277 314ZM336 950 390 910 456 950H621L476 840H286L171 950Z" glyph-name="Scaron" horiz-adv-x="640" unicode="&#352;" /><glyph d="M277 314Q152 330 98.5 384Q45 438 57 544L59 562Q65 614 86.5 656.5Q108 699 147 729.5Q186 760 241.5 777Q297 794 370 794Q517 794 579 726Q641 658 624 524L621 500H431Q440 566 423 598Q406 630 353 630H343Q301 630 278 609.5Q255 589 252 560L251 550Q249 534 252.5 521Q256 508 268.5 498Q281 488 304.5 480Q328 472 367 467Q430 458 475 441Q520 424 548 395.5Q576 367 586.5 326Q597 285 591 229L589 211Q578 106 506.5 50Q435 -6 310 -13L297 -37Q336 -41 361 -59Q386 -77 386 -115Q386 -163 351 -189.5Q316 -216 252 -216Q210 -216 182 -206.5Q154 -197 141 -188L177 -121Q187 -128 205.5 -133Q224 -138 244 -138Q272 -138 281.5 -132Q291 -126 291 -115Q291 -105 282 -99.5Q273 -94 250 -94Q242 -94 235 -95Q228 -96 222 -97Q215 -98 209 -99L199 -70L230 -12Q111 -1 54.5 64Q-2 129 14 254L16 270H206Q198 205 219 177.5Q240 150 289 150H299Q348 150 371 170.5Q394 191 397 220L398 230Q399 245 395.5 258Q392 271 379 281.5Q366 292 341.5 300.5Q317 309 277 314Z" glyph-name="Scedilla" horiz-adv-x="640" unicode="&#350;" /><glyph d="M277 314Q152 330 98.5 384Q45 438 57 544L59 562Q65 614 86.5 656.5Q108 699 147 729.5Q186 760 241.5 777Q297 794 370 794Q517 794 579 726Q641 658 624 524L621 500H431Q440 566 423 598Q406 630 353 630H343Q301 630 278 609.5Q255 589 252 560L251 550Q249 534 252.5 521Q256 508 268.5 498Q281 488 304.5 480Q328 472 367 467Q430 458 475 441Q520 424 548 395.5Q576 367 586.5 326Q597 285 591 229L589 211Q577 100 497.5 43Q418 -14 279 -14Q136 -14 66.5 52Q-3 118 14 254L16 270H206Q198 205 219 177.5Q240 150 289 150H299Q348 150 371 170.5Q394 191 397 220L398 230Q399 245 395.5 258Q392 271 379 281.5Q366 292 341.5 300.5Q317 309 277 314ZM156 840 301 950H491L606 840H441L386 879L321 840Z" glyph-name="Scircumflex" horiz-adv-x="640" unicode="&#348;" /><glyph d="M277 314Q152 330 98.5 384Q45 438 57 544L59 562Q65 614 86.5 656.5Q108 699 147 729.5Q186 760 241.5 777Q297 794 370 794Q517 794 579 726Q641 658 624 524L621 500H431Q440 566 423 598Q406 630 353 630H343Q301 630 278 609.5Q255 589 252 560L251 550Q249 534 252.5 521Q256 508 268.5 498Q281 488 304.5 480Q328 472 367 467Q430 458 475 441Q520 424 548 395.5Q576 367 586.5 326Q597 285 591 229L589 211Q577 100 497.5 43Q418 -14 279 -14Q136 -14 66.5 52Q-3 118 14 254L16 270H206Q198 205 219 177.5Q240 150 289 150H299Q348 150 371 170.5Q394 191 397 220L398 230Q399 245 395.5 258Q392 271 379 281.5Q366 292 341.5 300.5Q317 309 277 314ZM337 -100Q328 -172 285.5 -201Q243 -230 160 -230L168 -170Q200 -170 223 -163.5Q246 -157 260 -140H172L185 -40H345Z" glyph-name="Scommaaccent" horiz-adv-x="640" unicode="&#536;" /><glyph d="M331 0H141L222 616H47L68 780H608L587 616H412Z" glyph-name="T" horiz-adv-x="570" unicode="T" /><glyph d="M393 473H503L483 323H373L331 0H141L183 323H73L93 473H203L222 616H47L68 780H608L587 616H412Z" glyph-name="Tbar" horiz-adv-x="570" unicode="&#358;" /><glyph d="M301 950 355 910 421 950H586L441 840H251L136 950ZM331 0H141L222 616H47L68 780H608L587 616H412Z" glyph-name="Tcaron" horiz-adv-x="570" unicode="&#356;" /><glyph d="M302 -100Q293 -172 250.5 -201Q208 -230 125 -230L133 -170Q165 -170 188 -163.5Q211 -157 225 -140H137L150 -40H310ZM331 0H141L222 616H47L68 780H608L587 616H412Z" glyph-name="Tcommaaccent" horiz-adv-x="570" unicode="&#354;" /><glyph d="M421 840H271L286 950H436ZM331 0H141L222 616H47L68 780H608L587 616H412Z" glyph-name="Tdotaccent" horiz-adv-x="570" unicode="&#7786;" /><glyph d="M316 298Q330 298 345 301.5Q360 305 373.5 314.5Q387 324 396.5 341Q406 358 409 385L410 396Q413 424 407.5 441Q402 458 392 467Q382 476 368.5 479Q355 482 341 482H254L229 298ZM276 646H354Q403 646 452.5 638Q502 630 539 604.5Q576 579 595 531Q614 483 603 402L600 380Q589 299 557.5 250.5Q526 202 482.5 176Q439 150 387.5 142Q336 134 287 134H208L191 0H1L103 780H293Z" glyph-name="Thorn" horiz-adv-x="620" unicode="&#222;" /><glyph d="M290 -14Q205 -14 150.5 4Q96 22 66 55.5Q36 89 28 137.5Q20 186 28 248L98 780H288L219 253Q216 230 217 211Q218 192 226 178.5Q234 165 252 157.5Q270 150 301 150Q363 150 388 178Q413 206 419 253L488 780H678L608 248Q600 186 581 137.5Q562 89 525.5 55.5Q489 22 432 4Q375 -14 290 -14Z" glyph-name="U" horiz-adv-x="670" unicode="U" /><glyph d="M290 -14Q205 -14 150.5 4Q96 22 66 55.5Q36 89 28 137.5Q20 186 28 248L98 780H288L219 253Q216 230 217 211Q218 192 226 178.5Q234 165 252 157.5Q270 150 301 150Q363 150 388 178Q413 206 419 253L488 780H678L608 248Q600 186 581 137.5Q562 89 525.5 55.5Q489 22 432 4Q375 -14 290 -14ZM566 950 487 840H305L373 950Z" glyph-name="Uacute" horiz-adv-x="670" unicode="&#218;" /><glyph d="M290 -14Q205 -14 150.5 4Q96 22 66 55.5Q36 89 28 137.5Q20 186 28 248L98 780H288L219 253Q216 230 217 211Q218 192 226 178.5Q234 165 252 157.5Q270 150 301 150Q363 150 388 178Q413 206 419 253L488 780H678L608 248Q600 186 581 137.5Q562 89 525.5 55.5Q489 22 432 4Q375 -14 290 -14ZM394 824Q334 824 297.5 834.5Q261 845 241.5 862Q222 879 217.5 902Q213 925 216 950H341Q339 935 354 927.5Q369 920 407 920Q445 920 462 927.5Q479 935 481 950H606Q603 925 592 902Q581 879 557 862Q533 845 493.5 834.5Q454 824 394 824Z" glyph-name="Ubreve" horiz-adv-x="670" unicode="&#364;" /><glyph d="M290 -14Q205 -14 150.5 4Q96 22 66 55.5Q36 89 28 137.5Q20 186 28 248L98 780H288L219 253Q216 230 217 211Q218 192 226 178.5Q234 165 252 157.5Q270 150 301 150Q363 150 388 178Q413 206 419 253L488 780H678L608 248Q600 186 581 137.5Q562 89 525.5 55.5Q489 22 432 4Q375 -14 290 -14ZM171 840 316 950H506L621 840H456L401 879L336 840Z" glyph-name="Ucircumflex" horiz-adv-x="670" unicode="&#219;" /><glyph d="M290 -14Q205 -14 150.5 4Q96 22 66 55.5Q36 89 28 137.5Q20 186 28 248L98 780H288L219 253Q216 230 217 211Q218 192 226 178.5Q234 165 252 157.5Q270 150 301 150Q363 150 388 178Q413 206 419 253L488 780H678L608 248Q600 186 581 137.5Q562 89 525.5 55.5Q489 22 432 4Q375 -14 290 -14ZM381 840H231L246 950H396ZM561 840H411L426 950H576Z" glyph-name="Udieresis" horiz-adv-x="670" unicode="&#220;" /><glyph d="M290 -14Q205 -14 150.5 4Q96 22 66 55.5Q36 89 28 137.5Q20 186 28 248L98 780H288L219 253Q216 230 217 211Q218 192 226 178.5Q234 165 252 157.5Q270 150 301 150Q363 150 388 178Q413 206 419 253L488 780H678L608 248Q600 186 581 137.5Q562 89 525.5 55.5Q489 22 432 4Q375 -14 290 -14ZM449 950 487 840H305L256 950Z" glyph-name="Ugrave" horiz-adv-x="670" unicode="&#217;" /><glyph d="M290 -14Q205 -14 150.5 4Q96 22 66 55.5Q36 89 28 137.5Q20 186 28 248L98 780H288L219 253Q216 230 217 211Q218 192 226 178.5Q234 165 252 157.5Q270 150 301 150Q363 150 388 178Q413 206 419 253L488 780H678L608 248Q600 186 581 137.5Q562 89 525.5 55.5Q489 22 432 4Q375 -14 290 -14ZM456 950 387 840H225L283 950ZM646 950 567 840H405L473 950Z" glyph-name="Uhungarumlaut" horiz-adv-x="670" unicode="&#368;" /><glyph d="M290 -14Q205 -14 150.5 4Q96 22 66 55.5Q36 89 28 137.5Q20 186 28 248L98 780H288L219 253Q216 230 217 211Q218 192 226 178.5Q234 165 252 157.5Q270 150 301 150Q363 150 388 178Q413 206 419 253L488 780H678L608 248Q600 186 581 137.5Q562 89 525.5 55.5Q489 22 432 4Q375 -14 290 -14ZM251 950H571L556 840H236Z" glyph-name="Umacron" horiz-adv-x="670" unicode="&#362;" /><glyph d="M418 0Q409 -4 397.5 -9.5Q386 -15 376.5 -22.5Q367 -30 360.5 -40Q354 -50 354 -63Q354 -75 363.5 -82.5Q373 -90 389 -90Q403 -90 412 -86.5Q421 -83 426 -80L452 -190Q435 -200 405 -208Q375 -216 341 -216Q282 -216 247.5 -193.5Q213 -171 213 -123Q213 -91 224.5 -63.5Q236 -36 256 -13Q182 -10 134 9.5Q86 29 60 62.5Q34 96 27 142.5Q20 189 28 248L98 780H288L219 253Q216 230 217 211Q218 192 226 178.5Q234 165 252 157.5Q270 150 301 150Q363 150 388 178Q413 206 419 253L488 780H678L608 248Q602 200 589 159.5Q576 119 554 87.5Q532 56 498.5 34Q465 12 418 0Z" glyph-name="Uogonek" horiz-adv-x="670" unicode="&#370;" /><glyph d="M405 904Q382 904 365.5 889Q349 874 349 850Q349 830 361 818Q373 806 392 806Q415 806 431.5 821Q448 836 448 860Q448 880 436 892Q424 904 405 904ZM386 746Q343 746 315.5 773Q288 800 288 842Q288 868 298 890.5Q308 913 324.5 929.5Q341 946 363.5 955Q386 964 411 964Q454 964 481.5 937Q509 910 509 868Q509 842 499 819.5Q489 797 472.5 780.5Q456 764 433.5 755Q411 746 386 746ZM290 -14Q205 -14 150.5 4Q96 22 66 55.5Q36 89 28 137.5Q20 186 28 248L98 780H288L219 253Q216 230 217 211Q218 192 226 178.5Q234 165 252 157.5Q270 150 301 150Q363 150 388 178Q413 206 419 253L488 780H678L608 248Q600 186 581 137.5Q562 89 525.5 55.5Q489 22 432 4Q375 -14 290 -14Z" glyph-name="Uring" horiz-adv-x="670" unicode="&#366;" /><glyph d="M290 -14Q205 -14 150.5 4Q96 22 66 55.5Q36 89 28 137.5Q20 186 28 248L98 780H288L219 253Q216 230 217 211Q218 192 226 178.5Q234 165 252 157.5Q270 150 301 150Q363 150 388 178Q413 206 419 253L488 780H678L608 248Q600 186 581 137.5Q562 89 525.5 55.5Q489 22 432 4Q375 -14 290 -14ZM606 950Q601 914 588.5 890Q576 866 558.5 851.5Q541 837 520.5 830.5Q500 824 479 824Q455 824 434 831Q413 838 395.5 847Q378 856 362.5 863Q347 870 333 870Q319 870 308.5 863.5Q298 857 296 840H201Q206 876 218.5 900Q231 924 248.5 938.5Q266 953 286.5 959.5Q307 966 328 966Q352 966 373 959Q394 952 411.5 943Q429 934 444.5 927Q460 920 474 920Q488 920 498.5 926.5Q509 933 511 950Z" glyph-name="Utilde" horiz-adv-x="670" unicode="&#360;" /><glyph d="M146 0 62 780H265L304 220L490 780H694L406 0Z" glyph-name="V" horiz-adv-x="650" unicode="V" /><glyph d="M499 562 328 0H87L65 780H263L255 262L411 780H645L665 262L793 780H991L765 0H523Z" glyph-name="W" horiz-adv-x="950" unicode="W" /><glyph d="M706 950 627 840H445L513 950ZM499 562 328 0H87L65 780H263L255 262L411 780H645L665 262L793 780H991L765 0H523Z" glyph-name="Wacute" horiz-adv-x="950" unicode="&#7810;" /><glyph d="M311 840 456 950H646L761 840H596L541 879L476 840ZM499 562 328 0H87L65 780H263L255 262L411 780H645L665 262L793 780H991L765 0H523Z" glyph-name="Wcircumflex" horiz-adv-x="950" unicode="&#372;" /><glyph d="M521 840H371L386 950H536ZM701 840H551L566 950H716ZM499 562 328 0H87L65 780H263L255 262L411 780H645L665 262L793 780H991L765 0H523Z" glyph-name="Wdieresis" horiz-adv-x="950" unicode="&#7812;" /><glyph d="M589 950 627 840H445L396 950ZM499 562 328 0H87L65 780H263L255 262L411 780H645L665 262L793 780H991L765 0H523Z" glyph-name="Wgrave" horiz-adv-x="950" unicode="&#7808;" /><glyph d="M200 413 68 780H288L352 542L478 780H698L469 413L596 0H386L315 265L176 0H-34Z" glyph-name="X" horiz-adv-x="660" unicode="X" /><glyph d="M366 0H176L207 240L57 780H265L333 474L481 780H689L397 240Z" glyph-name="Y" horiz-adv-x="640" unicode="Y" /><glyph d="M551 950 472 840H290L358 950ZM366 0H176L207 240L57 780H265L333 474L481 780H689L397 240Z" glyph-name="Yacute" horiz-adv-x="640" unicode="&#221;" /><glyph d="M156 840 301 950H491L606 840H441L386 879L321 840ZM366 0H176L207 240L57 780H265L333 474L481 780H689L397 240Z" glyph-name="Ycircumflex" horiz-adv-x="640" unicode="&#374;" /><glyph d="M366 840H216L231 950H381ZM546 840H396L411 950H561ZM366 0H176L207 240L57 780H265L333 474L481 780H689L397 240Z" glyph-name="Ydieresis" horiz-adv-x="640" unicode="&#376;" /><glyph d="M434 950 472 840H290L241 950ZM366 0H176L207 240L57 780H265L333 474L481 780H689L397 240Z" glyph-name="Ygrave" horiz-adv-x="640" unicode="&#7922;" /><glyph d="M236 950H556L541 840H221ZM366 0H176L207 240L57 780H265L333 474L481 780H689L397 240Z" glyph-name="Ymacron" horiz-adv-x="640" unicode="&#562;" /><glyph d="M359 620 211 616H81L102 780H612L595 650L243 160L391 164H541L520 0H-10L7 130Z" glyph-name="Z" horiz-adv-x="610" unicode="Z" /><glyph d="M359 620 211 616H81L102 780H612L595 650L243 160L391 164H541L520 0H-10L7 130ZM535 950 456 840H274L342 950Z" glyph-name="Zacute" horiz-adv-x="610" unicode="&#377;" /><glyph d="M359 620 211 616H81L102 780H612L595 650L243 160L391 164H541L520 0H-10L7 130ZM320 950 374 910 440 950H605L460 840H270L155 950Z" glyph-name="Zcaron" horiz-adv-x="610" unicode="&#381;" /><glyph d="M359 620 211 616H81L102 780H612L595 650L243 160L391 164H541L520 0H-10L7 130ZM440 840H290L305 950H455Z" glyph-name="Zdotaccent" horiz-adv-x="610" unicode="&#379;" /><glyph d="M225 134Q248 134 269.5 143Q291 152 304 165L315 244L238 232Q212 228 198.5 215.5Q185 203 183 185L182 176Q180 160 189.5 147Q199 134 225 134ZM311 54Q277 22 237.5 4Q198 -14 145 -14Q98 -14 67 0Q36 14 19 37Q2 60 -3.5 89.5Q-9 119 -5 151L-3 166Q3 209 19.5 237.5Q36 266 62.5 284.5Q89 303 125.5 313.5Q162 324 207 331L329 350Q332 379 320.5 392.5Q309 406 277 406Q245 406 231 390.5Q217 375 215 355H42L43 366Q46 403 60 435.5Q74 468 102.5 492Q131 516 175.5 530Q220 544 286 544Q351 544 396.5 529.5Q442 515 469.5 488.5Q497 462 507 424Q517 386 511 340L486 150L477 0H311Z" glyph-name="a" horiz-adv-x="560" unicode="a" /><glyph d="M225 134Q248 134 269.5 143Q291 152 304 165L315 244L238 232Q212 228 198.5 215.5Q185 203 183 185L182 176Q180 160 189.5 147Q199 134 225 134ZM311 54Q277 22 237.5 4Q198 -14 145 -14Q98 -14 67 0Q36 14 19 37Q2 60 -3.5 89.5Q-9 119 -5 151L-3 166Q3 209 19.5 237.5Q36 266 62.5 284.5Q89 303 125.5 313.5Q162 324 207 331L329 350Q332 379 320.5 392.5Q309 406 277 406Q245 406 231 390.5Q217 375 215 355H42L43 366Q46 403 60 435.5Q74 468 102.5 492Q131 516 175.5 530Q220 544 286 544Q351 544 396.5 529.5Q442 515 469.5 488.5Q497 462 507 424Q517 386 511 340L486 150L477 0H311ZM535 780 399 590H217L333 780Z" glyph-name="aacute" horiz-adv-x="560" unicode="&#225;" /><glyph d="M225 134Q248 134 269.5 143Q291 152 304 165L315 244L238 232Q212 228 198.5 215.5Q185 203 183 185L182 176Q180 160 189.5 147Q199 134 225 134ZM311 54Q277 22 237.5 4Q198 -14 145 -14Q98 -14 67 0Q36 14 19 37Q2 60 -3.5 89.5Q-9 119 -5 151L-3 166Q3 209 19.5 237.5Q36 266 62.5 284.5Q89 303 125.5 313.5Q162 324 207 331L329 350Q332 379 320.5 392.5Q309 406 277 406Q245 406 231 390.5Q217 375 215 355H42L43 366Q46 403 60 435.5Q74 468 102.5 492Q131 516 175.5 530Q220 544 286 544Q351 544 396.5 529.5Q442 515 469.5 488.5Q497 462 507 424Q517 386 511 340L486 150L477 0H311ZM306 576Q250 576 214.5 591.5Q179 607 159.5 634Q140 661 135.5 698.5Q131 736 138 780H268Q265 759 269 746.5Q273 734 281 726.5Q289 719 300.5 716.5Q312 714 324 714Q349 714 371 726.5Q393 739 398 780H528Q523 736 509 698.5Q495 661 468 634Q441 607 401 591.5Q361 576 306 576Z" glyph-name="abreve" horiz-adv-x="560" unicode="&#259;" /><glyph d="M225 134Q248 134 269.5 143Q291 152 304 165L315 244L238 232Q212 228 198.5 215.5Q185 203 183 185L182 176Q180 160 189.5 147Q199 134 225 134ZM311 54Q277 22 237.5 4Q198 -14 145 -14Q98 -14 67 0Q36 14 19 37Q2 60 -3.5 89.5Q-9 119 -5 151L-3 166Q3 209 19.5 237.5Q36 266 62.5 284.5Q89 303 125.5 313.5Q162 324 207 331L329 350Q332 379 320.5 392.5Q309 406 277 406Q245 406 231 390.5Q217 375 215 355H42L43 366Q46 403 60 435.5Q74 468 102.5 492Q131 516 175.5 530Q220 544 286 544Q351 544 396.5 529.5Q442 515 469.5 488.5Q497 462 507 424Q517 386 511 340L486 150L477 0H311ZM83 590 243 780H423L533 590H373L318 663L243 590Z" glyph-name="acircumflex" horiz-adv-x="560" unicode="&#226;" /><glyph d="M505 780 369 590H187L303 780Z" glyph-name="acute" horiz-adv-x="500" unicode="&#180;" /><glyph d="M481 950 402 840H220L288 950Z" glyph-name="acute.cap" horiz-adv-x="500" unicode="&#58402;" /><glyph d="M225 134Q248 134 269.5 143Q291 152 304 165L315 244L238 232Q212 228 198.5 215.5Q185 203 183 185L182 176Q180 160 189.5 147Q199 134 225 134ZM311 54Q277 22 237.5 4Q198 -14 145 -14Q98 -14 67 0Q36 14 19 37Q2 60 -3.5 89.5Q-9 119 -5 151L-3 166Q3 209 19.5 237.5Q36 266 62.5 284.5Q89 303 125.5 313.5Q162 324 207 331L329 350Q332 379 320.5 392.5Q309 406 277 406Q245 406 231 390.5Q217 375 215 355H42L43 366Q46 403 60 435.5Q74 468 102.5 492Q131 516 175.5 530Q220 544 286 544Q351 544 396.5 529.5Q442 515 469.5 488.5Q497 462 507 424Q517 386 511 340L486 150L477 0H311ZM518 590H328L353 780H543ZM288 590H98L123 780H313Z" glyph-name="adieresis" horiz-adv-x="560" unicode="&#228;" /><glyph d="M591 406Q562 406 540.5 389Q519 372 510 330H652Q654 368 640 387Q626 406 591 406ZM225 134Q246 134 266.5 141.5Q287 149 313 171Q311 188 311.5 206Q312 224 314 244L238 232Q212 228 198.5 215.5Q185 203 183 185L182 176Q180 160 189.5 147Q199 134 225 134ZM286 544Q347 544 386 530Q425 516 448 491Q474 515 510.5 529.5Q547 544 597 544Q663 544 710 524Q757 504 786 467Q815 430 825.5 377.5Q836 325 827 260L819 200H493Q492 177 498 162.5Q504 148 514 139.5Q524 131 537 127.5Q550 124 565 124Q600 124 620 137.5Q640 151 642 170H815L814 163Q803 83 738.5 34.5Q674 -14 557 -14Q488 -14 439.5 5Q391 24 361 58Q321 23 273 4.5Q225 -14 165 -14Q112 -14 77.5 0Q43 14 23.5 37Q4 60 -2.5 89.5Q-9 119 -5 151L-3 166Q3 209 19.5 237.5Q36 266 62.5 284.5Q89 303 125.5 313.5Q162 324 207 331L329 350Q332 379 320.5 392.5Q309 406 277 406Q245 406 231 390.5Q217 375 215 355H42L43 366Q46 403 60 435.5Q74 468 102.5 492Q131 516 175.5 530Q220 544 286 544Z" glyph-name="ae" horiz-adv-x="856" unicode="&#230;" /><glyph d="M225 134Q248 134 269.5 143Q291 152 304 165L315 244L238 232Q212 228 198.5 215.5Q185 203 183 185L182 176Q180 160 189.5 147Q199 134 225 134ZM311 54Q277 22 237.5 4Q198 -14 145 -14Q98 -14 67 0Q36 14 19 37Q2 60 -3.5 89.5Q-9 119 -5 151L-3 166Q3 209 19.5 237.5Q36 266 62.5 284.5Q89 303 125.5 313.5Q162 324 207 331L329 350Q332 379 320.5 392.5Q309 406 277 406Q245 406 231 390.5Q217 375 215 355H42L43 366Q46 403 60 435.5Q74 468 102.5 492Q131 516 175.5 530Q220 544 286 544Q351 544 396.5 529.5Q442 515 469.5 488.5Q497 462 507 424Q517 386 511 340L486 150L477 0H311ZM333 780 399 590H217L131 780Z" glyph-name="agrave" horiz-adv-x="560" unicode="&#224;" /><glyph d="M217 -116Q220 -94 176 -94Q162 -94 147 -96.5Q132 -99 129 -101L136 -47Q147 -44 164.5 -40.5Q182 -37 207 -37Q256 -37 286.5 -58Q317 -79 311 -125Q305 -169 271.5 -192.5Q238 -216 174 -216Q135 -216 107 -207.5Q79 -199 66 -190L103 -121Q114 -129 132 -133.5Q150 -138 170 -138Q196 -138 206 -132Q216 -126 217 -116Z" glyph-name="altcedilla" horiz-adv-x="602" unicode="&#58390;" /><glyph d="M225 134Q248 134 269.5 143Q291 152 304 165L315 244L238 232Q212 228 198.5 215.5Q185 203 183 185L182 176Q180 160 189.5 147Q199 134 225 134ZM311 54Q277 22 237.5 4Q198 -14 145 -14Q98 -14 67 0Q36 14 19 37Q2 60 -3.5 89.5Q-9 119 -5 151L-3 166Q3 209 19.5 237.5Q36 266 62.5 284.5Q89 303 125.5 313.5Q162 324 207 331L329 350Q332 379 320.5 392.5Q309 406 277 406Q245 406 231 390.5Q217 375 215 355H42L43 366Q46 403 60 435.5Q74 468 102.5 492Q131 516 175.5 530Q220 544 286 544Q351 544 396.5 529.5Q442 515 469.5 488.5Q497 462 507 424Q517 386 511 340L486 150L477 0H311ZM171 765H491L470 605H150Z" glyph-name="amacron" horiz-adv-x="560" unicode="&#257;" /><glyph d="M279 594Q275 556 290 518Q318 535 336 551.5Q354 568 357 594L358 602Q360 621 351.5 632Q343 643 326 643H320Q303 643 292.5 632Q282 621 280 602ZM252 144Q284 144 313 153L212 300Q200 287 192.5 272Q185 257 183 236L182 228Q171 144 247 144ZM205 -14Q149 -14 106 1.5Q63 17 35 46Q7 75 -4.5 116Q-16 157 -10 207L-8 224Q-4 263 8.5 294Q21 325 39 350Q57 375 79 394.5Q101 414 125 430Q104 467 94 505Q84 543 92 599L94 613Q99 650 115 682.5Q131 715 160 740Q189 765 231.5 779.5Q274 794 333 794Q397 794 440 778Q483 762 508 736Q533 710 541.5 676Q550 642 544 605L542 592Q536 550 519 519.5Q502 489 479 466Q456 443 427 426Q398 409 368 394L449 276Q480 333 488 388L489 395H684Q675 332 641.5 263Q608 194 548 132L639 0H418L398 28Q360 8 311.5 -3Q263 -14 205 -14Z" glyph-name="ampersand" horiz-adv-x="700" unicode="&amp;" /><glyph d="M204 360 303 -120H112L13 360L238 840H429Z" glyph-name="anglebracketleft" horiz-adv-x="380" unicode="&#12296;" /><glyph d="M213 390 299 0H108L22 390L210 780H401Z" glyph-name="anglebracketleft.cap" horiz-adv-x="380" unicode="&#58519;" /><glyph d="M172 360 73 840H264L363 360L138 -120H-52Z" glyph-name="anglebracketright" horiz-adv-x="380" unicode="&#12297;" /><glyph d="M85 780H276L362 390L174 0H-17L171 390Z" glyph-name="anglebracketright.cap" horiz-adv-x="380" unicode="&#58520;" /><glyph d="M225 134Q248 134 269.5 143Q291 152 304 165L315 244L238 232Q212 228 198.5 215.5Q185 203 183 185L182 176Q180 160 189.5 147Q199 134 225 134ZM477 0Q468 -4 456.5 -9.5Q445 -15 435.5 -22.5Q426 -30 419.5 -40Q413 -50 413 -63Q413 -75 422.5 -82.5Q432 -90 448 -90Q462 -90 471 -86.5Q480 -83 485 -80L511 -190Q494 -200 464 -208Q434 -216 400 -216Q341 -216 306.5 -193.5Q272 -171 272 -123Q272 -93 282.5 -67Q293 -41 311 -18V54Q277 22 237.5 4Q198 -14 145 -14Q98 -14 67 0Q36 14 19 37Q2 60 -3.5 89.5Q-9 119 -5 151L-3 166Q3 209 19.5 237.5Q36 266 62.5 284.5Q89 303 125.5 313.5Q162 324 207 331L329 350Q332 379 320.5 392.5Q309 406 277 406Q245 406 231 390.5Q217 375 215 355H42L43 366Q46 403 60 435.5Q74 468 102.5 492Q131 516 175.5 530Q220 544 286 544Q351 544 396.5 529.5Q442 515 469.5 488.5Q497 462 507 424Q517 386 511 340L486 150Z" glyph-name="aogonek" horiz-adv-x="560" unicode="&#261;" /><glyph d="M216 602Q255 602 283 592Q311 582 334.5 570Q358 558 379.5 548Q401 538 426 538Q456 538 480 554Q504 570 517 584L591 499Q559 457 515 427.5Q471 398 417 398Q378 398 350 408Q322 418 298 430Q274 442 252.5 452Q231 462 206 462Q176 462 152.5 446Q129 430 115 416L41 501Q73 543 117.5 572.5Q162 602 216 602ZM187 382Q226 382 254 372Q282 362 305.5 350Q329 338 350.5 328Q372 318 397 318Q427 318 451 334Q475 350 488 364L562 279Q530 237 486 207.5Q442 178 388 178Q349 178 321 188Q293 198 269 210Q245 222 223.5 232Q202 242 177 242Q147 242 123.5 226Q100 210 86 196L12 281Q44 323 88.5 352.5Q133 382 187 382Z" glyph-name="approxequal" horiz-adv-x="600" unicode="&#8776;" /><glyph d="M225 134Q248 134 269.5 143Q291 152 304 165L315 244L238 232Q212 228 198.5 215.5Q185 203 183 185L182 176Q180 160 189.5 147Q199 134 225 134ZM311 54Q277 22 237.5 4Q198 -14 145 -14Q98 -14 67 0Q36 14 19 37Q2 60 -3.5 89.5Q-9 119 -5 151L-3 166Q3 209 19.5 237.5Q36 266 62.5 284.5Q89 303 125.5 313.5Q162 324 207 331L329 350Q332 379 320.5 392.5Q309 406 277 406Q245 406 231 390.5Q217 375 215 355H42L43 366Q46 403 60 435.5Q74 468 102.5 492Q131 516 175.5 530Q220 544 286 544Q351 544 396.5 529.5Q442 515 469.5 488.5Q497 462 507 424Q517 386 511 340L486 150L477 0H311ZM327 734Q304 734 287.5 719Q271 704 271 680Q271 660 283 648Q295 636 314 636Q337 636 353.5 651Q370 666 370 690Q370 710 358 722Q346 734 327 734ZM308 576Q265 576 237.5 603Q210 630 210 672Q210 698 220 720.5Q230 743 246.5 759.5Q263 776 285.5 785Q308 794 333 794Q376 794 403.5 767Q431 740 431 698Q431 672 421 649.5Q411 627 394.5 610.5Q378 594 355.5 585Q333 576 308 576Z" glyph-name="aring" horiz-adv-x="560" unicode="&#229;" /><glyph d="M70 607 378 299V780H542V299L850 607V376L460 -14L70 376Z" glyph-name="arrowdown" horiz-adv-x="920" unicode="&#8595;" /><glyph d="M677 780 369 472H850V308H369L677 0H446L56 390L446 780Z" glyph-name="arrowleft" horiz-adv-x="920" unicode="&#8592;" /><glyph d="M474 780 864 390 474 0H243L551 308H70V472H551L243 780Z" glyph-name="arrowright" horiz-adv-x="920" unicode="&#8594;" /><glyph d="M70 404 460 794 850 404V173L542 481V0H378V481L70 173Z" glyph-name="arrowup" horiz-adv-x="920" unicode="&#8593;" /><glyph d="M571 260H389L324 559L181 260H-1L263 780H443Z" glyph-name="asciicircum" horiz-adv-x="600" unicode="^" /><glyph d="M201 492Q240 492 268 482Q296 472 320 460Q344 448 365.5 438Q387 428 412 428Q442 428 466 444Q490 460 503 474L577 389Q545 347 500.5 317.5Q456 288 402 288Q363 288 335 298Q307 308 283.5 320Q260 332 238.5 342Q217 352 192 352Q162 352 138 336Q114 320 101 306L27 391Q59 433 103 462.5Q147 492 201 492Z" glyph-name="asciitilde" horiz-adv-x="600" unicode="~" /><glyph d="M292 404 233 512 313 565 380 463ZM448 613 318 577 302 663 430 708ZM62 463 157 565 223 512 136 404ZM78 708 194 663 154 577 34 613ZM316 800 294 670H204L216 800Z" glyph-name="asterisk" horiz-adv-x="420" unicode="*" /><glyph d="M461 187Q488 187 506 200Q524 213 532 224L551 366Q546 377 528.5 390Q511 403 484 403Q450 403 433 380Q416 357 410 313L405 277Q398 229 412.5 208Q427 187 461 187ZM459 -96Q550 -96 640.5 -68Q731 -40 805 15L861 -77Q805 -120 750 -147Q695 -174 643 -189Q591 -204 543.5 -209Q496 -214 456 -214Q345 -214 256 -182.5Q167 -151 107.5 -90Q48 -29 22 61.5Q-4 152 11 270L16 310Q31 428 78.5 518.5Q126 609 198 670Q270 731 361 762.5Q452 794 553 794Q649 794 732.5 772.5Q816 751 875.5 704Q935 657 963.5 582.5Q992 508 978 401L974 371Q962 281 933 221Q904 161 862 125.5Q820 90 768 75Q716 60 658 60H535L532 115Q507 84 474 65Q441 46 392 46Q347 46 314.5 62.5Q282 79 262.5 109.5Q243 140 236.5 182.5Q230 225 237 277L242 313Q249 365 266 407.5Q283 450 309 480.5Q335 511 370.5 527.5Q406 544 451 544Q500 544 531 524.5Q562 505 579 474L597 530H742L715 396L686 178Q728 181 756.5 192Q785 203 804 225.5Q823 248 834 283.5Q845 319 852 371L856 401Q867 486 845 540Q823 594 779.5 624Q736 654 678 665Q620 676 559 676H553Q473 676 402.5 653.5Q332 631 276.5 586Q221 541 184.5 472Q148 403 136 310L131 270Q119 177 137 108Q155 39 198 -6Q241 -51 306 -73.5Q371 -96 453 -96Z" glyph-name="at" horiz-adv-x="1000" unicode="@" /><glyph d="M474 287Q501 287 519 300Q537 313 545 324L564 466Q559 477 541.5 490Q524 503 497 503Q463 503 446 480Q429 457 423 413L418 377Q411 329 425.5 308Q440 287 474 287ZM472 4Q563 4 653.5 32Q744 60 818 115L874 23Q818 -20 763 -47Q708 -74 656 -89Q604 -104 556.5 -109Q509 -114 469 -114Q358 -114 269 -82.5Q180 -51 120.5 10Q61 71 35 161.5Q9 252 24 370L29 410Q44 528 91.5 618.5Q139 709 211 770Q283 831 374 862.5Q465 894 566 894Q662 894 745.5 872.5Q829 851 888.5 804Q948 757 976.5 682.5Q1005 608 991 501L987 471Q975 381 946 321Q917 261 875 225.5Q833 190 781 175Q729 160 671 160H548L545 215Q520 184 487 165Q454 146 405 146Q360 146 327.5 162.5Q295 179 275.5 209.5Q256 240 249.5 282.5Q243 325 250 377L255 413Q262 465 279 507.5Q296 550 322 580.5Q348 611 383.5 627.5Q419 644 464 644Q513 644 544 624.5Q575 605 592 574L610 630H755L728 496L699 278Q741 281 769.5 292Q798 303 817 325.5Q836 348 847 383.5Q858 419 865 471L869 501Q880 586 858 640Q836 694 792.5 724Q749 754 691 765Q633 776 572 776H566Q486 776 415.5 753.5Q345 731 289.5 686Q234 641 197.5 572Q161 503 149 410L144 370Q132 277 150 208Q168 139 211 94Q254 49 319 26.5Q384 4 466 4Z" glyph-name="at.cap" horiz-adv-x="1000" unicode="&#58643;" /><glyph d="M225 134Q248 134 269.5 143Q291 152 304 165L315 244L238 232Q212 228 198.5 215.5Q185 203 183 185L182 176Q180 160 189.5 147Q199 134 225 134ZM311 54Q277 22 237.5 4Q198 -14 145 -14Q98 -14 67 0Q36 14 19 37Q2 60 -3.5 89.5Q-9 119 -5 151L-3 166Q3 209 19.5 237.5Q36 266 62.5 284.5Q89 303 125.5 313.5Q162 324 207 331L329 350Q332 379 320.5 392.5Q309 406 277 406Q245 406 231 390.5Q217 375 215 355H42L43 366Q46 403 60 435.5Q74 468 102.5 492Q131 516 175.5 530Q220 544 286 544Q351 544 396.5 529.5Q442 515 469.5 488.5Q497 462 507 424Q517 386 511 340L486 150L477 0H311ZM548 780Q542 733 528 699.5Q514 666 495 645Q476 624 453 614Q430 604 405 604Q381 604 359.5 612Q338 620 319 629.5Q300 639 283.5 647Q267 655 252 655Q238 655 228.5 647Q219 639 217 620H97Q103 667 117 700.5Q131 734 150 755Q169 776 192 786Q215 796 240 796Q264 796 285.5 788Q307 780 326 770.5Q345 761 362 753Q379 745 394 745Q408 745 417 753Q426 761 428 780Z" glyph-name="atilde" horiz-adv-x="560" unicode="&#227;" /><glyph d="M208 185Q214 174 229 159Q244 144 274 144Q347 144 360 246L365 284Q372 335 358.5 360.5Q345 386 307 386Q277 386 257.5 371Q238 356 229 345ZM248 490Q274 514 308.5 529Q343 544 395 544Q487 544 525.5 474Q564 404 548 284L543 246Q535 189 518.5 141Q502 93 475 58.5Q448 24 410 5Q372 -14 321 -14Q261 -14 227 7Q193 28 175 61L156 0H-10L19 150L105 800H289Z" glyph-name="b" horiz-adv-x="585" unicode="b" /><glyph d="M76 840H256L360 -120H180Z" glyph-name="backslash" horiz-adv-x="438" unicode="\" /><glyph d="M247 780 337 0H157L67 780Z" glyph-name="backslash.cap" horiz-adv-x="400" unicode="&#58466;" /><glyph d="M398 202H272V328H398ZM232 368V162H438V368ZM600 530V0H70V530Z" glyph-name="ballotboxwithx" horiz-adv-x="680" unicode="&#9746;" /><glyph d="M111 840H291L165 -120H-15Z" glyph-name="bar" horiz-adv-x="280" unicode="|" /><glyph d="M103 780H283L181 0H1Z" glyph-name="bar.cap" horiz-adv-x="280" unicode="&#58467;" /><glyph d="M208 185Q214 174 229 159Q244 144 274 144Q347 144 360 246L365 284Q372 335 358.5 360.5Q345 386 307 386Q277 386 257.5 371Q238 356 229 345ZM248 490Q274 514 308.5 529Q343 544 395 544Q487 544 525.5 474Q564 404 548 284L543 246Q535 189 518.5 141Q502 93 475 58.5Q448 24 410 5Q372 -14 321 -14Q261 -14 227 7Q193 28 175 61L156 0H-10L19 150L105 800H289ZM277 840H127L142 950H292Z" glyph-name="bdotaccent" horiz-adv-x="585" unicode="&#7683;" /><glyph d="M56 390Q56 474 88 547.5Q120 621 174.5 675.5Q229 730 302.5 762Q376 794 460 794Q544 794 617.5 762Q691 730 745.5 675.5Q800 621 832 547.5Q864 474 864 390Q864 306 832 232.5Q800 159 745.5 104.5Q691 50 617.5 18Q544 -14 460 -14Q376 -14 302.5 18Q229 50 174.5 104.5Q120 159 88 232.5Q56 306 56 390Z" glyph-name="blackcircle" horiz-adv-x="920" unicode="&#9679;" /><glyph d="M70 0V530H600V0Z" glyph-name="blacksmallsquare" horiz-adv-x="680" unicode="&#9642;" /><glyph d="M70 0V780H850V0Z" glyph-name="blacksquare" horiz-adv-x="920" unicode="&#9632;" /><glyph d="M390 680Q353 680 333.5 661Q314 642 308 600L293 480Q281 395 215 360Q244 342 255.5 313Q267 284 261 240L245 120Q235 40 306 40L285 -120H255Q202 -120 162 -110Q122 -100 95.5 -77.5Q69 -55 58.5 -19Q48 17 55 70L72 200Q82 280 11 280L32 440Q104 440 114 520L131 650Q138 702 158.5 738.5Q179 775 211 797.5Q243 820 285.5 830Q328 840 381 840H411Z" glyph-name="braceleft" horiz-adv-x="380" unicode="{" /><glyph d="M382 620Q311 620 301 540L297 510Q285 425 219 390Q248 372 259.5 343Q271 314 265 270L260 232Q256 194 271.5 177Q287 160 322 160L301 0H271Q218 0 178 10Q138 20 111.5 42.5Q85 65 74.5 101Q64 137 71 190L76 230Q86 310 15 310L36 470Q108 470 118 550L123 590Q130 642 150.5 678.5Q171 715 203 737.5Q235 760 277.5 770Q320 780 373 780H403Z" glyph-name="braceleft.cap" horiz-adv-x="380" unicode="&#58517;" /><glyph d="M-14 40Q57 40 67 120L83 240Q89 284 108.5 313Q128 342 160 360Q103 395 115 480L130 600Q142 680 70 680L91 840H121Q173 840 213.5 830Q254 820 280.5 797.5Q307 775 317.5 738.5Q328 702 321 650L304 520Q299 478 313 459Q327 440 364 440L343 280Q275 280 263 208L245 70Q238 17 217.5 -19Q197 -55 165 -77.5Q133 -100 90 -110Q47 -120 -5 -120H-35Z" glyph-name="braceright" horiz-adv-x="380" unicode="}" /><glyph d="M83 780H113Q165 780 205.5 770Q246 760 272.5 737.5Q299 715 309.5 678.5Q320 642 313 590L308 550Q303 508 317 489Q331 470 368 470L347 310Q276 310 266 230L261 190Q254 137 233.5 101Q213 65 181 42.5Q149 20 106 10Q63 0 11 0H-19L2 160Q37 160 56 177Q75 194 82 232L87 270Q93 314 112.5 343Q132 372 164 390Q107 425 119 510L123 540Q133 620 62 620Z" glyph-name="braceright.cap" horiz-adv-x="380" unicode="&#58518;" /><glyph d="M411 840 390 680H279L195 40H306L285 -120H-10L116 840Z" glyph-name="bracketleft" horiz-adv-x="380" unicode="[" /><glyph d="M403 780 382 620H271L211 160H322L301 0H6L108 780Z" glyph-name="bracketleft.cap" horiz-adv-x="380" unicode="&#58515;" /><glyph d="M-35 -120 -14 40H97L181 680H70L91 840H386L260 -120Z" glyph-name="bracketright" horiz-adv-x="380" unicode="]" /><glyph d="M-19 0 2 160H113L173 620H62L83 780H378L276 0Z" glyph-name="bracketright.cap" horiz-adv-x="380" unicode="&#58516;" /><glyph d="M276 576Q220 576 184.5 591.5Q149 607 129.5 634Q110 661 105.5 698.5Q101 736 108 780H238Q235 759 239 746.5Q243 734 251 726.5Q259 719 270.5 716.5Q282 714 294 714Q319 714 341 726.5Q363 739 368 780H498Q493 736 479 698.5Q465 661 438 634Q411 607 371 591.5Q331 576 276 576Z" glyph-name="breve" horiz-adv-x="500" unicode="&#728;" /><glyph d="M309 824Q249 824 212.5 834.5Q176 845 156.5 862Q137 879 132.5 902Q128 925 131 950H256Q254 935 269 927.5Q284 920 322 920Q360 920 377 927.5Q394 935 396 950H521Q518 925 507 902Q496 879 472 862Q448 845 408.5 834.5Q369 824 309 824Z" glyph-name="breve.cap" horiz-adv-x="500" unicode="&#58406;" /><glyph d="M45 340H225L165 -120H-15ZM111 840H291L231 380H51Z" glyph-name="brokenbar" horiz-adv-x="280" unicode="&#166;" /><glyph d="M49 370H229L181 0H1ZM103 780H283L234 410H54Z" glyph-name="brokenbar.cap" horiz-adv-x="280" unicode="&#58469;" /><glyph d="M374 180H34L79 520H419Z" glyph-name="bullet" horiz-adv-x="460" unicode="&#8226;" /><glyph d="M379 220H39L84 560H424Z" glyph-name="bullet.cap" horiz-adv-x="460" unicode="&#58470;" /><glyph d="M191 246Q177 144 250 144Q278 144 292 160.5Q306 177 309 200H482L479 178Q473 135 455.5 100Q438 65 407.5 39.5Q377 14 333.5 0Q290 -14 232 -14Q170 -14 124.5 5.5Q79 25 50.5 59.5Q22 94 11 141.5Q0 189 8 246L13 284Q20 339 40 386.5Q60 434 94 469Q128 504 176 524Q224 544 288 544Q405 544 460 493Q515 442 501 342L498 320H325Q326 333 325 345Q324 357 319 366Q314 375 304.5 380.5Q295 386 279 386Q246 386 224.5 361Q203 336 196 284Z" glyph-name="c" horiz-adv-x="528" unicode="c" /><glyph d="M191 246Q177 144 250 144Q278 144 292 160.5Q306 177 309 200H482L479 178Q473 135 455.5 100Q438 65 407.5 39.5Q377 14 333.5 0Q290 -14 232 -14Q170 -14 124.5 5.5Q79 25 50.5 59.5Q22 94 11 141.5Q0 189 8 246L13 284Q20 339 40 386.5Q60 434 94 469Q128 504 176 524Q224 544 288 544Q405 544 460 493Q515 442 501 342L498 320H325Q326 333 325 345Q324 357 319 366Q314 375 304.5 380.5Q295 386 279 386Q246 386 224.5 361Q203 336 196 284ZM525 780 389 590H207L323 780Z" glyph-name="cacute" horiz-adv-x="528" unicode="&#263;" /><glyph d="M238 780 293 706 368 780H528L368 590H188L78 780Z" glyph-name="caron" horiz-adv-x="500" unicode="&#711;" /><glyph d="M266 950 320 910 386 950H551L406 840H216L101 950Z" glyph-name="caron.cap" horiz-adv-x="500" unicode="&#58413;" /><glyph d="M461 800 408 590H328L356 800Z" glyph-name="caronSlovak" horiz-adv-x="500" unicode="&#58387;" /><glyph d="M191 246Q177 144 250 144Q278 144 292 160.5Q306 177 309 200H482L479 178Q473 135 455.5 100Q438 65 407.5 39.5Q377 14 333.5 0Q290 -14 232 -14Q170 -14 124.5 5.5Q79 25 50.5 59.5Q22 94 11 141.5Q0 189 8 246L13 284Q20 339 40 386.5Q60 434 94 469Q128 504 176 524Q224 544 288 544Q405 544 460 493Q515 442 501 342L498 320H325Q326 333 325 345Q324 357 319 366Q314 375 304.5 380.5Q295 386 279 386Q246 386 224.5 361Q203 336 196 284ZM258 780 313 706 388 780H548L388 590H208L98 780Z" glyph-name="ccaron" horiz-adv-x="528" unicode="&#269;" /><glyph d="M125 -121Q135 -128 153.5 -133Q172 -138 192 -138Q220 -138 229.5 -132Q239 -126 239 -115Q239 -105 230 -99.5Q221 -94 198 -94Q190 -94 183 -95Q176 -96 170 -97Q163 -98 157 -99L147 -70L179 -10Q82 6 38 75.5Q-6 145 8 246L13 284Q20 339 40 386.5Q60 434 94 469Q128 504 176 524Q224 544 288 544Q405 544 460 493Q515 442 501 342L498 320H325Q326 333 325 345Q324 357 319 366Q314 375 304.5 380.5Q295 386 279 386Q246 386 224.5 361Q203 336 196 284L191 246Q177 144 250 144Q278 144 292 160.5Q306 177 309 200H482L479 178Q468 97 414.5 45.5Q361 -6 258 -13L245 -37Q284 -41 309 -59Q334 -77 334 -115Q334 -163 299 -189.5Q264 -216 200 -216Q158 -216 130 -206.5Q102 -197 89 -188Z" glyph-name="ccedilla" horiz-adv-x="528" unicode="&#231;" /><glyph d="M191 246Q177 144 250 144Q278 144 292 160.5Q306 177 309 200H482L479 178Q473 135 455.5 100Q438 65 407.5 39.5Q377 14 333.5 0Q290 -14 232 -14Q170 -14 124.5 5.5Q79 25 50.5 59.5Q22 94 11 141.5Q0 189 8 246L13 284Q20 339 40 386.5Q60 434 94 469Q128 504 176 524Q224 544 288 544Q405 544 460 493Q515 442 501 342L498 320H325Q326 333 325 345Q324 357 319 366Q314 375 304.5 380.5Q295 386 279 386Q246 386 224.5 361Q203 336 196 284ZM73 590 233 780H413L523 590H363L308 663L233 590Z" glyph-name="ccircumflex" horiz-adv-x="528" unicode="&#265;" /><glyph d="M191 246Q177 144 250 144Q278 144 292 160.5Q306 177 309 200H482L479 178Q473 135 455.5 100Q438 65 407.5 39.5Q377 14 333.5 0Q290 -14 232 -14Q170 -14 124.5 5.5Q79 25 50.5 59.5Q22 94 11 141.5Q0 189 8 246L13 284Q20 339 40 386.5Q60 434 94 469Q128 504 176 524Q224 544 288 544Q405 544 460 493Q515 442 501 342L498 320H325Q326 333 325 345Q324 357 319 366Q314 375 304.5 380.5Q295 386 279 386Q246 386 224.5 361Q203 336 196 284ZM393 590H203L228 780H418Z" glyph-name="cdotaccent" horiz-adv-x="528" unicode="&#267;" /><glyph d="M103 -121Q113 -128 131.5 -133Q150 -138 170 -138Q198 -138 207.5 -132Q217 -126 217 -115Q217 -105 208 -99.5Q199 -94 176 -94Q168 -94 161 -95Q154 -96 148 -97Q141 -98 135 -99L125 -70L163 0H243L223 -37Q262 -41 287 -59Q312 -77 312 -115Q312 -163 277 -189.5Q242 -216 178 -216Q136 -216 108 -206.5Q80 -197 67 -188Z" glyph-name="cedilla" horiz-adv-x="602" unicode="&#184;" /><glyph d="M62 -60 117 91Q59 132 39.5 204Q20 276 31 370L36 410Q46 490 69 550Q92 610 130 650.5Q168 691 221.5 711.5Q275 732 346 732H355L395 840H535L485 706Q541 680 569 628Q597 576 584 494L579 463H398Q414 571 340 571H332Q307 571 289 559Q271 547 258 525Q245 503 236.5 473.5Q228 444 224 409L219 371Q216 351 214.5 323Q213 295 218 270Q223 245 238.5 227.5Q254 210 286 210H294Q329 210 349.5 234.5Q370 259 376 298H558L555 281Q534 163 467.5 106Q401 49 277 49Q268 49 259 49Q250 49 242 50L202 -60Z" glyph-name="cent" horiz-adv-x="600" unicode="&#162;" /><glyph d="M53 590 213 780H393L503 590H343L288 663L213 590Z" glyph-name="circumflex" horiz-adv-x="500" unicode="&#710;" /><glyph d="M86 840 231 950H421L536 840H371L316 879L251 840Z" glyph-name="circumflex.cap" horiz-adv-x="500" unicode="&#58403;" /><glyph d="M349 0Q368 37 381.5 73Q395 109 404.5 147Q414 185 420.5 227Q427 269 431 320L428 321Q415 290 396 261Q377 232 352 209.5Q327 187 296 173.5Q265 160 228 160Q191 160 159 173.5Q127 187 103 210.5Q79 234 65.5 265.5Q52 297 52 334Q52 373 64.5 406Q77 439 100 463Q123 487 155 500.5Q187 514 226 514Q252 514 272.5 507Q293 500 310 491L312 493Q295 518 284.5 547.5Q274 577 274 610Q274 647 287.5 680Q301 713 324.5 737.5Q348 762 380 776Q412 790 450 790Q488 790 520 776Q552 762 575.5 737.5Q599 713 612.5 680Q626 647 626 610Q626 577 615.5 547.5Q605 518 588 493L590 491Q607 500 627.5 507Q648 514 674 514Q713 514 745 500.5Q777 487 800 463Q823 439 835.5 406Q848 373 848 334Q848 297 834.5 265.5Q821 234 797 210.5Q773 187 741 173.5Q709 160 672 160Q635 160 604 173.5Q573 187 548 209.5Q523 232 504 261Q485 290 472 321L469 320Q473 269 479.5 227Q486 185 495.5 147Q505 109 518.5 73Q532 37 551 0Z" glyph-name="club" horiz-adv-x="900" unicode="&#9827;" /><glyph d="M224 295H34L59 485H249ZM186 0H-4L21 190H211Z" glyph-name="colon" horiz-adv-x="280" unicode=":" /><glyph d="M234 295H44L69 485H259ZM196 0H6L31 190H221Z" glyph-name="colon.T" horiz-adv-x="300" unicode="&#61828;" /><glyph d="M191 40Q165 -150 -24 -150L-12 -60Q62 -60 90 0H-4L21 190H211Z" glyph-name="comma" horiz-adv-x="280" unicode="," /><glyph d="M201 40Q175 -150 -14 -150L-2 -60Q72 -60 100 0H6L31 190H221Z" glyph-name="comma.T" horiz-adv-x="300" unicode="&#61827;" /><glyph d="M267 -100Q258 -172 215.5 -201Q173 -230 90 -230L98 -170Q130 -170 153 -163.5Q176 -157 190 -140H102L115 -40H275Z" glyph-name="commaaccent" horiz-adv-x="602" unicode="&#58388;" /><glyph d="M239 860Q254 970 403 970L398 930Q369 930 347.5 924.5Q326 919 313 900H394L386 840H236Z" glyph-name="commaaccent.cap" horiz-adv-x="500" unicode="&#58414;" /><glyph d="M464 282Q488 282 502 295Q516 308 516 332H671V310Q671 232 617.5 186Q564 140 460 140Q403 140 361.5 156.5Q320 173 293 203.5Q266 234 253.5 277Q241 320 241 372V408Q241 460 253.5 503Q266 546 293 576.5Q320 607 361.5 623.5Q403 640 460 640Q564 640 617.5 593Q671 546 671 461V439H516Q516 471 502 484.5Q488 498 464 498Q431 498 418 475Q405 452 405 408V372Q405 328 418 305Q431 282 464 282ZM116 390Q116 319 143 256Q170 193 216.5 146.5Q263 100 326 73Q389 46 460 46Q531 46 594 73Q657 100 703.5 146.5Q750 193 777 256Q804 319 804 390Q804 461 777 524Q750 587 703.5 633.5Q657 680 594 707Q531 734 460 734Q389 734 326 707Q263 680 216.5 633.5Q170 587 143 524Q116 461 116 390ZM56 390Q56 474 88 547.5Q120 621 174.5 675.5Q229 730 302.5 762Q376 794 460 794Q544 794 617.5 762Q691 730 745.5 675.5Q800 621 832 547.5Q864 474 864 390Q864 306 832 232.5Q800 159 745.5 104.5Q691 50 617.5 18Q544 -14 460 -14Q376 -14 302.5 18Q229 50 174.5 104.5Q120 159 88 232.5Q56 306 56 390Z" glyph-name="copyright" horiz-adv-x="920" unicode="&#169;" /><glyph d="M357 345Q351 356 336 371Q321 386 291 386Q218 386 205 284L200 246Q193 195 206.5 169.5Q220 144 258 144Q288 144 307.5 159Q327 174 336 185ZM244 544Q274 544 295 539Q316 534 331.5 526.5Q347 519 357.5 509Q368 499 376 490L417 800H601L515 150L506 0H340V65Q311 26 266.5 6Q222 -14 170 -14Q78 -14 39.5 56Q1 126 17 246L22 284Q29 341 46 388.5Q63 436 90 470.5Q117 505 155 524.5Q193 544 244 544Z" glyph-name="d" horiz-adv-x="595" unicode="d" /><glyph d="M63 665 192 660 181 570 50 565ZM316 800 294 670H204L216 800ZM420 565 291 570 302 660 433 665ZM189 560H279L267 430L245 300H155L167 430Z" glyph-name="dagger" horiz-adv-x="420" unicode="&#8224;" /><glyph d="M388 325 259 330 271 420 401 425ZM262 430H172L176 495L189 560H279L276 495ZM63 665 192 660 181 570 50 565ZM316 800 294 670H204L216 800ZM420 565 291 570 302 660 433 665ZM31 425 161 420 149 330 18 325ZM158 320H248L236 190L213 60H123L136 190Z" glyph-name="daggerdbl" horiz-adv-x="420" unicode="&#8225;" /><glyph d="M357 345Q351 356 336 371Q321 386 291 386Q218 386 205 284L200 246Q193 195 206.5 169.5Q220 144 258 144Q288 144 307.5 159Q327 174 336 185ZM244 544Q274 544 295 539Q316 534 331.5 526.5Q347 519 357.5 509Q368 499 376 490L417 800H601L515 150L506 0H340V65Q311 26 266.5 6Q222 -14 170 -14Q78 -14 39.5 56Q1 126 17 246L22 284Q29 341 46 388.5Q63 436 90 470.5Q117 505 155 524.5Q193 544 244 544ZM756 800 703 590H623L651 800Z" glyph-name="dcaron" horiz-adv-x="595" unicode="&#271;" /><glyph d="M170 -14Q78 -14 39.5 56Q1 126 17 246L22 284Q29 341 46 388.5Q63 436 90 470.5Q117 505 155 524.5Q193 544 244 544Q274 544 295 539Q316 534 331.5 526.5Q347 519 357.5 509Q368 499 376 490L390 600H283L301 730H407L417 800H601L591 730H652L634 600H574L515 150L506 0H340V65Q311 26 266.5 6Q222 -14 170 -14ZM357 345Q351 356 336 371Q321 386 291 386Q218 386 205 284L200 246Q193 195 206.5 169.5Q220 144 258 144Q288 144 307.5 159Q327 174 336 185Z" glyph-name="dcroat" horiz-adv-x="595" unicode="&#273;" /><glyph d="M357 345Q351 356 336 371Q321 386 291 386Q218 386 205 284L200 246Q193 195 206.5 169.5Q220 144 258 144Q288 144 307.5 159Q327 174 336 185ZM244 544Q274 544 295 539Q316 534 331.5 526.5Q347 519 357.5 509Q368 499 376 490L417 800H601L515 150L506 0H340V65Q311 26 266.5 6Q222 -14 170 -14Q78 -14 39.5 56Q1 126 17 246L22 284Q29 341 46 388.5Q63 436 90 470.5Q117 505 155 524.5Q193 544 244 544ZM589 840H439L454 950H604Z" glyph-name="ddotaccent" horiz-adv-x="595" unicode="&#7691;" /><glyph d="M245 794Q320 794 363 752Q406 710 399 634L398 623Q395 585 380 555Q365 525 341.5 504Q318 483 287.5 472Q257 461 222 461Q147 461 104 503Q61 545 68 621L69 632Q72 670 87 700Q102 730 125.5 751Q149 772 179.5 783Q210 794 245 794ZM234 684Q211 684 196 671Q181 658 179 633L178 622Q176 601 188 586Q200 571 223 571H233Q256 571 271 584Q286 597 288 622L289 633Q291 654 279 669Q267 684 244 684Z" glyph-name="degree" horiz-adv-x="400" unicode="&#176;" /><glyph d="M817 390Q764 348 712.5 300.5Q661 253 614 201.5Q567 150 525.5 96.5Q484 43 451 -10H449Q416 43 374.5 96.5Q333 150 286 201.5Q239 253 187.5 300.5Q136 348 83 390Q136 432 187.5 479.5Q239 527 286 578.5Q333 630 374.5 683.5Q416 737 449 790H451Q484 737 525.5 683.5Q567 630 614 578.5Q661 527 712.5 479.5Q764 432 817 390Z" glyph-name="diamond" horiz-adv-x="900" unicode="&#9830;" /><glyph d="M488 590H298L323 780H513ZM258 590H68L93 780H283Z" glyph-name="dieresis" horiz-adv-x="500" unicode="&#168;" /><glyph d="M476 840H326L341 950H491ZM296 840H146L161 950H311Z" glyph-name="dieresis.cap" horiz-adv-x="500" unicode="&#58409;" /><glyph d="M411 500H221L246 690H436ZM357 90H167L192 280H382ZM53 472H573L551 308H31Z" glyph-name="divide" horiz-adv-x="600" unicode="&#247;" /><glyph d="M286 200Q325 200 342.5 218Q360 236 360 257Q360 275 351.5 286Q343 297 327.5 304Q312 311 291 315.5Q270 320 245 325Q199 333 163 344.5Q127 356 103 376.5Q79 397 67.5 429Q56 461 61 511L62 522Q66 569 88 607.5Q110 646 146.5 674Q183 702 232.5 717Q282 732 341 732Q346 732 351.5 732Q357 732 362 731L402 840H542L491 703Q539 678 563 630Q587 582 575 503L573 490H388Q390 507 388.5 523.5Q387 540 380.5 552.5Q374 565 360.5 573Q347 581 326 581H321Q283 581 266 562Q249 543 249 520Q249 505 254 496Q259 487 271.5 480.5Q284 474 305.5 469.5Q327 465 359 459Q401 452 437.5 440.5Q474 429 500.5 408.5Q527 388 540.5 355Q554 322 550 273L549 262Q544 214 522 174.5Q500 135 462.5 107Q425 79 374 64Q323 49 261 49H249L209 -60H69L118 75Q64 99 36 148.5Q8 198 24 278L25 283H212Q207 244 224 222Q241 200 281 200Z" glyph-name="dollar" horiz-adv-x="600" unicode="$" /><glyph d="M373 590H183L208 780H398Z" glyph-name="dotaccent" horiz-adv-x="500" unicode="&#729;" /><glyph d="M386 840H236L251 950H401Z" glyph-name="dotaccent.cap" horiz-adv-x="500" unicode="&#58408;" /><glyph d="M254 -200H94L115 -40H275Z" glyph-name="dotbelow" horiz-adv-x="602" unicode="&#58389;" /><glyph d="M68 530H252L183 0H-1Z" glyph-name="dotlessi" horiz-adv-x="280" unicode="&#305;" /><glyph d="M68 530H252L182 -5Q174 -63 153.5 -103Q133 -143 102 -167.5Q71 -192 30.5 -203Q-10 -214 -57 -214Q-95 -214 -116 -209Q-137 -204 -144 -200L-124 -50Q-120 -52 -105.5 -54Q-91 -56 -79 -56Q-48 -56 -26.5 -43Q-5 -30 0 15Z" glyph-name="dotlessj" horiz-adv-x="280" unicode="&#567;" /><glyph d="M331 840H511L385 -120H205ZM111 840H291L165 -120H-15Z" glyph-name="doublebar" horiz-adv-x="500" unicode="&#8214;" /><glyph d="M323 780H503L401 0H221ZM103 780H283L181 0H1Z" glyph-name="doublebar.cap" horiz-adv-x="500" unicode="&#58468;" /><glyph d="M398 780 435 590H293L236 780ZM198 780 264 590H122L36 780Z" glyph-name="doublegrave" horiz-adv-x="500" unicode="&#58386;" /><glyph d="M264 950 302 840H140L91 950ZM454 950 482 840H320L281 950Z" glyph-name="doublegrave.cap" horiz-adv-x="500" unicode="&#58412;" /><glyph d="M284 406Q255 406 233.5 389Q212 372 203 330H345Q347 368 333 387Q319 406 284 406ZM186 200Q185 177 191 162.5Q197 148 207 139.5Q217 131 230 127.5Q243 124 258 124Q293 124 313 137.5Q333 151 335 170H508L507 163Q496 83 431.5 34.5Q367 -14 250 -14Q181 -14 131.5 5.5Q82 25 52 59.5Q22 94 11 142Q0 190 8 246L13 284Q20 339 40 386.5Q60 434 94 469Q128 504 176.5 524Q225 544 290 544Q356 544 403 524Q450 504 479 467Q508 430 518.5 377.5Q529 325 520 260L512 200Z" glyph-name="e" horiz-adv-x="560" unicode="e" /><glyph d="M284 406Q255 406 233.5 389Q212 372 203 330H345Q347 368 333 387Q319 406 284 406ZM186 200Q185 177 191 162.5Q197 148 207 139.5Q217 131 230 127.5Q243 124 258 124Q293 124 313 137.5Q333 151 335 170H508L507 163Q496 83 431.5 34.5Q367 -14 250 -14Q181 -14 131.5 5.5Q82 25 52 59.5Q22 94 11 142Q0 190 8 246L13 284Q20 339 40 386.5Q60 434 94 469Q128 504 176.5 524Q225 544 290 544Q356 544 403 524Q450 504 479 467Q508 430 518.5 377.5Q529 325 520 260L512 200ZM539 780 403 590H221L337 780Z" glyph-name="eacute" horiz-adv-x="560" unicode="&#233;" /><glyph d="M284 406Q255 406 233.5 389Q212 372 203 330H345Q347 368 333 387Q319 406 284 406ZM186 200Q185 177 191 162.5Q197 148 207 139.5Q217 131 230 127.5Q243 124 258 124Q293 124 313 137.5Q333 151 335 170H508L507 163Q496 83 431.5 34.5Q367 -14 250 -14Q181 -14 131.5 5.5Q82 25 52 59.5Q22 94 11 142Q0 190 8 246L13 284Q20 339 40 386.5Q60 434 94 469Q128 504 176.5 524Q225 544 290 544Q356 544 403 524Q450 504 479 467Q508 430 518.5 377.5Q529 325 520 260L512 200ZM310 576Q254 576 218.5 591.5Q183 607 163.5 634Q144 661 139.5 698.5Q135 736 142 780H272Q269 759 273 746.5Q277 734 285 726.5Q293 719 304.5 716.5Q316 714 328 714Q353 714 375 726.5Q397 739 402 780H532Q527 736 513 698.5Q499 661 472 634Q445 607 405 591.5Q365 576 310 576Z" glyph-name="ebreve" horiz-adv-x="560" unicode="&#277;" /><glyph d="M284 406Q255 406 233.5 389Q212 372 203 330H345Q347 368 333 387Q319 406 284 406ZM186 200Q185 177 191 162.5Q197 148 207 139.5Q217 131 230 127.5Q243 124 258 124Q293 124 313 137.5Q333 151 335 170H508L507 163Q496 83 431.5 34.5Q367 -14 250 -14Q181 -14 131.5 5.5Q82 25 52 59.5Q22 94 11 142Q0 190 8 246L13 284Q20 339 40 386.5Q60 434 94 469Q128 504 176.5 524Q225 544 290 544Q356 544 403 524Q450 504 479 467Q508 430 518.5 377.5Q529 325 520 260L512 200ZM272 780 327 706 402 780H562L402 590H222L112 780Z" glyph-name="ecaron" horiz-adv-x="560" unicode="&#283;" /><glyph d="M284 406Q255 406 233.5 389Q212 372 203 330H345Q347 368 333 387Q319 406 284 406ZM186 200Q185 177 191 162.5Q197 148 207 139.5Q217 131 230 127.5Q243 124 258 124Q293 124 313 137.5Q333 151 335 170H508L507 163Q496 83 431.5 34.5Q367 -14 250 -14Q181 -14 131.5 5.5Q82 25 52 59.5Q22 94 11 142Q0 190 8 246L13 284Q20 339 40 386.5Q60 434 94 469Q128 504 176.5 524Q225 544 290 544Q356 544 403 524Q450 504 479 467Q508 430 518.5 377.5Q529 325 520 260L512 200ZM87 590 247 780H427L537 590H377L322 663L247 590Z" glyph-name="ecircumflex" horiz-adv-x="560" unicode="&#234;" /><glyph d="M284 406Q255 406 233.5 389Q212 372 203 330H345Q347 368 333 387Q319 406 284 406ZM186 200Q185 177 191 162.5Q197 148 207 139.5Q217 131 230 127.5Q243 124 258 124Q293 124 313 137.5Q333 151 335 170H508L507 163Q496 83 431.5 34.5Q367 -14 250 -14Q181 -14 131.5 5.5Q82 25 52 59.5Q22 94 11 142Q0 190 8 246L13 284Q20 339 40 386.5Q60 434 94 469Q128 504 176.5 524Q225 544 290 544Q356 544 403 524Q450 504 479 467Q508 430 518.5 377.5Q529 325 520 260L512 200ZM522 590H332L357 780H547ZM292 590H102L127 780H317Z" glyph-name="edieresis" horiz-adv-x="560" unicode="&#235;" /><glyph d="M284 406Q255 406 233.5 389Q212 372 203 330H345Q347 368 333 387Q319 406 284 406ZM186 200Q185 177 191 162.5Q197 148 207 139.5Q217 131 230 127.5Q243 124 258 124Q293 124 313 137.5Q333 151 335 170H508L507 163Q496 83 431.5 34.5Q367 -14 250 -14Q181 -14 131.5 5.5Q82 25 52 59.5Q22 94 11 142Q0 190 8 246L13 284Q20 339 40 386.5Q60 434 94 469Q128 504 176.5 524Q225 544 290 544Q356 544 403 524Q450 504 479 467Q508 430 518.5 377.5Q529 325 520 260L512 200ZM407 590H217L242 780H432Z" glyph-name="edotaccent" horiz-adv-x="560" unicode="&#279;" /><glyph d="M284 406Q255 406 233.5 389Q212 372 203 330H345Q347 368 333 387Q319 406 284 406ZM186 200Q185 177 191 162.5Q197 148 207 139.5Q217 131 230 127.5Q243 124 258 124Q293 124 313 137.5Q333 151 335 170H508L507 163Q496 83 431.5 34.5Q367 -14 250 -14Q181 -14 131.5 5.5Q82 25 52 59.5Q22 94 11 142Q0 190 8 246L13 284Q20 339 40 386.5Q60 434 94 469Q128 504 176.5 524Q225 544 290 544Q356 544 403 524Q450 504 479 467Q508 430 518.5 377.5Q529 325 520 260L512 200ZM337 780 403 590H221L135 780Z" glyph-name="egrave" horiz-adv-x="560" unicode="&#232;" /><glyph d="M316 479Q351 479 372 497Q393 515 396 552L397 563Q400 594 383 613Q366 632 340 632H330Q295 632 274 614Q253 596 250 559L249 548Q246 517 263 498Q280 479 306 479ZM284 317Q255 317 230.5 297.5Q206 278 202 233L201 222Q198 185 215 166.5Q232 148 266 148H276Q305 148 329.5 167.5Q354 187 358 232L359 243Q362 280 345 298.5Q328 317 294 317ZM265 -14Q190 -14 140 6Q90 26 61 58Q32 90 21 129.5Q10 169 14 208L16 228Q22 291 53 334Q84 377 127 399Q113 409 100 426Q87 443 78 464.5Q69 486 65 511.5Q61 537 65 564L68 586Q72 619 88 656Q104 693 135.5 723.5Q167 754 217.5 774Q268 794 343 794Q420 794 469 771.5Q518 749 545.5 715.5Q573 682 581.5 643.5Q590 605 586 573L583 551Q575 490 546.5 453.5Q518 417 479 399Q515 382 533 333.5Q551 285 545 223L543 203Q540 169 523.5 131Q507 93 474 60.5Q441 28 389.5 7Q338 -14 265 -14Z" glyph-name="eight" horiz-adv-x="600" unicode="8" /><glyph d="M141 284Q142 291 135 291Q128 291 127 284L124 255Q123 248 130 248Q137 248 138 255ZM125 135Q126 142 119 142Q112 142 111 135L108 106Q107 99 114 99Q121 99 122 106ZM108 -9Q66 -9 40 3.5Q14 16 -0.5 34Q-15 52 -20 72Q-25 92 -24 107L-23 120Q-21 152 -5 173Q11 194 33 203Q19 213 9.5 231.5Q0 250 2 279L3 292Q4 306 10 324.5Q16 343 31.5 359.5Q47 376 74 387Q101 398 144 398Q187 398 213 387Q239 376 252.5 359.5Q266 343 270 324.5Q274 306 273 292L272 279Q270 250 255.5 231.5Q241 213 219 200Q235 189 245 170.5Q255 152 253 120L252 107Q251 92 244 72Q237 52 221 34Q205 16 177.5 3.5Q150 -9 108 -9Z" glyph-name="eight.inf" horiz-adv-x="300" unicode="&#58745;" /><glyph d="M1216 137Q1213 137 1209 133L1206 106Q1205 99 1212 99Q1219 99 1220 106L1222 126Q1223 134 1220.5 135.5Q1218 137 1216 137ZM1352 282Q1310 282 1287 276Q1264 270 1253 262Q1238 251 1230 233Q1239 240 1251 243Q1263 246 1273 246Q1318 246 1338 215Q1358 184 1353 130L1352 120Q1349 93 1340 69.5Q1331 46 1314 28.5Q1297 11 1270.5 1Q1244 -9 1206 -9Q1141 -9 1104.5 26.5Q1068 62 1078 137L1080 152Q1087 205 1104 249Q1121 293 1156 331Q1175 352 1200.5 365Q1226 378 1254 385.5Q1282 393 1311 395.5Q1340 398 1367 398ZM772 0 787 113H854L869 231L840 213L788 306L919 388H1022L986 113H1052L1037 0ZM287 0 965 780H1115L437 0ZM324 390 339 503H406L421 621L392 603L340 696L471 778H574L538 503H604L589 390ZM24 390 39 503H106L121 621L92 603L40 696L171 778H274L238 503H304L289 390Z" glyph-name="elevensixteenths" horiz-adv-x="1400" unicode="&#61984;" /><glyph d="M546 0H356L381 190H571ZM866 0H676L701 190H891ZM226 0H36L61 190H251Z" glyph-name="ellipsis" horiz-adv-x="1000" unicode="&#8230;" /><glyph d="M284 406Q255 406 233.5 389Q212 372 203 330H345Q347 368 333 387Q319 406 284 406ZM186 200Q185 177 191 162.5Q197 148 207 139.5Q217 131 230 127.5Q243 124 258 124Q293 124 313 137.5Q333 151 335 170H508L507 163Q496 83 431.5 34.5Q367 -14 250 -14Q181 -14 131.5 5.5Q82 25 52 59.5Q22 94 11 142Q0 190 8 246L13 284Q20 339 40 386.5Q60 434 94 469Q128 504 176.5 524Q225 544 290 544Q356 544 403 524Q450 504 479 467Q508 430 518.5 377.5Q529 325 520 260L512 200ZM175 765H495L474 605H154Z" glyph-name="emacron" horiz-adv-x="560" unicode="&#275;" /><glyph d="M47 430H967L946 270H26Z" glyph-name="emdash" horiz-adv-x="1000" unicode="&#8212;" /><glyph d="M52 470H972L951 310H31Z" glyph-name="emdash.cap" horiz-adv-x="1000" unicode="&#58502;" /><glyph glyph-name="emspace" horiz-adv-x="1000" unicode="&#8195;" /><glyph d="M47 430H467L446 270H26Z" glyph-name="endash" horiz-adv-x="500" unicode="&#8211;" /><glyph d="M52 470H472L451 310H31Z" glyph-name="endash.cap" horiz-adv-x="500" unicode="&#58500;" /><glyph d="M226 530V460Q260 500 304 522Q348 544 408 544Q455 544 484.5 528Q514 512 529.5 485.5Q545 459 549 425Q553 391 548 355L501 -5Q493 -63 472.5 -103Q452 -143 421 -167.5Q390 -192 349.5 -203Q309 -214 261 -214Q223 -214 202 -209Q181 -204 174 -200L194 -50Q198 -52 212.5 -54Q227 -56 239 -56Q271 -56 292 -43Q313 -30 319 15L360 325Q361 334 360.5 345Q360 356 355.5 365Q351 374 341 380Q331 386 312 386Q282 386 260.5 371Q239 356 230 345L185 0H1L51 380L60 530Z" glyph-name="eng" horiz-adv-x="595" unicode="&#331;" /><glyph glyph-name="enspace" horiz-adv-x="500" unicode="&#8194;" /><glyph d="M284 406Q255 406 233.5 389Q212 372 203 330H345Q347 368 333 387Q319 406 284 406ZM186 200Q185 177 191 162.5Q197 148 207 139.5Q217 131 230 127.5Q243 124 258 124Q293 124 313 137.5Q333 151 335 170H508L507 163Q499 103 461 61Q423 19 358 0Q348 -3 336.5 -8.5Q325 -14 315.5 -22Q306 -30 300 -40Q294 -50 294 -63Q294 -75 303.5 -82.5Q313 -90 329 -90Q343 -90 352 -86.5Q361 -83 366 -80L392 -190Q375 -200 345 -208Q315 -216 281 -216Q222 -216 187.5 -193.5Q153 -171 153 -123Q153 -90 165.5 -62Q178 -34 198 -11Q143 -4 104 18Q65 40 41.5 74Q18 108 9.5 151.5Q1 195 8 246L13 284Q20 339 40 386.5Q60 434 94 469Q128 504 176.5 524Q225 544 290 544Q356 544 403 524Q450 504 479 467Q508 430 518.5 377.5Q529 325 520 260L512 200Z" glyph-name="eogonek" horiz-adv-x="560" unicode="&#281;" /><glyph d="M38 362H558L537 198H17ZM67 582H587L566 418H46Z" glyph-name="equal" horiz-adv-x="600" unicode="=" /><glyph d="M-10 176H256L241 62H-25ZM10 328H276L261 214H-5Z" glyph-name="equal.inf" horiz-adv-x="300" unicode="&#58749;" /><glyph d="M53 472H573L551 308H31ZM24 252H544L522 88H2ZM82 692H602L580 528H60Z" glyph-name="equivalence" horiz-adv-x="600" unicode="&#8801;" /><glyph d="M191 246Q184 195 198 169.5Q212 144 252 144Q322 144 335 246L340 284Q347 335 333 360.5Q319 386 279 386Q209 386 196 284ZM83 814Q164 809 237 794Q310 779 367 747L498 814L484 714L439 691Q454 674 468 653Q494 611 508 566Q522 521 527.5 474Q533 427 531 379Q529 331 523 285L518 246Q511 191 491 143.5Q471 96 437 61Q403 26 354.5 6Q306 -14 241 -14Q175 -14 128 5.5Q81 25 51.5 59.5Q22 94 11 141.5Q0 189 8 246L13 284Q21 344 44.5 392.5Q68 441 102.5 474.5Q137 508 180 526Q223 544 270 544Q285 544 298 542.5Q311 541 318 539Q304 562 289.5 575Q275 588 257 598L66 500L79 600L150 636Q126 643 105 646Q84 649 61 650Z" glyph-name="eth" horiz-adv-x="560" unicode="&#240;" /><glyph d="M186 0H-4L21 190H211ZM308 780 187 240H57L78 780Z" glyph-name="exclam" horiz-adv-x="280" unicode="!" /><glyph d="M65 530H255L230 340H40ZM-50 -200 64 290H194L179 -200Z" glyph-name="exclamdown" horiz-adv-x="280" unicode="&#161;" /><glyph d="M98 780H288L263 590H73ZM-24 0 97 540H227L206 0Z" glyph-name="exclamdown.cap" horiz-adv-x="280" unicode="&#58433;" /><glyph d="M299 530H406L385 370H278L230 0H46L94 370H14L35 530H115L125 605Q133 663 153.5 703Q174 743 205 767.5Q236 792 276.5 803Q317 814 365 814Q403 814 424 809Q445 804 452 800L432 650Q428 652 413.5 654Q399 656 387 656Q355 656 333.5 643Q312 630 307 585Z" glyph-name="f" horiz-adv-x="420" unicode="f" /><glyph d="M381 840H231L246 950H396ZM299 530H406L385 370H278L230 0H46L94 370H14L35 530H115L125 605Q133 663 153.5 703Q174 743 205 767.5Q236 792 276.5 803Q317 814 365 814Q403 814 424 809Q445 804 452 800L432 650Q428 652 413.5 654Q399 656 387 656Q355 656 333.5 643Q312 630 307 585Z" glyph-name="fdotaccent" horiz-adv-x="420" unicode="&#7711;" /><glyph d="M683 590H493L518 780H708ZM488 530H672L603 0H419ZM299 530H406L385 370H278L230 0H46L94 370H14L35 530H115L125 605Q133 663 153.5 703Q174 743 205 767.5Q236 792 276.5 803Q317 814 365 814Q403 814 424 809Q445 804 452 800L432 650Q428 652 413.5 654Q399 656 387 656Q355 656 333.5 643Q312 630 307 585Z" glyph-name="fi" horiz-adv-x="700" unicode="&#64257;" /><glyph d="M1216 137Q1213 137 1209 133L1206 106Q1205 99 1212 99Q1219 99 1220 106L1222 126Q1223 134 1220.5 135.5Q1218 137 1216 137ZM1352 282Q1310 282 1287 276Q1264 270 1253 262Q1238 251 1230 233Q1239 240 1251 243Q1263 246 1273 246Q1318 246 1338 215Q1358 184 1353 130L1352 120Q1349 93 1340 69.5Q1331 46 1314 28.5Q1297 11 1270.5 1Q1244 -9 1206 -9Q1141 -9 1104.5 26.5Q1068 62 1078 137L1080 152Q1087 205 1104 249Q1121 293 1156 331Q1175 352 1200.5 365Q1226 378 1254 385.5Q1282 393 1311 395.5Q1340 398 1367 398ZM772 0 787 113H854L869 231L840 213L788 306L919 388H1022L986 113H1052L1037 0ZM287 0 965 780H1115L437 0ZM462 515 460 496Q459 489 466 489Q473 489 474 496L477 523Q479 536 464 536H463Q457 536 450 532L341 572L376 780H635L620 666H470L466 640Q471 645 483 647.5Q495 650 512 650Q568 650 589.5 615.5Q611 581 606 524L605 511Q603 487 596 464Q589 441 572.5 422.5Q556 404 529 392.5Q502 381 460 381Q315 381 329 506L330 515ZM24 390 39 503H106L121 621L92 603L40 696L171 778H274L238 503H304L289 390Z" glyph-name="fifteensixteenths" horiz-adv-x="1400" unicode="&#61986;" /><glyph d="M47 430H567L546 270H26Z" glyph-name="figuredash" horiz-adv-x="600" unicode="&#8210;" /><glyph d="M52 470H572L551 310H31Z" glyph-name="figuredash.cap" horiz-adv-x="600" unicode="&#58503;" /><glyph glyph-name="figurespace" horiz-adv-x="600" unicode="&#8199;" /><glyph d="M204 250Q200 220 204 200.5Q208 181 217 169Q226 157 238.5 152.5Q251 148 266 148H276Q291 148 305 153Q319 158 331 169Q343 180 351.5 198Q360 216 362 242L363 253Q367 305 346.5 326.5Q326 348 289 348H284Q260 348 234 336.5Q208 325 191 300L38 355L112 780H608L587 618H246L222 481Q244 495 272 502.5Q300 510 340 510Q397 510 439 492Q481 474 507 441Q533 408 544 361.5Q555 315 549 258L547 238Q541 181 521 134.5Q501 88 465.5 55Q430 22 380 4Q330 -14 265 -14Q121 -14 61.5 53Q2 120 17 242L18 250Z" glyph-name="five" horiz-adv-x="600" unicode="5" /><glyph d="M207 718V642H283V528H207V452H93V528H17V642H93V718Z" glyph-name="five.OP" horiz-adv-x="300" unicode="&#58688;" /><glyph d="M110 125 108 106Q107 99 114 99Q121 99 122 106L125 133Q127 146 112 146H111Q105 146 98 142L-11 182L24 390H283L268 276H118L114 250Q119 255 131 257.5Q143 260 160 260Q216 260 237.5 225.5Q259 191 254 134L253 121Q251 97 244 74Q237 51 220.5 32.5Q204 14 177 2.5Q150 -9 108 -9Q-37 -9 -23 116L-22 125Z" glyph-name="five.inf" horiz-adv-x="300" unicode="&#58742;" /><glyph d="M916 137Q913 137 909 133L906 106Q905 99 912 99Q919 99 920 106L922 126Q923 134 920.5 135.5Q918 137 916 137ZM1052 282Q1010 282 987 276Q964 270 953 262Q938 251 930 233Q939 240 951 243Q963 246 973 246Q1018 246 1038 215Q1058 184 1053 130L1052 120Q1049 93 1040 69.5Q1031 46 1014 28.5Q997 11 970.5 1Q944 -9 906 -9Q841 -9 804.5 26.5Q768 62 778 137L780 152Q787 205 804 249Q821 293 856 331Q875 352 900.5 365Q926 378 954 385.5Q982 393 1011 395.5Q1040 398 1067 398ZM472 0 487 113H554L569 231L540 213L488 306L619 388H722L686 113H752L737 0ZM-13 0 665 780H815L137 0ZM162 515 160 496Q159 489 166 489Q173 489 174 496L177 523Q179 536 164 536H163Q157 536 150 532L41 572L76 780H335L320 666H170L166 640Q171 645 183 647.5Q195 650 212 650Q268 650 289.5 615.5Q311 581 306 524L305 511Q303 487 296 464Q289 441 272.5 422.5Q256 404 229 392.5Q202 381 160 381Q15 381 29 506L30 515Z" glyph-name="fivesixteenths" horiz-adv-x="1100" unicode="&#61975;" /><glyph d="M524 800H708L603 0H419ZM299 530H406L385 370H278L230 0H46L94 370H14L35 530H115L125 605Q133 663 153.5 703Q174 743 205 767.5Q236 792 276.5 803Q317 814 365 814Q403 814 424 809Q445 804 452 800L432 650Q428 652 413.5 654Q399 656 387 656Q355 656 333.5 643Q312 630 307 585Z" glyph-name="fl" horiz-adv-x="700" unicode="&#64258;" /><glyph d="M207 319 249 321H310L326 442L333 486ZM268 0 288 159H-4L14 290L381 780H556L496 321H568L546 159H474L454 0Z" glyph-name="four" horiz-adv-x="600" unicode="4" /><glyph d="M115 175 122 215 93 175ZM92 0 100 63H-33L-21 156L150 390H275L247 177H263L248 63H232L224 0Z" glyph-name="four.inf" horiz-adv-x="300" unicode="&#58741;" /><glyph glyph-name="fourperemspace" horiz-adv-x="250" unicode="&#8197;" /><glyph d="M-313 0 365 780H515L-163 0Z" glyph-name="fraction" horiz-adv-x="200" unicode="&#8260;" /><glyph d="M348 345Q342 356 327 371Q312 386 282 386Q244 386 223.5 363Q203 340 198 299L193 261Q188 222 201.5 198Q215 174 253 174Q283 174 302.5 189Q322 204 331 215ZM312 70Q286 46 251.5 31Q217 16 165 16Q119 16 86.5 34Q54 52 34.5 84Q15 116 9 161.5Q3 207 10 261L15 299Q22 350 38 395Q54 440 81 473Q108 506 146 525Q184 544 235 544Q295 544 329 523Q363 502 381 469L400 530H566L537 380L487 2Q471 -114 403.5 -164Q336 -214 215 -214Q142 -214 94.5 -198.5Q47 -183 20 -157.5Q-7 -132 -15.5 -98Q-24 -64 -18 -27L-14 0H159Q156 -28 169 -47Q182 -66 223 -66Q263 -66 280.5 -49Q298 -32 304 11Z" glyph-name="g" horiz-adv-x="585" unicode="g" /><glyph d="M348 345Q342 356 327 371Q312 386 282 386Q244 386 223.5 363Q203 340 198 299L193 261Q188 222 201.5 198Q215 174 253 174Q283 174 302.5 189Q322 204 331 215ZM312 70Q286 46 251.5 31Q217 16 165 16Q119 16 86.5 34Q54 52 34.5 84Q15 116 9 161.5Q3 207 10 261L15 299Q22 350 38 395Q54 440 81 473Q108 506 146 525Q184 544 235 544Q295 544 329 523Q363 502 381 469L400 530H566L537 380L487 2Q471 -114 403.5 -164Q336 -214 215 -214Q142 -214 94.5 -198.5Q47 -183 20 -157.5Q-7 -132 -15.5 -98Q-24 -64 -18 -27L-14 0H159Q156 -28 169 -47Q182 -66 223 -66Q263 -66 280.5 -49Q298 -32 304 11ZM311 576Q255 576 219.5 591.5Q184 607 164.5 634Q145 661 140.5 698.5Q136 736 143 780H273Q270 759 274 746.5Q278 734 286 726.5Q294 719 305.5 716.5Q317 714 329 714Q354 714 376 726.5Q398 739 403 780H533Q528 736 514 698.5Q500 661 473 634Q446 607 406 591.5Q366 576 311 576Z" glyph-name="gbreve" horiz-adv-x="585" unicode="&#287;" /><glyph d="M348 345Q342 356 327 371Q312 386 282 386Q244 386 223.5 363Q203 340 198 299L193 261Q188 222 201.5 198Q215 174 253 174Q283 174 302.5 189Q322 204 331 215ZM312 70Q286 46 251.5 31Q217 16 165 16Q119 16 86.5 34Q54 52 34.5 84Q15 116 9 161.5Q3 207 10 261L15 299Q22 350 38 395Q54 440 81 473Q108 506 146 525Q184 544 235 544Q295 544 329 523Q363 502 381 469L400 530H566L537 380L487 2Q471 -114 403.5 -164Q336 -214 215 -214Q142 -214 94.5 -198.5Q47 -183 20 -157.5Q-7 -132 -15.5 -98Q-24 -64 -18 -27L-14 0H159Q156 -28 169 -47Q182 -66 223 -66Q263 -66 280.5 -49Q298 -32 304 11ZM88 590 248 780H428L538 590H378L323 663L248 590Z" glyph-name="gcircumflex" horiz-adv-x="585" unicode="&#285;" /><glyph d="M348 345Q342 356 327 371Q312 386 282 386Q244 386 223.5 363Q203 340 198 299L193 261Q188 222 201.5 198Q215 174 253 174Q283 174 302.5 189Q322 204 331 215ZM312 70Q286 46 251.5 31Q217 16 165 16Q119 16 86.5 34Q54 52 34.5 84Q15 116 9 161.5Q3 207 10 261L15 299Q22 350 38 395Q54 440 81 473Q108 506 146 525Q184 544 235 544Q295 544 329 523Q363 502 381 469L400 530H566L537 380L487 2Q471 -114 403.5 -164Q336 -214 215 -214Q142 -214 94.5 -198.5Q47 -183 20 -157.5Q-7 -132 -15.5 -98Q-24 -64 -18 -27L-14 0H159Q156 -28 169 -47Q182 -66 223 -66Q263 -66 280.5 -49Q298 -32 304 11ZM237 660Q247 732 289.5 763Q332 794 415 794L407 734Q374 734 351 726.5Q328 719 314 700H403L388 590H228Z" glyph-name="gcommaaccent" horiz-adv-x="585" unicode="&#291;" /><glyph d="M348 345Q342 356 327 371Q312 386 282 386Q244 386 223.5 363Q203 340 198 299L193 261Q188 222 201.5 198Q215 174 253 174Q283 174 302.5 189Q322 204 331 215ZM312 70Q286 46 251.5 31Q217 16 165 16Q119 16 86.5 34Q54 52 34.5 84Q15 116 9 161.5Q3 207 10 261L15 299Q22 350 38 395Q54 440 81 473Q108 506 146 525Q184 544 235 544Q295 544 329 523Q363 502 381 469L400 530H566L537 380L487 2Q471 -114 403.5 -164Q336 -214 215 -214Q142 -214 94.5 -198.5Q47 -183 20 -157.5Q-7 -132 -15.5 -98Q-24 -64 -18 -27L-14 0H159Q156 -28 169 -47Q182 -66 223 -66Q263 -66 280.5 -49Q298 -32 304 11ZM403 590H213L238 780H428Z" glyph-name="gdotaccent" horiz-adv-x="585" unicode="&#289;" /><glyph d="M299 439Q322 451 342.5 466.5Q363 482 378.5 501Q394 520 403 542Q412 564 412 588Q412 619 396 637.5Q380 656 340 656Q320 656 305 649Q290 642 279.5 631Q269 620 262.5 606.5Q256 593 255 580L179 0H-5L72 589Q78 635 95.5 676Q113 717 146 748Q179 779 230 796.5Q281 814 354 814Q426 814 475.5 796.5Q525 779 554 748.5Q583 718 593 677Q603 636 597 590L595 575Q587 511 555 467.5Q523 424 481 398L495 387Q552 342 582.5 289.5Q613 237 604 168L602 153Q597 117 583 86.5Q569 56 543 33.5Q517 11 478 -1.5Q439 -14 384 -14Q331 -14 299 0Q267 14 250 37.5Q233 61 229 93Q225 125 230 161L231 170H374Q371 148 374.5 136Q378 124 392 124Q407 124 413 135.5Q419 147 420 163Q421 184 413 208Q405 232 373 256L284 324Z" glyph-name="germandbls" horiz-adv-x="650" unicode="&#223;" /><glyph d="M303 780 369 590H187L101 780Z" glyph-name="grave" horiz-adv-x="500" unicode="`" /><glyph d="M364 950 402 840H220L171 950Z" glyph-name="grave.cap" horiz-adv-x="500" unicode="&#58401;" /><glyph d="M550 300 4 104 28 286 341 390 56 494 79 676 574 480Z" glyph-name="greater" horiz-adv-x="600" unicode="&gt;" /><glyph d="M14 176 554 332 541 230 0 74ZM290 460 59 524 83 706 583 550 559 370 19 214 43 396Z" glyph-name="greaterequal" horiz-adv-x="600" unicode="&#8805;" /><glyph d="M535 415 428 340 515 265 494 105 293 250 317 430 556 575ZM275 415 168 340 255 265 234 105 33 250 57 430 296 575Z" glyph-name="guillemotleft" horiz-adv-x="580" unicode="&#171;" /><glyph d="M542 465 435 390 522 315 501 155 300 300 324 480 563 625ZM282 465 175 390 262 315 241 155 40 300 64 480 303 625Z" glyph-name="guillemotleft.cap" horiz-adv-x="580" unicode="&#58451;" /><glyph d="M76 575 277 430 253 250 14 105 35 265 142 340 55 415ZM336 575 537 430 513 250 274 105 295 265 402 340 315 415Z" glyph-name="guillemotright" horiz-adv-x="580" unicode="&#187;" /><glyph d="M83 625 284 480 260 300 21 155 42 315 149 390 62 465ZM343 625 544 480 520 300 281 155 302 315 409 390 322 465Z" glyph-name="guillemotright.cap" horiz-adv-x="580" unicode="&#58452;" /><glyph d="M275 415 168 340 255 265 234 105 33 250 57 430 296 575Z" glyph-name="guilsinglleft" horiz-adv-x="320" unicode="&#8249;" /><glyph d="M282 465 175 390 262 315 241 155 40 300 64 480 303 625Z" glyph-name="guilsinglleft.cap" horiz-adv-x="320" unicode="&#58449;" /><glyph d="M76 575 277 430 253 250 14 105 35 265 142 340 55 415Z" glyph-name="guilsinglright" horiz-adv-x="320" unicode="&#8250;" /><glyph d="M83 625 284 480 260 300 21 155 42 315 149 390 62 465Z" glyph-name="guilsinglright.cap" horiz-adv-x="320" unicode="&#58450;" /><glyph d="M248 483Q277 511 317 527.5Q357 544 408 544Q455 544 484.5 528Q514 512 529.5 485.5Q545 459 549 425Q553 391 548 355L502 0H318L360 325Q361 334 361 345Q361 356 356.5 365Q352 374 341.5 380Q331 386 312 386Q282 386 260.5 371Q239 356 230 345L185 0H1L106 800H290Z" glyph-name="h" horiz-adv-x="595" unicode="h" /><glyph glyph-name="hairspace" horiz-adv-x="50" unicode="&#8202;" /><glyph d="M281 730H388L370 600H263L248 483Q277 511 317 527.5Q357 544 408 544Q455 544 484.5 528Q514 512 529.5 485.5Q545 459 549 425Q553 391 548 355L502 0H319L361 325Q362 334 362 345Q362 356 357 365Q352 374 341.5 380Q331 386 312 386Q282 386 260.5 371Q239 356 230 345L185 0H1L79 600H19L37 730H97L106 800H290Z" glyph-name="hbar" horiz-adv-x="595" unicode="&#295;" /><glyph d="M-22 840 123 950H313L428 840H263L208 879L143 840ZM248 483Q277 511 317 527.5Q357 544 408 544Q455 544 484.5 528Q514 512 529.5 485.5Q545 459 549 425Q553 391 548 355L502 0H318L360 325Q361 334 361 345Q361 356 356.5 365Q352 374 341.5 380Q331 386 312 386Q282 386 260.5 371Q239 356 230 345L185 0H1L106 800H290Z" glyph-name="hcircumflex" horiz-adv-x="595" unicode="&#293;" /><glyph d="M449 -10Q437 9 414 40Q391 71 360 110Q329 149 292.5 193.5Q256 238 216 283Q190 312 161 348Q132 384 108 423.5Q84 463 68 504Q52 545 52 584Q52 628 65 666Q78 704 103 731.5Q128 759 163.5 774.5Q199 790 243 790Q289 790 323 777Q357 764 381 742.5Q405 721 421 692.5Q437 664 448 633H452Q463 664 479 692.5Q495 721 519 742.5Q543 764 576.5 777Q610 790 657 790Q701 790 736.5 774.5Q772 759 796.5 731.5Q821 704 834.5 666Q848 628 848 584Q848 545 832 504Q816 463 792 423.5Q768 384 739 348Q710 312 684 283Q644 238 607.5 193.5Q571 149 540 110Q509 71 486 40Q463 9 451 -10Z" glyph-name="heart" horiz-adv-x="900" unicode="&#9829;" /><glyph d="M70 0V450L425 790L780 450V0Z" glyph-name="house" horiz-adv-x="850" unicode="&#8962;" /><glyph d="M370 780 263 590H121L208 780ZM570 780 434 590H292L408 780Z" glyph-name="hungarumlaut" horiz-adv-x="500" unicode="&#733;" /><glyph d="M561 950 482 840H320L388 950ZM371 950 302 840H140L198 950Z" glyph-name="hungarumlaut.cap" horiz-adv-x="500" unicode="&#58411;" /><glyph d="M47 430H327L306 270H26Z" glyph-name="hyphen" horiz-adv-x="360" unicode="-" /><glyph d="M52 470H332L311 310H31Z" glyph-name="hyphen.cap" horiz-adv-x="320" unicode="&#58498;" /><glyph d="M263 590H73L98 780H288ZM68 530H252L183 0H-1Z" glyph-name="i" horiz-adv-x="280" unicode="i" /><glyph d="M395 780 259 590H77L193 780ZM68 530H252L183 0H-1Z" glyph-name="iacute" horiz-adv-x="280" unicode="&#237;" /><glyph d="M166 576Q110 576 74.5 591.5Q39 607 19.5 634Q0 661 -4.5 698.5Q-9 736 -2 780H128Q125 759 129 746.5Q133 734 141 726.5Q149 719 160.5 716.5Q172 714 184 714Q209 714 231 726.5Q253 739 258 780H388Q383 736 369 698.5Q355 661 328 634Q301 607 261 591.5Q221 576 166 576ZM68 530H252L183 0H-1Z" glyph-name="ibreve" horiz-adv-x="280" unicode="&#301;" /><glyph d="M-56 590 103 780H283L393 590H233L178 663L103 590ZM68 530H252L183 0H-1Z" glyph-name="icircumflex" horiz-adv-x="280" unicode="&#238;" /><glyph d="M148 590H-42L-17 780H173ZM378 590H188L213 780H403ZM68 530H252L183 0H-1Z" glyph-name="idieresis" horiz-adv-x="280" unicode="&#239;" /><glyph d="M263 590H73L98 780H288ZM68 530H252L183 0H-1Z" glyph-name="idotaccent" horiz-adv-x="280" unicode="&#59269;" /><glyph d="M193 780 259 590H77L-9 780ZM68 530H252L183 0H-1Z" glyph-name="igrave" horiz-adv-x="280" unicode="&#236;" /><glyph d="M493 590H303L328 780H518ZM263 590H73L98 780H288ZM68 530H252L183 0H-1ZM298 530H482L412 -5Q404 -63 383.5 -103Q363 -143 332 -167.5Q301 -192 260.5 -203Q220 -214 172 -214Q134 -214 113 -209Q92 -204 85 -200L105 -50Q109 -52 123.5 -54Q138 -56 150 -56Q182 -56 203.5 -43Q225 -30 230 15Z" glyph-name="ij" horiz-adv-x="510" unicode="&#307;" /><glyph d="M31 765H351L330 605H10ZM68 530H252L183 0H-1Z" glyph-name="imacron" horiz-adv-x="280" unicode="&#299;" /><glyph d="M301 484Q315 505 330.5 530.5Q346 556 346 584Q346 611 323 625ZM296 0H106L131 190H321ZM210 240 253 625Q233 615 221.5 591.5Q210 568 205 520H39L41 538Q55 668 117.5 731Q180 794 303 794Q370 794 413 779.5Q456 765 481 741Q506 717 516 685.5Q526 654 526 620Q526 572 512 537.5Q498 503 476 475.5Q454 448 427.5 424.5Q401 401 375.5 375Q350 349 329 317Q308 285 297 240Z" glyph-name="interrobang" horiz-adv-x="510" unicode="&#8253;" /><glyph d="M194 104Q178 81 165 56Q152 31 152 -6Q152 -36 171 -46ZM185 530H375L350 340H160ZM-40 -50Q-40 -1 -26 33Q-12 67 10 92.5Q32 118 58.5 138.5Q85 159 110 180.5Q135 202 155 228Q175 254 184 290H277L240 -41Q256 -30 267 -8Q278 14 282 60H448L446 44Q438 -20 420.5 -68.5Q403 -117 371.5 -149Q340 -181 293 -197.5Q246 -214 180 -214Q117 -214 75 -200Q33 -186 7.5 -163.5Q-18 -141 -29 -111.5Q-40 -82 -40 -50Z" glyph-name="interrobangdown" horiz-adv-x="510" unicode="&#59701;" /><glyph d="M213 296Q199 275 183.5 249.5Q168 224 168 196Q168 169 191 155ZM218 780H408L383 590H193ZM304 540 261 155Q281 165 292.5 188.5Q304 212 309 260H475L473 242Q459 112 396.5 49Q334 -14 211 -14Q144 -14 101 0.5Q58 15 33 39Q8 63 -2 94.5Q-12 126 -12 160Q-12 208 2 242.5Q16 277 38 304.5Q60 332 86.5 355.5Q113 379 138.5 405Q164 431 185 463Q206 495 217 540Z" glyph-name="interrobangdown.cap" horiz-adv-x="510" unicode="&#59803;" /><glyph d="M305 794Q360 794 396 778.5Q432 763 451.5 736Q471 709 475.5 671.5Q480 634 473 590H343Q346 611 342 623.5Q338 636 330 643.5Q322 651 310.5 653.5Q299 656 287 656Q262 656 240 643.5Q218 631 213 590H83Q88 634 102.5 671.5Q117 709 143.5 736Q170 763 209.5 778.5Q249 794 305 794Z" glyph-name="invertedbreve" horiz-adv-x="500" unicode="&#58385;" /><glyph d="M328 966Q388 966 424.5 955.5Q461 945 480.5 928Q500 911 504.5 888Q509 865 506 840H381Q383 855 368 862.5Q353 870 315 870Q277 870 260 862.5Q243 855 241 840H116Q119 865 130 888Q141 911 165 928Q189 945 228.5 955.5Q268 966 328 966Z" glyph-name="invertedbreve.cap" horiz-adv-x="500" unicode="&#58407;" /><glyph d="M-22 -123Q-22 -87 -6.5 -55.5Q9 -24 34 0H-1L68 530H252L183 0Q174 -4 162.5 -9.5Q151 -15 141.5 -22.5Q132 -30 125.5 -40Q119 -50 119 -63Q119 -75 128.5 -82.5Q138 -90 154 -90Q168 -90 177 -86.5Q186 -83 191 -80L217 -190Q200 -200 170 -208Q140 -216 106 -216Q47 -216 12.5 -193.5Q-22 -171 -22 -123ZM263 590H73L98 780H288Z" glyph-name="iogonek" horiz-adv-x="280" unicode="&#303;" /><glyph d="M408 780Q402 733 388 699.5Q374 666 355 645Q336 624 313 614Q290 604 265 604Q241 604 219.5 612Q198 620 179 629.5Q160 639 143.5 647Q127 655 112 655Q98 655 88.5 647Q79 639 77 620H-43Q-37 667 -23 700.5Q-9 734 10 755Q29 776 52 786Q75 796 100 796Q124 796 145.5 788Q167 780 186 770.5Q205 761 222 753Q239 745 254 745Q268 745 277 753Q286 761 288 780ZM68 530H252L183 0H-1Z" glyph-name="itilde" horiz-adv-x="280" unicode="&#297;" /><glyph d="M263 590H73L98 780H288ZM68 530H252L182 -5Q174 -63 153.5 -103Q133 -143 102 -167.5Q71 -192 30.5 -203Q-10 -214 -57 -214Q-95 -214 -116 -209Q-137 -204 -144 -200L-124 -50Q-120 -52 -105.5 -54Q-91 -56 -79 -56Q-48 -56 -26.5 -43Q-5 -30 0 15Z" glyph-name="j" horiz-adv-x="280" unicode="j" /><glyph d="M-56 590 103 780H283L393 590H233L178 663L103 590ZM68 530H252L182 -5Q174 -63 153.5 -103Q133 -143 102 -167.5Q71 -192 30.5 -203Q-10 -214 -57 -214Q-95 -214 -116 -209Q-137 -204 -144 -200L-124 -50Q-120 -52 -105.5 -54Q-91 -56 -79 -56Q-48 -56 -26.5 -43Q-5 -30 0 15Z" glyph-name="jcircumflex" horiz-adv-x="280" unicode="&#309;" /><glyph d="M101 800H285L230 382L365 530H585L385 329L516 0H301L238 182L198 141L180 0H-4Z" glyph-name="k" horiz-adv-x="580" unicode="k" /><glyph d="M304 -100Q295 -172 252.5 -201Q210 -230 127 -230L135 -170Q167 -170 190 -163.5Q213 -157 227 -140H139L152 -40H312ZM101 800H285L230 382L365 530H585L385 329L516 0H301L238 182L198 141L180 0H-4Z" glyph-name="kcommaaccent" horiz-adv-x="580" unicode="&#311;" /><glyph d="M65 530H249L230 382L365 530H585L385 329L516 0H301L238 182L198 141L180 0H-4Z" glyph-name="kgreenlandic" horiz-adv-x="580" unicode="&#312;" /><glyph d="M104 800H288L183 0H-1Z" glyph-name="l" horiz-adv-x="280" unicode="l" /><glyph d="M371 950 292 840H110L178 950ZM104 800H288L183 0H-1Z" glyph-name="lacute" horiz-adv-x="280" unicode="&#314;" /><glyph d="M443 800 390 590H310L338 800ZM104 800H288L183 0H-1Z" glyph-name="lcaron" horiz-adv-x="280" unicode="&#318;" /><glyph d="M157 -100Q148 -172 105.5 -201Q63 -230 -20 -230L-12 -170Q20 -170 43 -163.5Q66 -157 80 -140H-8L5 -40H165ZM104 800H288L183 0H-1Z" glyph-name="lcommaaccent" horiz-adv-x="280" unicode="&#316;" /><glyph d="M454 255H264L289 445H479ZM104 800H288L183 0H-1Z" glyph-name="ldot" horiz-adv-x="470" unicode="&#320;" /><glyph d="M599 676 576 494 263 390 548 286 524 104 30 300 54 480Z" glyph-name="less" horiz-adv-x="600" unicode="&lt;" /><glyph d="M520 74 21 230 34 332 534 176ZM332 460 563 396 539 214 39 370 63 550 603 706 579 524Z" glyph-name="lessequal" horiz-adv-x="600" unicode="&#8804;" /><glyph d="M67 582H587L535 188H371L402 418H46Z" glyph-name="logicalnot" horiz-adv-x="600" unicode="&#172;" /><glyph d="M12 160H252L231 0H-9Z" glyph-name="lowline" horiz-adv-x="320" unicode="&#58641;" /><glyph d="M13 320 108 373 164 800H348L306 484L412 544L392 393L286 333L243 0H59L88 222L-7 169Z" glyph-name="lslash" horiz-adv-x="400" unicode="&#322;" /><glyph d="M603 0 646 330Q649 353 640.5 369.5Q632 386 602 386Q576 386 558.5 373.5Q541 361 532 350L486 0H302L345 330Q348 353 339.5 369.5Q331 386 301 386Q275 386 257.5 373.5Q240 361 231 350L185 0H1L51 380L60 530H226V465Q258 502 299.5 523Q341 544 397 544Q451 544 481.5 521.5Q512 499 525 463Q554 499 597 521.5Q640 544 698 544Q741 544 769.5 529.5Q798 515 814 489.5Q830 464 834.5 430.5Q839 397 834 360L787 0Z" glyph-name="m" horiz-adv-x="880" unicode="m" /><glyph d="M141 765H461L440 605H120Z" glyph-name="macron" horiz-adv-x="500" unicode="&#175;" /><glyph d="M166 950H486L471 840H151Z" glyph-name="macron.cap" horiz-adv-x="500" unicode="&#58405;" /><glyph d="M603 0 646 330Q649 353 640.5 369.5Q632 386 602 386Q576 386 558.5 373.5Q541 361 532 350L486 0H302L345 330Q348 353 339.5 369.5Q331 386 301 386Q275 386 257.5 373.5Q240 361 231 350L185 0H1L51 380L60 530H226V465Q258 502 299.5 523Q341 544 397 544Q451 544 481.5 521.5Q512 499 525 463Q554 499 597 521.5Q640 544 698 544Q741 544 769.5 529.5Q798 515 814 489.5Q830 464 834.5 430.5Q839 397 834 360L787 0ZM567 590H377L402 780H592Z" glyph-name="mdotaccent" horiz-adv-x="880" unicode="&#7745;" /><glyph d="M56 265Q56 323 78 373.5Q100 424 138 462Q176 500 226.5 522Q277 544 335 544Q393 544 443.5 522Q494 500 532 462Q570 424 592 373.5Q614 323 614 265Q614 207 592 156.5Q570 106 532 68Q494 30 443.5 8Q393 -14 335 -14Q277 -14 226.5 8Q176 30 138 68Q100 106 78 156.5Q56 207 56 265Z" glyph-name="mediumblackcircle" horiz-adv-x="670" unicode="&#9899;" /><glyph d="M218 265Q218 241 227 219.5Q236 198 252 182Q268 166 289.5 157Q311 148 335 148Q359 148 380.5 157Q402 166 418 182Q434 198 443 219.5Q452 241 452 265Q452 289 443 310.5Q434 332 418 348Q402 364 380.5 373Q359 382 335 382Q311 382 289.5 373Q268 364 252 348Q236 332 227 310.5Q218 289 218 265ZM56 265Q56 323 78 373.5Q100 424 138 462Q176 500 226.5 522Q277 544 335 544Q393 544 443.5 522Q494 500 532 462Q570 424 592 373.5Q614 323 614 265Q614 207 592 156.5Q570 106 532 68Q494 30 443.5 8Q393 -14 335 -14Q277 -14 226.5 8Q176 30 138 68Q100 106 78 156.5Q56 207 56 265Z" glyph-name="mediumwhitecircle" horiz-adv-x="670" unicode="&#9898;" /><glyph d="M53 472H573L551 308H31Z" glyph-name="minus" horiz-adv-x="600" unicode="&#8722;" /><glyph d="M0 252H266L251 138H-15Z" glyph-name="minus.inf" horiz-adv-x="300" unicode="&#58748;" /><glyph d="M8 233 186 390 50 547 181 663 317 506 495 663 596 547 418 390 554 233 423 117 287 274 109 117Z" glyph-name="multiply" horiz-adv-x="600" unicode="&#215;" /><glyph d="M318 0 361 325Q362 334 361.5 345Q361 356 356.5 365Q352 374 342 380Q332 386 313 386Q283 386 261 371Q239 356 230 345L185 0H1L51 380L60 530H226V460Q260 500 304 522Q348 544 408 544Q455 544 484.5 528Q514 512 529.5 485.5Q545 459 549 425Q553 391 548 355L502 0Z" glyph-name="n" horiz-adv-x="595" unicode="n" /><glyph d="M318 0 361 325Q362 334 361.5 345Q361 356 356.5 365Q352 374 342 380Q332 386 313 386Q283 386 261 371Q239 356 230 345L185 0H1L51 380L60 530H226V460Q260 500 304 522Q348 544 408 544Q455 544 484.5 528Q514 512 529.5 485.5Q545 459 549 425Q553 391 548 355L502 0ZM556 780 420 590H238L354 780Z" glyph-name="nacute" horiz-adv-x="595" unicode="&#324;" /><glyph d="M318 0 361 325Q362 334 361.5 345Q361 356 356.5 365Q352 374 342 380Q332 386 313 386Q283 386 261 371Q239 356 230 345L185 0H1L51 380L60 530H226V460Q260 500 304 522Q348 544 408 544Q455 544 484.5 528Q514 512 529.5 485.5Q545 459 549 425Q553 391 548 355L502 0ZM289 780 344 706 419 780H579L419 590H239L129 780Z" glyph-name="ncaron" horiz-adv-x="595" unicode="&#328;" /><glyph d="M318 0 361 325Q362 334 361.5 345Q361 356 356.5 365Q352 374 342 380Q332 386 313 386Q283 386 261 371Q239 356 230 345L185 0H1L51 380L60 530H226V460Q260 500 304 522Q348 544 408 544Q455 544 484.5 528Q514 512 529.5 485.5Q545 459 549 425Q553 391 548 355L502 0ZM318 -100Q309 -172 266.5 -201Q224 -230 141 -230L149 -170Q181 -170 204 -163.5Q227 -157 241 -140H153L166 -40H326Z" glyph-name="ncommaaccent" horiz-adv-x="595" unicode="&#326;" /><glyph d="M310 449Q330 449 353.5 459.5Q377 470 395 494L398 519Q405 576 386 604Q367 632 335 632H329Q297 632 272 608.5Q247 585 242 544L241 533Q236 488 255.5 468.5Q275 449 305 449ZM46 150Q91 150 127 154Q163 158 193 167Q223 176 248.5 191Q274 206 297 229Q314 246 328.5 268.5Q343 291 352 323Q329 304 300.5 296Q272 288 242 288Q142 288 93 349.5Q44 411 55 526L57 546Q68 660 138.5 727Q209 794 337 794Q406 794 455.5 772.5Q505 751 535.5 712.5Q566 674 577.5 620.5Q589 567 582 503L580 484Q574 427 563.5 378.5Q553 330 535.5 286.5Q518 243 492 202.5Q466 162 428 122Q387 79 342.5 52.5Q298 26 248 11Q198 -4 142.5 -9Q87 -14 24 -14Z" glyph-name="nine" horiz-adv-x="600" unicode="9" /><glyph d="M134 252Q137 252 141 256L144 283Q145 290 138 290Q131 290 130 283L128 263Q127 255 129.5 253.5Q132 252 134 252ZM-4 107Q38 107 62 113Q86 119 97 127Q112 138 120 156Q111 149 99 146Q87 143 77 143Q32 143 12 174Q-8 205 -3 259L-2 269Q1 296 9.5 319.5Q18 343 35.5 360.5Q53 378 79.5 388Q106 398 144 398Q209 398 245.5 362.5Q282 327 272 252L270 237Q263 184 246 140Q229 96 194 58Q175 37 149 24Q123 11 94.5 3.5Q66 -4 37 -6.5Q8 -9 -19 -9Z" glyph-name="nine.inf" horiz-adv-x="300" unicode="&#58746;" /><glyph d="M916 137Q913 137 909 133L906 106Q905 99 912 99Q919 99 920 106L922 126Q923 134 920.5 135.5Q918 137 916 137ZM1052 282Q1010 282 987 276Q964 270 953 262Q938 251 930 233Q939 240 951 243Q963 246 973 246Q1018 246 1038 215Q1058 184 1053 130L1052 120Q1049 93 1040 69.5Q1031 46 1014 28.5Q997 11 970.5 1Q944 -9 906 -9Q841 -9 804.5 26.5Q768 62 778 137L780 152Q787 205 804 249Q821 293 856 331Q875 352 900.5 365Q926 378 954 385.5Q982 393 1011 395.5Q1040 398 1067 398ZM472 0 487 113H554L569 231L540 213L488 306L619 388H722L686 113H752L737 0ZM-13 0 665 780H815L137 0ZM186 642Q189 642 193 646L196 673Q197 680 190 680Q183 680 182 673L180 653Q179 645 181.5 643.5Q184 642 186 642ZM48 497Q90 497 114 503Q138 509 149 517Q164 528 172 546Q163 539 151 536Q139 533 129 533Q84 533 64 564Q44 595 49 649L50 659Q53 686 61.5 709.5Q70 733 87.5 750.5Q105 768 131.5 778Q158 788 196 788Q261 788 297.5 752.5Q334 717 324 642L322 627Q315 574 298 530Q281 486 246 448Q227 427 201 414Q175 401 146.5 393.5Q118 386 89 383.5Q60 381 33 381Z" glyph-name="ninesixteenths" horiz-adv-x="1100" unicode="&#61977;" /><glyph glyph-name="nonbreakingspace" horiz-adv-x="200" unicode="&#160;" /><glyph d="M67 582H374L443 680H569L500 582H587L566 418H385L345 362H558L537 198H230L161 100H35L104 198H17L38 362H219L259 418H46Z" glyph-name="notequal" horiz-adv-x="600" unicode="&#8800;" /><glyph d="M318 0 361 325Q362 334 361.5 345Q361 356 356.5 365Q352 374 342 380Q332 386 313 386Q283 386 261 371Q239 356 230 345L185 0H1L51 380L60 530H226V460Q260 500 304 522Q348 544 408 544Q455 544 484.5 528Q514 512 529.5 485.5Q545 459 549 425Q553 391 548 355L502 0ZM569 780Q563 733 549 699.5Q535 666 516 645Q497 624 474 614Q451 604 426 604Q402 604 380.5 612Q359 620 340 629.5Q321 639 304.5 647Q288 655 273 655Q259 655 249.5 647Q240 639 238 620H118Q124 667 138 700.5Q152 734 171 755Q190 776 213 786Q236 796 261 796Q285 796 306.5 788Q328 780 347 770.5Q366 761 383 753Q400 745 415 745Q429 745 438 753Q447 761 449 780Z" glyph-name="ntilde" horiz-adv-x="595" unicode="&#241;" /><glyph d="M256 340H316L346 440H286ZM89 600H174L229 780H389L334 600H394L449 780H609L554 600H609L588 440H506L476 340H535L514 180H428L375 0H215L268 180H208L155 0H-5L48 180H-6L15 340H96L126 440H68Z" glyph-name="numbersign" horiz-adv-x="600" unicode="#" /><glyph d="M950 658Q932 658 921.5 645.5Q911 633 906 600L902 571Q893 513 934 513Q952 513 962.5 525.5Q973 538 978 571L982 600Q991 658 950 658ZM924 376Q876 376 839.5 390Q803 404 779.5 429.5Q756 455 746.5 491Q737 527 743 571L747 600Q759 688 811.5 741.5Q864 795 960 795Q1008 795 1044.5 781Q1081 767 1104.5 741.5Q1128 716 1137.5 680Q1147 644 1141 600L1137 571Q1125 483 1072.5 429.5Q1020 376 924 376ZM719 309H1093L1075 172H701ZM591 0H391L232 430L217 280L181 0H1L103 780H303L462 350L476 500L513 780H693Z" glyph-name="numero" horiz-adv-x="1140" unicode="&#8470;" /><glyph d="M191 246Q184 195 198 169.5Q212 144 252 144Q322 144 335 246L340 284Q347 335 333 360.5Q319 386 279 386Q209 386 196 284ZM518 246Q511 191 491 143.5Q471 96 437 61Q403 26 354.5 6Q306 -14 241 -14Q175 -14 128 5.5Q81 25 52 59.5Q23 94 12 141.5Q1 189 8 246L13 284Q20 339 40 386.5Q60 434 94 469Q128 504 176.5 524Q225 544 290 544Q356 544 403 524.5Q450 505 479.5 470.5Q509 436 519.5 388.5Q530 341 523 284Z" glyph-name="o" horiz-adv-x="560" unicode="o" /><glyph d="M191 246Q184 195 198 169.5Q212 144 252 144Q322 144 335 246L340 284Q347 335 333 360.5Q319 386 279 386Q209 386 196 284ZM518 246Q511 191 491 143.5Q471 96 437 61Q403 26 354.5 6Q306 -14 241 -14Q175 -14 128 5.5Q81 25 52 59.5Q23 94 12 141.5Q1 189 8 246L13 284Q20 339 40 386.5Q60 434 94 469Q128 504 176.5 524Q225 544 290 544Q356 544 403 524.5Q450 505 479.5 470.5Q509 436 519.5 388.5Q530 341 523 284ZM535 780 399 590H217L333 780Z" glyph-name="oacute" horiz-adv-x="560" unicode="&#243;" /><glyph d="M191 246Q184 195 198 169.5Q212 144 252 144Q322 144 335 246L340 284Q347 335 333 360.5Q319 386 279 386Q209 386 196 284ZM518 246Q511 191 491 143.5Q471 96 437 61Q403 26 354.5 6Q306 -14 241 -14Q175 -14 128 5.5Q81 25 52 59.5Q23 94 12 141.5Q1 189 8 246L13 284Q20 339 40 386.5Q60 434 94 469Q128 504 176.5 524Q225 544 290 544Q356 544 403 524.5Q450 505 479.5 470.5Q509 436 519.5 388.5Q530 341 523 284ZM306 576Q250 576 214.5 591.5Q179 607 159.5 634Q140 661 135.5 698.5Q131 736 138 780H268Q265 759 269 746.5Q273 734 281 726.5Q289 719 300.5 716.5Q312 714 324 714Q349 714 371 726.5Q393 739 398 780H528Q523 736 509 698.5Q495 661 468 634Q441 607 401 591.5Q361 576 306 576Z" glyph-name="obreve" horiz-adv-x="560" unicode="&#335;" /><glyph d="M191 246Q184 195 198 169.5Q212 144 252 144Q322 144 335 246L340 284Q347 335 333 360.5Q319 386 279 386Q209 386 196 284ZM518 246Q511 191 491 143.5Q471 96 437 61Q403 26 354.5 6Q306 -14 241 -14Q175 -14 128 5.5Q81 25 52 59.5Q23 94 12 141.5Q1 189 8 246L13 284Q20 339 40 386.5Q60 434 94 469Q128 504 176.5 524Q225 544 290 544Q356 544 403 524.5Q450 505 479.5 470.5Q509 436 519.5 388.5Q530 341 523 284ZM83 590 243 780H423L533 590H373L318 663L243 590Z" glyph-name="ocircumflex" horiz-adv-x="560" unicode="&#244;" /><glyph d="M191 246Q184 195 198 169.5Q212 144 252 144Q322 144 335 246L340 284Q347 335 333 360.5Q319 386 279 386Q209 386 196 284ZM518 246Q511 191 491 143.5Q471 96 437 61Q403 26 354.5 6Q306 -14 241 -14Q175 -14 128 5.5Q81 25 52 59.5Q23 94 12 141.5Q1 189 8 246L13 284Q20 339 40 386.5Q60 434 94 469Q128 504 176.5 524Q225 544 290 544Q356 544 403 524.5Q450 505 479.5 470.5Q509 436 519.5 388.5Q530 341 523 284ZM288 590H98L123 780H313ZM518 590H328L353 780H543Z" glyph-name="odieresis" horiz-adv-x="560" unicode="&#246;" /><glyph d="M611 406Q582 406 560.5 389Q539 372 530 330H672Q674 368 660 387Q646 406 611 406ZM191 246Q184 195 198 169.5Q212 144 252 144Q322 144 335 246L340 284Q347 335 333 360.5Q319 386 279 386Q209 386 196 284ZM513 200Q512 177 518 162.5Q524 148 534 139.5Q544 131 557 127.5Q570 124 585 124Q620 124 640 137.5Q660 151 662 170H835L834 163Q823 83 758.5 34.5Q694 -14 577 -14Q513 -14 472 6.5Q431 27 408 59Q381 27 340.5 6.5Q300 -14 241 -14Q175 -14 128 5.5Q81 25 52 59.5Q23 94 12 141.5Q1 189 8 246L13 284Q20 339 40 386.5Q60 434 94 469Q128 504 176.5 524Q225 544 290 544Q350 544 388.5 524Q427 504 450 472Q477 504 517.5 524Q558 544 617 544Q683 544 730 524Q777 504 806 467Q835 430 845.5 377.5Q856 325 847 260L839 200Z" glyph-name="oe" horiz-adv-x="887" unicode="&#339;" /><glyph d="M246 0Q237 -4 225.5 -9.5Q214 -15 204.5 -22.5Q195 -30 188.5 -40Q182 -50 182 -63Q182 -75 191.5 -82.5Q201 -90 217 -90Q231 -90 240 -86.5Q249 -83 254 -80L280 -190Q263 -200 233 -208Q203 -216 169 -216Q110 -216 75.5 -193.5Q41 -171 41 -123Q41 -85 58 -52.5Q75 -20 101.5 5Q128 30 160.5 47.5Q193 65 225 74Z" glyph-name="ogonek" horiz-adv-x="602" unicode="&#731;" /><glyph d="M191 246Q184 195 198 169.5Q212 144 252 144Q322 144 335 246L340 284Q347 335 333 360.5Q319 386 279 386Q209 386 196 284ZM518 246Q511 191 491 143.5Q471 96 437 61Q403 26 354.5 6Q306 -14 241 -14Q175 -14 128 5.5Q81 25 52 59.5Q23 94 12 141.5Q1 189 8 246L13 284Q20 339 40 386.5Q60 434 94 469Q128 504 176.5 524Q225 544 290 544Q356 544 403 524.5Q450 505 479.5 470.5Q509 436 519.5 388.5Q530 341 523 284ZM333 780 399 590H217L131 780Z" glyph-name="ograve" horiz-adv-x="560" unicode="&#242;" /><glyph d="M191 246Q184 195 198 169.5Q212 144 252 144Q322 144 335 246L340 284Q347 335 333 360.5Q319 386 279 386Q209 386 196 284ZM518 246Q511 191 491 143.5Q471 96 437 61Q403 26 354.5 6Q306 -14 241 -14Q175 -14 128 5.5Q81 25 52 59.5Q23 94 12 141.5Q1 189 8 246L13 284Q20 339 40 386.5Q60 434 94 469Q128 504 176.5 524Q225 544 290 544Q356 544 403 524.5Q450 505 479.5 470.5Q509 436 519.5 388.5Q530 341 523 284ZM400 780 293 590H151L238 780ZM600 780 464 590H322L438 780Z" glyph-name="ohungarumlaut" horiz-adv-x="560" unicode="&#337;" /><glyph d="M191 246Q184 195 198 169.5Q212 144 252 144Q322 144 335 246L340 284Q347 335 333 360.5Q319 386 279 386Q209 386 196 284ZM518 246Q511 191 491 143.5Q471 96 437 61Q403 26 354.5 6Q306 -14 241 -14Q175 -14 128 5.5Q81 25 52 59.5Q23 94 12 141.5Q1 189 8 246L13 284Q20 339 40 386.5Q60 434 94 469Q128 504 176.5 524Q225 544 290 544Q356 544 403 524.5Q450 505 479.5 470.5Q509 436 519.5 388.5Q530 341 523 284ZM171 765H491L470 605H150Z" glyph-name="omacron" horiz-adv-x="560" unicode="&#333;" /><glyph d="M6 0 27 162H189L240 552L125 481L51 615L316 780H456L375 162H537L516 0Z" glyph-name="one" horiz-adv-x="600" unicode="1" /><glyph d="M-28 0 -13 113H54L69 231L40 213L-12 306L119 388H222L186 113H252L237 0Z" glyph-name="one.inf" horiz-adv-x="300" unicode="&#58738;" /><glyph d="M735 0H465L476 83L625 233Q630 238 633 242Q636 246 637 254L641 284Q642 291 635 291Q628 291 627 284L624 260H499L500 270Q507 338 541.5 368Q576 398 644 398Q687 398 713 386Q739 374 753 356.5Q767 339 770.5 319.5Q774 300 773 285L771 267Q767 236 753.5 215.5Q740 195 715 170L658 113H750ZM-13 0 665 780H815L137 0ZM24 390 39 503H106L121 621L92 603L40 696L171 778H274L238 503H304L289 390Z" glyph-name="onehalf" horiz-adv-x="800" unicode="&#189;" /><glyph d="M615 175 622 215 593 175ZM592 0 600 63H467L479 156L650 390H775L747 177H763L748 63H732L724 0ZM-13 0 665 780H815L137 0ZM24 390 39 503H106L121 621L92 603L40 696L171 778H274L238 503H304L289 390Z" glyph-name="onequarter" horiz-adv-x="800" unicode="&#188;" /><glyph d="M916 137Q913 137 909 133L906 106Q905 99 912 99Q919 99 920 106L922 126Q923 134 920.5 135.5Q918 137 916 137ZM1052 282Q1010 282 987 276Q964 270 953 262Q938 251 930 233Q939 240 951 243Q963 246 973 246Q1018 246 1038 215Q1058 184 1053 130L1052 120Q1049 93 1040 69.5Q1031 46 1014 28.5Q997 11 970.5 1Q944 -9 906 -9Q841 -9 804.5 26.5Q768 62 778 137L780 152Q787 205 804 249Q821 293 856 331Q875 352 900.5 365Q926 378 954 385.5Q982 393 1011 395.5Q1040 398 1067 398ZM472 0 487 113H554L569 231L540 213L488 306L619 388H722L686 113H752L737 0ZM-13 0 665 780H815L137 0ZM24 390 39 503H106L121 621L92 603L40 696L171 778H274L238 503H304L289 390Z" glyph-name="onesixteenth" horiz-adv-x="1100" unicode="&#61973;" /><glyph d="M24 390 39 503H106L121 621L92 603L40 696L171 778H274L238 503H304L289 390Z" glyph-name="onesuperior" horiz-adv-x="300" unicode="&#185;" /><glyph d="M26 270 47 430H300L279 270Z" glyph-name="onethirdemdash" horiz-adv-x="333" unicode="&#58481;" /><glyph d="M31 310 52 470H305L284 310Z" glyph-name="onethirdemdash.cap" horiz-adv-x="333" unicode="&#58499;" /><glyph d="M229 503Q239 503 249.5 507Q260 511 268 516L275 563L235 557Q208 552 205 533L204 527Q202 518 208 510.5Q214 503 229 503ZM28 309H406L388 172H10ZM274 423Q251 402 222 389Q193 376 150 376Q115 376 92.5 387.5Q70 399 57.5 417Q45 435 41.5 457.5Q38 480 42 503L44 514Q50 547 63 568.5Q76 590 96.5 604Q117 618 145.5 626Q174 634 210 640L285 652Q285 676 256 676Q240 676 234 668Q228 660 226 652H76L77 661Q80 689 91.5 713.5Q103 738 124.5 756Q146 774 179.5 784Q213 794 260 794Q314 794 351.5 782.5Q389 771 411.5 750.5Q434 730 441.5 702Q449 674 445 640L426 499L419 387H274Z" glyph-name="ordfeminine" horiz-adv-x="440" unicode="&#170;" /><glyph d="M260 658Q242 658 231.5 645.5Q221 633 216 600L212 571Q203 513 244 513Q262 513 272.5 525.5Q283 538 288 571L292 600Q301 658 260 658ZM234 376Q186 376 149.5 390Q113 404 89.5 429.5Q66 455 56.5 491Q47 527 53 571L57 600Q69 688 121.5 741.5Q174 795 270 795Q318 795 354.5 781Q391 767 414.5 741.5Q438 716 447.5 680Q457 644 451 600L447 571Q435 483 382.5 429.5Q330 376 234 376ZM29 309H403L385 172H11Z" glyph-name="ordmasculine" horiz-adv-x="450" unicode="&#186;" /><glyph d="M191 246 189 232 321 374Q306 386 279 386Q209 386 196 284ZM340 284Q340 288 340.5 291.5Q341 295 341 299L209 156Q224 144 252 144Q322 144 335 246ZM518 246Q511 191 491 143.5Q471 96 437 61Q403 26 354.5 6Q306 -14 241 -14Q147 -14 89 26L65 0H-25L42 72Q18 106 10 150Q2 194 8 246L13 284Q20 339 40 386.5Q60 434 94 469Q128 504 176.5 524Q225 544 290 544Q383 544 441 504L465 530H555L489 458Q513 424 521.5 380Q530 336 523 284Z" glyph-name="oslash" horiz-adv-x="560" unicode="&#248;" /><glyph d="M191 246Q184 195 198 169.5Q212 144 252 144Q322 144 335 246L340 284Q347 335 333 360.5Q319 386 279 386Q209 386 196 284ZM518 246Q511 191 491 143.5Q471 96 437 61Q403 26 354.5 6Q306 -14 241 -14Q175 -14 128 5.5Q81 25 52 59.5Q23 94 12 141.5Q1 189 8 246L13 284Q20 339 40 386.5Q60 434 94 469Q128 504 176.5 524Q225 544 290 544Q356 544 403 524.5Q450 505 479.5 470.5Q509 436 519.5 388.5Q530 341 523 284ZM548 780Q542 733 528 699.5Q514 666 495 645Q476 624 453 614Q430 604 405 604Q381 604 359.5 612Q338 620 319 629.5Q300 639 283.5 647Q267 655 252 655Q238 655 228.5 647Q219 639 217 620H97Q103 667 117 700.5Q131 734 150 755Q169 776 192 786Q215 796 240 796Q264 796 285.5 788Q307 780 326 770.5Q345 761 362 753Q379 745 394 745Q408 745 417 753Q426 761 428 780Z" glyph-name="otilde" horiz-adv-x="560" unicode="&#245;" /><glyph d="M208 185Q214 174 229 159Q244 144 274 144Q347 144 360 246L365 284Q372 335 358.5 360.5Q345 386 307 386Q277 386 257.5 371Q238 356 229 345ZM-27 -200 50 380 59 530H225V465Q254 504 298.5 524Q343 544 395 544Q487 544 525.5 474Q564 404 548 284L543 246Q535 189 518.5 141Q502 93 475 58.5Q448 24 410 5Q372 -14 321 -14Q291 -14 270 -9Q249 -4 233.5 3.5Q218 11 207.5 21Q197 31 189 40L157 -200Z" glyph-name="p" horiz-adv-x="585" unicode="p" /><glyph d="M305 268H286Q236 268 187 275.5Q138 283 101 308.5Q64 334 45 382.5Q26 431 37 512L40 534Q51 615 82.5 663.5Q114 712 157.5 738Q201 764 252 772Q303 780 353 780H562L460 0H270Z" glyph-name="paragraph" horiz-adv-x="560" unicode="&#182;" /><glyph d="M35 375Q43 454 62 521.5Q81 589 107.5 647Q134 705 166.5 753Q199 801 235 840H427Q391 797 356.5 745.5Q322 694 294.5 635.5Q267 577 247 511.5Q227 446 220 375L217 346Q209 275 213.5 210.5Q218 146 230 88.5Q242 31 260.5 -21Q279 -73 301 -120H111Q90 -77 72 -29.5Q54 18 42 74Q30 130 26.5 196.5Q23 263 32 346Z" glyph-name="parenleft" horiz-adv-x="380" unicode="(" /><glyph d="M43 404Q57 533 104.5 628Q152 723 214 780H403Q375 750 346.5 709.5Q318 669 293.5 620.5Q269 572 251.5 517Q234 462 228 404L225 375Q219 317 224.5 262Q230 207 242 158.5Q254 110 270 69.5Q286 29 301 0H112Q94 28 78.5 67.5Q63 107 52 155Q41 203 37.5 259Q34 315 40 375Z" glyph-name="parenleft.cap" horiz-adv-x="380" unicode="&#58513;" /><glyph d="M-20 196Q-17 234 -7.5 265Q2 296 14 320Q26 344 40 361.5Q54 379 66 390H198Q185 378 171 358.5Q157 339 144 313.5Q131 288 122 258Q113 228 110 196L109 183Q107 152 109.5 124.5Q112 97 118 74Q124 51 132.5 32Q141 13 149 0H22Q15 10 6.5 29Q-2 48 -9 72Q-16 96 -19.5 124.5Q-23 153 -21 183Z" glyph-name="parenleft.inf" horiz-adv-x="200" unicode="&#58750;" /><glyph d="M342 345Q334 266 315 198.5Q296 131 269.5 73Q243 15 210.5 -33Q178 -81 142 -120H-50Q-14 -77 20.5 -25.5Q55 26 82.5 84.5Q110 143 129.5 208.5Q149 274 157 345L160 374Q167 445 163 509.5Q159 574 147 631.5Q135 689 116.5 741Q98 793 76 840H266Q287 797 305 749.5Q323 702 335 646Q347 590 350.5 523Q354 456 345 374Z" glyph-name="parenright" horiz-adv-x="380" unicode=")" /><glyph d="M341 376Q327 247 279.5 152Q232 57 170 0H-19Q9 30 37.5 70.5Q66 111 90.5 159.5Q115 208 132.5 263Q150 318 156 376L159 405Q165 463 159.5 518Q154 573 142 621.5Q130 670 114 710.5Q98 751 83 780H272Q290 752 305.5 712.5Q321 673 332 625Q343 577 346.5 521Q350 465 344 405Z" glyph-name="parenright.cap" horiz-adv-x="380" unicode="&#58514;" /><glyph d="M169 194Q166 156 156.5 125Q147 94 135 70Q123 46 109 28.5Q95 11 83 0H-49Q-36 12 -22 31.5Q-8 51 5 76.5Q18 102 27 132Q36 162 39 194L40 207Q42 238 39 265.5Q36 293 30 316Q24 339 16 358Q8 377 0 390H127Q134 379 142.5 360.5Q151 342 158 318Q165 294 168.5 265.5Q172 237 170 207Z" glyph-name="parenright.inf" horiz-adv-x="200" unicode="&#58751;" /><glyph d="M208 185Q214 174 229 159Q244 144 274 144Q347 144 360 246L365 284Q372 335 358.5 360.5Q345 386 307 386Q277 386 257.5 371Q238 356 229 345ZM-27 -200 50 380 59 530H225V465Q254 504 298.5 524Q343 544 395 544Q487 544 525.5 474Q564 404 548 284L543 246Q535 189 518.5 141Q502 93 475 58.5Q448 24 410 5Q372 -14 321 -14Q291 -14 270 -9Q249 -4 233.5 3.5Q218 11 207.5 21Q197 31 189 40L157 -200ZM428 590H238L263 780H453Z" glyph-name="pdotaccent" horiz-adv-x="585" unicode="&#7767;" /><glyph d="M310 600Q314 625 301 641.5Q288 658 260 658H254Q226 658 209 641.5Q192 625 188 600L187 588Q184 563 196.5 546.5Q209 530 237 530H243Q271 530 288.5 546.5Q306 563 309 588ZM693 180Q690 155 703 138.5Q716 122 744 122H750Q778 122 795 138.5Q812 155 815 180L817 192Q820 217 807 233.5Q794 250 766 250H760Q732 250 715 233.5Q698 217 695 192ZM560 192Q566 239 585 275Q604 311 633.5 336Q663 361 700.5 373.5Q738 386 781 386Q824 386 858.5 373.5Q893 361 915.5 336Q938 311 948 275Q958 239 952 192L950 180Q944 133 925 97Q906 61 876.5 36Q847 11 809.5 -1.5Q772 -14 729 -14Q686 -14 651.5 -1.5Q617 11 594.5 36Q572 61 562 97Q552 133 558 180ZM208 0 543 611Q530 609 516 607.5Q502 606 485 606Q474 606 464.5 606.5Q455 607 447 608L444 588Q438 541 418.5 505Q399 469 369.5 444Q340 419 302.5 406.5Q265 394 222 394Q179 394 144.5 406.5Q110 419 87.5 444Q65 469 55.5 505Q46 541 52 588L53 600Q59 647 78.5 683Q98 719 127 744Q156 769 194 781.5Q232 794 275 794Q319 794 356 780Q376 772 394.5 766.5Q413 761 434 758Q455 755 480.5 753.5Q506 752 540 752Q575 752 609.5 755.5Q644 759 673.5 764Q703 769 726.5 774.5Q750 780 763 784L752 700L368 0Z" glyph-name="percent" horiz-adv-x="1000" unicode="%" /><glyph d="M186 0H-4L21 190H211Z" glyph-name="period" horiz-adv-x="280" unicode="." /><glyph d="M196 0H6L31 190H221Z" glyph-name="period.T" horiz-adv-x="300" unicode="&#61826;" /><glyph d="M219 255H29L54 445H244Z" glyph-name="periodcentered" horiz-adv-x="280" unicode="&#183;" /><glyph d="M224 295H34L59 485H249Z" glyph-name="periodcentered.cap" horiz-adv-x="280" unicode="&#58497;" /><glyph d="M1113 180Q1110 155 1123 138.5Q1136 122 1164 122H1170Q1198 122 1215 138.5Q1232 155 1235 180L1237 192Q1240 217 1227 233.5Q1214 250 1186 250H1180Q1152 250 1135 233.5Q1118 217 1115 192ZM693 180Q690 155 703 138.5Q716 122 744 122H750Q778 122 795 138.5Q812 155 815 180L817 192Q820 217 807 233.5Q794 250 766 250H760Q732 250 715 233.5Q698 217 695 192ZM310 600Q314 625 301 641.5Q288 658 260 658H254Q226 658 209 641.5Q192 625 188 600L187 588Q184 563 196.5 546.5Q209 530 237 530H243Q271 530 288.5 546.5Q306 563 309 588ZM560 192Q566 239 585 275Q604 311 633.5 336Q663 361 700.5 373.5Q738 386 781 386Q824 386 858.5 373.5Q893 361 915.5 336Q938 311 948 275Q958 239 952 192L950 180Q944 133 925 97Q906 61 876.5 36Q847 11 809.5 -1.5Q772 -14 729 -14Q686 -14 651.5 -1.5Q617 11 594.5 36Q572 61 562 97Q552 133 558 180ZM980 192Q986 239 1005 275Q1024 311 1053.5 336Q1083 361 1120.5 373.5Q1158 386 1201 386Q1244 386 1278.5 373.5Q1313 361 1335.5 336Q1358 311 1368 275Q1378 239 1372 192L1370 180Q1364 133 1345 97Q1326 61 1296.5 36Q1267 11 1229.5 -1.5Q1192 -14 1149 -14Q1106 -14 1071.5 -1.5Q1037 11 1014.5 36Q992 61 982 97Q972 133 978 180ZM444 588Q438 541 418.5 505Q399 469 369.5 444Q340 419 302.5 406.5Q265 394 222 394Q179 394 144.5 406.5Q110 419 87.5 444Q65 469 55.5 505Q46 541 52 588L53 600Q59 647 78.5 683Q98 719 127 744Q156 769 194 781.5Q232 794 275 794Q319 794 356 780Q376 772 394.5 766.5Q413 761 434 758Q455 755 480.5 753.5Q506 752 540 752Q575 752 609.5 755.5Q644 759 673.5 764Q703 769 726.5 774.5Q750 780 763 784L752 700L368 0H208L543 611Q530 609 516 607.5Q502 606 485 606Q474 606 464.5 606.5Q455 607 447 608Z" glyph-name="perthousand" horiz-adv-x="1420" unicode="&#8240;" /><glyph d="M418 650 395 472H573L551 308H373L350 130H186L209 308H31L53 472H231L254 650Z" glyph-name="plus" horiz-adv-x="600" unicode="+" /><glyph d="M200 328 190 252H266L251 138H175L165 62H51L61 138H-15L0 252H76L86 328Z" glyph-name="plus.inf" horiz-adv-x="300" unicode="&#58747;" /><glyph d="M29 292H549L527 128H7ZM422 680 409 582H587L566 418H388L375 320H211L224 418H46L67 582H245L258 680Z" glyph-name="plusminus" horiz-adv-x="600" unicode="&#177;" /><glyph d="M488 415Q505 415 518 423.5Q531 432 531 458V463Q531 489 518 497.5Q505 506 488 506H429V415ZM429 155H265V625H527Q557 625 587 618.5Q617 612 641.5 594.5Q666 577 681 546Q696 515 696 466V455Q696 406 681 375Q666 344 641.5 326.5Q617 309 587 302.5Q557 296 527 296H429ZM116 390Q116 319 143 256Q170 193 216.5 146.5Q263 100 326 73Q389 46 460 46Q531 46 594 73Q657 100 703.5 146.5Q750 193 777 256Q804 319 804 390Q804 461 777 524Q750 587 703.5 633.5Q657 680 594 707Q531 734 460 734Q389 734 326 707Q263 680 216.5 633.5Q170 587 143 524Q116 461 116 390ZM56 390Q56 474 88 547.5Q120 621 174.5 675.5Q229 730 302.5 762Q376 794 460 794Q544 794 617.5 762Q691 730 745.5 675.5Q800 621 832 547.5Q864 474 864 390Q864 306 832 232.5Q800 159 745.5 104.5Q691 50 617.5 18Q544 -14 460 -14Q376 -14 302.5 18Q229 50 174.5 104.5Q120 159 88 232.5Q56 306 56 390Z" glyph-name="published" horiz-adv-x="920" unicode="&#8471;" /><glyph glyph-name="punctuationspace" horiz-adv-x="180" unicode="&#8200;" /><glyph d="M351 345Q345 356 330 371Q315 386 285 386Q212 386 199 284L194 246Q187 195 200.5 169.5Q214 144 252 144Q282 144 301.5 159Q321 174 330 185ZM311 40Q285 16 250.5 1Q216 -14 164 -14Q72 -14 33.5 56Q-5 126 11 246L16 284Q23 341 40 388.5Q57 436 84 470.5Q111 505 149 524.5Q187 544 238 544Q298 544 332 523Q366 502 384 469L403 530H569L540 380L463 -200H279Z" glyph-name="q" horiz-adv-x="593" unicode="q" /><glyph d="M296 0H106L131 190H321ZM294 632Q265 632 247.5 606Q230 580 225 520H39L41 539Q54 668 116.5 731Q179 794 304 794Q370 794 412.5 779.5Q455 765 480.5 740.5Q506 716 516 685Q526 654 526 621Q526 571 511.5 536Q497 501 475 474Q453 447 426 423.5Q399 400 373.5 374.5Q348 349 327.5 317Q307 285 297 240H167Q169 289 182.5 328.5Q196 368 215 400.5Q234 433 255 459Q276 485 294.5 507.5Q313 530 325 549.5Q337 569 337 588Q337 607 327 619.5Q317 632 294 632Z" glyph-name="question" horiz-adv-x="510" unicode="?" /><glyph d="M185 530H375L350 340H160ZM191 -52Q206 -52 218 -46.5Q230 -41 239 -28Q248 -15 254 6.5Q260 28 262 60H448L446 45Q429 -83 369 -148.5Q309 -214 185 -214Q119 -214 75.5 -200.5Q32 -187 6.5 -164Q-19 -141 -29.5 -111Q-40 -81 -40 -48Q-40 2 -26 36Q-12 70 10 95.5Q32 121 58.5 141Q85 161 110 182Q135 203 155 228.5Q175 254 184 290H314Q313 250 300.5 216.5Q288 183 269.5 155Q251 127 230 103.5Q209 80 191 59.5Q173 39 161 21Q149 3 149 -15Q149 -32 158 -42Q167 -52 191 -52Z" glyph-name="questiondown" horiz-adv-x="510" unicode="&#191;" /><glyph d="M218 780H408L383 590H193ZM220 148Q249 148 266.5 174Q284 200 289 260H475L473 241Q459 112 396.5 49Q334 -14 210 -14Q144 -14 101.5 0.5Q59 15 33.5 39.5Q8 64 -2 95Q-12 126 -12 159Q-12 208 2.5 243.5Q17 279 39 306Q61 333 88 356.5Q115 380 140.5 406Q166 432 186.5 463.5Q207 495 217 540H347Q345 491 331.5 451.5Q318 412 299 379.5Q280 347 259 321Q238 295 219.5 272.5Q201 250 189 230.5Q177 211 177 192Q177 173 187 160.5Q197 148 220 148Z" glyph-name="questiondown.cap" horiz-adv-x="510" unicode="&#58436;" /><glyph d="M493 780 420 440H276L313 780ZM273 780 220 440H76L93 780Z" glyph-name="quotedbl" horiz-adv-x="480" unicode="&quot;" /><glyph d="M191 40Q165 -150 -24 -150L-12 -60Q62 -60 90 0H-4L21 190H211ZM431 40Q405 -150 216 -150L228 -60Q302 -60 330 0H236L261 190H451Z" glyph-name="quotedblbase" horiz-adv-x="520" unicode="&#8222;" /><glyph d="M317 620Q343 810 532 810L520 720Q445 720 417 660H512L487 470H297ZM77 620Q103 810 292 810L280 720Q205 720 177 660H272L247 470H57Z" glyph-name="quotedblleft" horiz-adv-x="520" unicode="&#8220;" /><glyph d="M268 630Q256 536 201.5 488Q147 440 53 440L65 530Q141 530 167 590H73L98 780H288ZM508 630Q496 536 441.5 488Q387 440 293 440L305 530Q381 530 407 590H313L338 780H528Z" glyph-name="quotedblright" horiz-adv-x="520" unicode="&#8221;" /><glyph d="M77 620Q103 810 292 810L280 720Q205 720 177 660H272L247 470H57Z" glyph-name="quoteleft" horiz-adv-x="280" unicode="&#8216;" /><glyph d="M268 630Q256 536 201.5 488Q147 440 53 440L65 530Q141 530 167 590H73L98 780H288Z" glyph-name="quoteright" horiz-adv-x="280" unicode="&#8217;" /><glyph d="M191 40Q165 -150 -24 -150L-12 -60Q62 -60 90 0H-4L21 190H211Z" glyph-name="quotesinglbase" horiz-adv-x="280" unicode="&#8218;" /><glyph d="M293 780 220 440H76L93 780Z" glyph-name="quotesingle" horiz-adv-x="280" unicode="&apos;" /><glyph d="M378 544Q388 544 393 543L368 355H338Q293 355 265.5 343Q238 331 227 320L185 0H1L51 380L60 530H226V466Q255 504 294 524Q333 544 378 544Z" glyph-name="r" horiz-adv-x="400" unicode="r" /><glyph d="M378 544Q388 544 393 543L368 355H338Q293 355 265.5 343Q238 331 227 320L185 0H1L51 380L60 530H226V466Q255 504 294 524Q333 544 378 544ZM465 780 329 590H147L263 780Z" glyph-name="racute" horiz-adv-x="400" unicode="&#341;" /><glyph d="M378 544Q388 544 393 543L368 355H338Q293 355 265.5 343Q238 331 227 320L185 0H1L51 380L60 530H226V466Q255 504 294 524Q333 544 378 544ZM198 780 253 706 328 780H488L328 590H148L38 780Z" glyph-name="rcaron" horiz-adv-x="400" unicode="&#345;" /><glyph d="M378 544Q388 544 393 543L368 355H338Q293 355 265.5 343Q238 331 227 320L185 0H1L51 380L60 530H226V466Q255 504 294 524Q333 544 378 544ZM159 -100Q150 -172 107.5 -201Q65 -230 -18 -230L-10 -170Q22 -170 45 -163.5Q68 -157 82 -140H-6L7 -40H167Z" glyph-name="rcommaaccent" horiz-adv-x="400" unicode="&#343;" /><glyph d="M184 691Q184 701 179 704Q174 707 168 707H146V673H168Q174 673 179 676Q184 679 184 689ZM245 688Q245 666 237 654Q229 642 217 636L245 579H181L162 629H146V579H85V751H182Q193 751 204.5 748.5Q216 746 225 739.5Q234 733 239.5 721.5Q245 710 245 692ZM40 665Q40 639 50 616.5Q60 594 77 577Q94 560 116.5 550Q139 540 165 540Q191 540 213.5 550Q236 560 253 577Q270 594 280 616.5Q290 639 290 665Q290 691 280 713.5Q270 736 253 753Q236 770 213.5 780Q191 790 165 790Q139 790 116.5 780Q94 770 77 753Q60 736 50 713.5Q40 691 40 665ZM16 665Q16 696 27.5 723Q39 750 59.5 770Q80 790 107 802Q134 814 165 814Q196 814 223 802Q250 790 270 770Q290 750 302 723Q314 696 314 665Q314 634 302 607Q290 580 270 559.5Q250 539 223 527.5Q196 516 165 516Q134 516 107 527.5Q80 539 59.5 559.5Q39 580 27.5 607Q16 634 16 665Z" glyph-name="registered" horiz-adv-x="330" unicode="&#174;" /><glyph d="M468 415Q485 415 498 423.5Q511 432 511 458V463Q511 489 498 497.5Q485 506 468 506H409V415ZM409 155H245V625H507Q537 625 567 618.5Q597 612 621.5 594.5Q646 577 661 546Q676 515 676 466V455Q676 400 657.5 368Q639 336 610 319L676 155H503L461 296H409ZM116 390Q116 319 143 256Q170 193 216.5 146.5Q263 100 326 73Q389 46 460 46Q531 46 594 73Q657 100 703.5 146.5Q750 193 777 256Q804 319 804 390Q804 461 777 524Q750 587 703.5 633.5Q657 680 594 707Q531 734 460 734Q389 734 326 707Q263 680 216.5 633.5Q170 587 143 524Q116 461 116 390ZM56 390Q56 474 88 547.5Q120 621 174.5 675.5Q229 730 302.5 762Q376 794 460 794Q544 794 617.5 762Q691 730 745.5 675.5Q800 621 832 547.5Q864 474 864 390Q864 306 832 232.5Q800 159 745.5 104.5Q691 50 617.5 18Q544 -14 460 -14Q376 -14 302.5 18Q229 50 174.5 104.5Q120 159 88 232.5Q56 306 56 390Z" glyph-name="registered.cap" horiz-adv-x="920" unicode="&#59804;" /><glyph d="M288 780 263 590H168Q179 530 255 530L243 440Q54 440 78 630L98 780ZM528 780 503 590H408Q419 530 495 530L483 440Q294 440 318 630L338 780Z" glyph-name="reversequotedblleft" horiz-adv-x="520" unicode="&#8223;" /><glyph d="M288 780 263 590H168Q179 530 255 530L243 440Q54 440 78 630L98 780Z" glyph-name="reversequoteleft" horiz-adv-x="280" unicode="&#8219;" /><glyph d="M297 734Q274 734 257.5 719Q241 704 241 680Q241 660 253 648Q265 636 284 636Q307 636 323.5 651Q340 666 340 690Q340 710 328 722Q316 734 297 734ZM278 576Q235 576 207.5 603Q180 630 180 672Q180 698 190 720.5Q200 743 216.5 759.5Q233 776 255.5 785Q278 794 303 794Q346 794 373.5 767Q401 740 401 698Q401 672 391 649.5Q381 627 364.5 610.5Q348 594 325.5 585Q303 576 278 576Z" glyph-name="ring" horiz-adv-x="500" unicode="&#730;" /><glyph d="M320 904Q297 904 280.5 889Q264 874 264 850Q264 830 276 818Q288 806 307 806Q330 806 346.5 821Q363 836 363 860Q363 880 351 892Q339 904 320 904ZM301 746Q258 746 230.5 773Q203 800 203 842Q203 868 213 890.5Q223 913 239.5 929.5Q256 946 278.5 955Q301 964 326 964Q369 964 396.5 937Q424 910 424 868Q424 842 414 819.5Q404 797 387.5 780.5Q371 764 348.5 755Q326 746 301 746Z" glyph-name="ring.cap" horiz-adv-x="500" unicode="&#58410;" /><glyph d="M304 432Q318 432 333 435.5Q348 439 361.5 448.5Q375 458 384.5 475Q394 492 397 519L398 530Q401 558 395.5 575Q390 592 380 601Q370 610 356.5 613Q343 616 329 616H302L277 432ZM252 238H432L410 74H230L221 0H31L40 74H-25L-3 238H62L66 268H1L22 432H87L133 780H342Q391 780 440.5 772Q490 764 527 738.5Q564 713 583 665Q602 617 591 536L588 514Q577 433 545.5 384.5Q514 336 470.5 310Q427 284 375.5 276Q324 268 275 268H256Z" glyph-name="ruble" horiz-adv-x="600" unicode="&#8381;" /><glyph d="M235 124Q268 124 279 137.5Q290 151 290 165Q290 182 279 191Q268 200 235 203Q182 207 142 217.5Q102 228 76 247.5Q50 267 39 296.5Q28 326 34 369L36 384Q42 426 63.5 456Q85 486 118 505.5Q151 525 192 534.5Q233 544 278 544Q403 544 453.5 497.5Q504 451 493 363L492 355H312Q315 379 304.5 392.5Q294 406 265 406Q242 406 227.5 395Q213 384 213 365Q213 350 225 342Q237 334 267 332Q313 328 353 318.5Q393 309 422 290.5Q451 272 465.5 241.5Q480 211 474 165L472 150Q462 76 397.5 31Q333 -14 222 -14Q96 -14 42.5 33Q-11 80 0 162L1 170H184Q178 124 235 124Z" glyph-name="s" horiz-adv-x="530" unicode="s" /><glyph d="M235 124Q268 124 279 137.5Q290 151 290 165Q290 182 279 191Q268 200 235 203Q182 207 142 217.5Q102 228 76 247.5Q50 267 39 296.5Q28 326 34 369L36 384Q42 426 63.5 456Q85 486 118 505.5Q151 525 192 534.5Q233 544 278 544Q403 544 453.5 497.5Q504 451 493 363L492 355H312Q315 379 304.5 392.5Q294 406 265 406Q242 406 227.5 395Q213 384 213 365Q213 350 225 342Q237 334 267 332Q313 328 353 318.5Q393 309 422 290.5Q451 272 465.5 241.5Q480 211 474 165L472 150Q462 76 397.5 31Q333 -14 222 -14Q96 -14 42.5 33Q-11 80 0 162L1 170H184Q178 124 235 124ZM520 780 384 590H202L318 780Z" glyph-name="sacute" horiz-adv-x="530" unicode="&#347;" /><glyph d="M235 124Q268 124 279 137.5Q290 151 290 165Q290 182 279 191Q268 200 235 203Q182 207 142 217.5Q102 228 76 247.5Q50 267 39 296.5Q28 326 34 369L36 384Q42 426 63.5 456Q85 486 118 505.5Q151 525 192 534.5Q233 544 278 544Q403 544 453.5 497.5Q504 451 493 363L492 355H312Q315 379 304.5 392.5Q294 406 265 406Q242 406 227.5 395Q213 384 213 365Q213 350 225 342Q237 334 267 332Q313 328 353 318.5Q393 309 422 290.5Q451 272 465.5 241.5Q480 211 474 165L472 150Q462 76 397.5 31Q333 -14 222 -14Q96 -14 42.5 33Q-11 80 0 162L1 170H184Q178 124 235 124ZM253 780 308 706 383 780H543L383 590H203L93 780Z" glyph-name="scaron" horiz-adv-x="530" unicode="&#353;" /><glyph d="M120 -121Q130 -128 148.5 -133Q167 -138 187 -138Q215 -138 224.5 -132Q234 -126 234 -115Q234 -105 225 -99.5Q216 -94 193 -94Q185 -94 178 -95Q171 -96 165 -97Q158 -98 152 -99L142 -70L173 -12Q73 -3 32 42.5Q-9 88 0 162L1 170H184Q178 124 235 124Q268 124 279 137.5Q290 151 290 165Q290 182 279 191Q268 200 235 203Q182 207 142 217.5Q102 228 76 247.5Q50 267 39 296.5Q28 326 34 369L36 384Q42 426 63.5 456Q85 486 118 505.5Q151 525 192 534.5Q233 544 278 544Q403 544 453.5 497.5Q504 451 493 363L492 355H312Q315 379 304.5 392.5Q294 406 265 406Q242 406 227.5 395Q213 384 213 365Q213 350 225 342Q237 334 267 332Q313 328 353 318.5Q393 309 422 290.5Q451 272 465.5 241.5Q480 211 474 165L472 150Q463 81 406.5 37.5Q350 -6 253 -13L240 -37Q279 -41 304 -59Q329 -77 329 -115Q329 -163 294 -189.5Q259 -216 195 -216Q153 -216 125 -206.5Q97 -197 84 -188Z" glyph-name="scedilla" horiz-adv-x="530" unicode="&#351;" /><glyph d="M235 124Q268 124 279 137.5Q290 151 290 165Q290 182 279 191Q268 200 235 203Q182 207 142 217.5Q102 228 76 247.5Q50 267 39 296.5Q28 326 34 369L36 384Q42 426 63.5 456Q85 486 118 505.5Q151 525 192 534.5Q233 544 278 544Q403 544 453.5 497.5Q504 451 493 363L492 355H312Q315 379 304.5 392.5Q294 406 265 406Q242 406 227.5 395Q213 384 213 365Q213 350 225 342Q237 334 267 332Q313 328 353 318.5Q393 309 422 290.5Q451 272 465.5 241.5Q480 211 474 165L472 150Q462 76 397.5 31Q333 -14 222 -14Q96 -14 42.5 33Q-11 80 0 162L1 170H184Q178 124 235 124ZM68 590 228 780H408L518 590H358L303 663L228 590Z" glyph-name="scircumflex" horiz-adv-x="530" unicode="&#349;" /><glyph d="M235 124Q268 124 279 137.5Q290 151 290 165Q290 182 279 191Q268 200 235 203Q182 207 142 217.5Q102 228 76 247.5Q50 267 39 296.5Q28 326 34 369L36 384Q42 426 63.5 456Q85 486 118 505.5Q151 525 192 534.5Q233 544 278 544Q403 544 453.5 497.5Q504 451 493 363L492 355H312Q315 379 304.5 392.5Q294 406 265 406Q242 406 227.5 395Q213 384 213 365Q213 350 225 342Q237 334 267 332Q313 328 353 318.5Q393 309 422 290.5Q451 272 465.5 241.5Q480 211 474 165L472 150Q462 76 397.5 31Q333 -14 222 -14Q96 -14 42.5 33Q-11 80 0 162L1 170H184Q178 124 235 124ZM282 -100Q273 -172 230.5 -201Q188 -230 105 -230L113 -170Q145 -170 168 -163.5Q191 -157 205 -140H117L130 -40H290Z" glyph-name="scommaaccent" horiz-adv-x="530" unicode="&#537;" /><glyph d="M340 794Q460 794 513.5 747.5Q567 701 556 613L555 605H375Q379 629 368 642.5Q357 656 332 656Q304 656 290.5 644Q277 632 277 613Q277 597 288.5 586Q300 575 329 572Q378 567 418.5 557.5Q459 548 487 529Q515 510 528 480Q541 450 535 404L534 396Q529 352 508.5 318.5Q488 285 447 270Q464 253 468.5 229Q473 205 469 176L468 166Q461 117 440 82.5Q419 48 386.5 26.5Q354 5 312.5 -4.5Q271 -14 224 -14Q104 -14 50.5 32.5Q-3 79 8 167L9 175H189Q185 151 196 137.5Q207 124 232 124Q260 124 273.5 136Q287 148 287 167Q287 183 275.5 194Q264 205 235 208Q185 212 145 221.5Q105 231 77 250Q49 269 36 299.5Q23 330 29 376L30 384Q35 428 55.5 461.5Q76 495 117 510Q100 527 95.5 551Q91 575 95 604L96 614Q103 663 124 697.5Q145 732 177.5 753.5Q210 775 251.5 784.5Q293 794 340 794ZM283 336Q319 336 335 355.5Q351 375 351 399Q351 419 337 431.5Q323 444 289 444H281Q245 444 229 424.5Q213 405 213 381Q213 361 227 348.5Q241 336 275 336Z" glyph-name="section" horiz-adv-x="560" unicode="&#167;" /><glyph d="M224 295H34L59 485H249ZM191 40Q165 -150 -24 -150L-12 -60Q62 -60 90 0H-4L21 190H211Z" glyph-name="semicolon" horiz-adv-x="280" unicode=";" /><glyph d="M234 295H44L69 485H259ZM201 40Q175 -150 -14 -150L-2 -60Q72 -60 100 0H6L31 190H221Z" glyph-name="semicolon.T" horiz-adv-x="300" unicode="&#61829;" /><glyph d="M424 530H350L313 677L315 620V530H244V800H350L387 654L424 800H530V530H459V620L461 677ZM104 635Q58 641 35.5 658Q13 675 13 719V723Q13 762 38.5 786Q64 810 115 810Q169 810 193.5 784.5Q218 759 218 708V701H148Q148 724 141 736Q134 748 115 748H111Q99 748 92 741Q85 734 85 726V724Q85 711 95 705Q105 699 127 695Q173 689 196.5 672Q220 655 220 612V607Q220 566 193.5 543Q167 520 115 520Q64 520 37.5 544Q11 568 11 622V624H81Q81 581 115 581H119Q134 581 140.5 589Q147 597 147 605V607Q147 619 138.5 625Q130 631 104 635Z" glyph-name="servicemark" horiz-adv-x="570" unicode="&#8480;" /><glyph d="M83 780H623L608 665L251 0H52L395 620L305 618H224L208 500H46Z" glyph-name="seven" horiz-adv-x="600" unicode="7" /><glyph d="M17 566H283V452H17ZM17 718H283V604H17Z" glyph-name="seven.OP" horiz-adv-x="300" unicode="&#58706;" /><glyph d="M6 390H292L281 308L121 0H-24L152 277L106 276L103 250H-12Z" glyph-name="seven.inf" horiz-adv-x="300" unicode="&#58744;" /><glyph d="M916 137Q913 137 909 133L906 106Q905 99 912 99Q919 99 920 106L922 126Q923 134 920.5 135.5Q918 137 916 137ZM1052 282Q1010 282 987 276Q964 270 953 262Q938 251 930 233Q939 240 951 243Q963 246 973 246Q1018 246 1038 215Q1058 184 1053 130L1052 120Q1049 93 1040 69.5Q1031 46 1014 28.5Q997 11 970.5 1Q944 -9 906 -9Q841 -9 804.5 26.5Q768 62 778 137L780 152Q787 205 804 249Q821 293 856 331Q875 352 900.5 365Q926 378 954 385.5Q982 393 1011 395.5Q1040 398 1067 398ZM472 0 487 113H554L569 231L540 213L488 306L619 388H722L686 113H752L737 0ZM-13 0 665 780H815L137 0ZM58 780H344L333 698L173 390H28L204 667L158 666L155 640H40Z" glyph-name="sevensixteenths" horiz-adv-x="1100" unicode="&#61976;" /><glyph d="M294 331Q274 331 250.5 320.5Q227 310 209 286L206 261Q199 204 218 176Q237 148 269 148H275Q307 148 332 171.5Q357 195 362 236L363 247Q368 292 348.5 311.5Q329 331 299 331ZM558 630Q513 630 477 626Q441 622 411 613Q381 604 355.5 588.5Q330 573 307 551Q290 534 275.5 511.5Q261 489 252 457Q275 476 303.5 484Q332 492 362 492Q462 492 511 430.5Q560 369 549 254L547 234Q536 120 465 53Q394 -14 267 -14Q198 -14 148.5 7.5Q99 29 68.5 67.5Q38 106 26.5 159.5Q15 213 22 277L24 296Q30 353 40.5 401.5Q51 450 68.5 493.5Q86 537 112 577Q138 617 176 658Q216 701 261 727.5Q306 754 356 769Q406 784 461.5 789Q517 794 580 794Z" glyph-name="six" horiz-adv-x="600" unicode="6" /><glyph d="M17 642H283V528H17Z" glyph-name="six.OP" horiz-adv-x="300" unicode="&#58705;" /><glyph d="M116 137Q113 137 109 133L106 106Q105 99 112 99Q119 99 120 106L122 126Q123 134 120.5 135.5Q118 137 116 137ZM252 282Q210 282 187 276Q164 270 153 262Q138 251 130 233Q139 240 151 243Q163 246 173 246Q218 246 238 215Q258 184 253 130L252 120Q249 93 240 69.5Q231 46 214 28.5Q197 11 170.5 1Q144 -9 106 -9Q41 -9 4.5 26.5Q-32 62 -22 137L-20 152Q-13 205 4 249Q21 293 56 331Q75 352 100.5 365Q126 378 154 385.5Q182 393 211 395.5Q240 398 267 398Z" glyph-name="six.inf" horiz-adv-x="300" unicode="&#58743;" /><glyph glyph-name="sixperemspace" horiz-adv-x="167" unicode="&#8198;" /><glyph d="M130 -120H-49L306 840H486Z" glyph-name="slash" horiz-adv-x="440" unicode="/" /><glyph d="M-35 0 259 780H439L145 0Z" glyph-name="slash.cap" horiz-adv-x="400" unicode="&#58465;" /><glyph glyph-name="space" horiz-adv-x="200" unicode=" " /><glyph d="M451 790Q463 771 486 742.5Q509 714 540 682Q571 650 607.5 618Q644 586 684 560Q717 539 746.5 515.5Q776 492 798.5 464.5Q821 437 834.5 405Q848 373 848 334Q848 297 834.5 265.5Q821 234 797 210.5Q773 187 741 173.5Q709 160 672 160Q635 160 604 173.5Q573 187 548 209.5Q523 232 504 261Q485 290 472 321L469 320Q473 269 479.5 227Q486 185 495.5 147Q505 109 518.5 73Q532 37 551 0H349Q368 37 381.5 73Q395 109 404.5 147Q414 185 420.5 227Q427 269 431 320L428 321Q415 290 396 261Q377 232 352 209.5Q327 187 296 173.5Q265 160 228 160Q191 160 159 173.5Q127 187 103 210.5Q79 234 65.5 265.5Q52 297 52 334Q52 373 65.5 405Q79 437 101.5 464.5Q124 492 153.5 515.5Q183 539 216 560Q256 586 292.5 618Q329 650 360 682Q391 714 414 742.5Q437 771 449 790Z" glyph-name="spade" horiz-adv-x="900" unicode="&#9824;" /><glyph d="M247 293 344 390 247 487 363 603 460 506 557 603 673 487 576 390 673 293 557 177 460 274 363 177ZM232 618V162H688V618ZM70 0V780H850V0Z" glyph-name="squaremultiply" horiz-adv-x="920" unicode="&#8864;" /><glyph d="M352 632Q334 632 322.5 624.5Q311 617 304.5 604Q298 591 296 572.5Q294 554 294 533Q294 507 296 485Q298 463 301 440H469L448 280H321Q323 251 324 222.5Q325 194 323 162H532L511 0H-9L12 162H161Q159 194 155 223Q151 252 146 280H27L48 440H113Q111 457 109.5 476Q108 495 108 520Q108 543 111.5 572Q115 601 124.5 631.5Q134 662 151.5 691.5Q169 721 197.5 743.5Q226 766 267.5 780Q309 794 365 794Q438 794 484.5 774Q531 754 555 718Q579 682 584 631Q589 580 579 519L576 500H390Q393 519 394.5 542Q396 565 393 585Q390 605 380.5 618.5Q371 632 352 632Z" glyph-name="sterling" horiz-adv-x="600" unicode="&#163;" /><glyph d="M426 530 405 370H278L258 215Q252 170 269.5 157Q287 144 319 144Q331 144 346.5 146Q362 148 366 150L347 0Q339 -4 316.5 -9Q294 -14 256 -14Q208 -14 170.5 -3Q133 8 108.5 32.5Q84 57 73.5 97Q63 137 71 195L94 370H14L35 530H115L135 680H319L299 530Z" glyph-name="t" horiz-adv-x="440" unicode="t" /><glyph d="M426 530 405 370H278L273 330H360L343 200H257Q255 165 272.5 154.5Q290 144 319 144Q331 144 346.5 146Q362 148 366 150L347 0Q339 -4 316.5 -9Q294 -14 256 -14Q208 -14 170.5 -3Q133 8 108.5 32.5Q84 57 73.5 97Q63 137 71 195L72 200H12L29 330H89L94 370H14L35 530H115L135 680H319L299 530Z" glyph-name="tbar" horiz-adv-x="440" unicode="&#359;" /><glyph d="M490 800 437 590H357L385 800ZM426 530 405 370H278L258 215Q252 170 269.5 157Q287 144 319 144Q331 144 346.5 146Q362 148 366 150L347 0Q339 -4 316.5 -9Q294 -14 256 -14Q208 -14 170.5 -3Q133 8 108.5 32.5Q84 57 73.5 97Q63 137 71 195L94 370H14L35 530H115L135 680H319L299 530Z" glyph-name="tcaron" horiz-adv-x="440" unicode="&#357;" /><glyph d="M257 -100Q248 -172 205.5 -201Q163 -230 80 -230L88 -170Q120 -170 143 -163.5Q166 -157 180 -140H92L105 -40H265ZM426 530 405 370H278L258 215Q252 170 269.5 157Q287 144 319 144Q331 144 346.5 146Q362 148 366 150L347 0Q339 -4 316.5 -9Q294 -14 256 -14Q208 -14 170.5 -3Q133 8 108.5 32.5Q84 57 73.5 97Q63 137 71 195L94 370H14L35 530H115L135 680H319L299 530Z" glyph-name="tcommaaccent" horiz-adv-x="440" unicode="&#355;" /><glyph d="M307 720H157L172 830H322ZM426 530 405 370H278L258 215Q252 170 269.5 157Q287 144 319 144Q331 144 346.5 146Q362 148 366 150L347 0Q339 -4 316.5 -9Q294 -14 256 -14Q208 -14 170.5 -3Q133 8 108.5 32.5Q84 57 73.5 97Q63 137 71 195L94 370H14L35 530H115L135 680H319L299 530Z" glyph-name="tdotaccent" horiz-adv-x="440" unicode="&#7787;" /><glyph glyph-name="thinspace" horiz-adv-x="150" unicode="&#8201;" /><glyph d="M1216 137Q1213 137 1209 133L1206 106Q1205 99 1212 99Q1219 99 1220 106L1222 126Q1223 134 1220.5 135.5Q1218 137 1216 137ZM1352 282Q1310 282 1287 276Q1264 270 1253 262Q1238 251 1230 233Q1239 240 1251 243Q1263 246 1273 246Q1318 246 1338 215Q1358 184 1353 130L1352 120Q1349 93 1340 69.5Q1331 46 1314 28.5Q1297 11 1270.5 1Q1244 -9 1206 -9Q1141 -9 1104.5 26.5Q1068 62 1078 137L1080 152Q1087 205 1104 249Q1121 293 1156 331Q1175 352 1200.5 365Q1226 378 1254 385.5Q1282 393 1311 395.5Q1340 398 1367 398ZM772 0 787 113H854L869 231L840 213L788 306L919 388H1022L986 113H1052L1037 0ZM287 0 965 780H1115L437 0ZM460 496Q459 489 466 489Q473 489 474 496L476 515Q477 532 463 532H421L435 638H475Q488 638 490 650L493 674Q494 681 487 681Q480 681 479 674L476 650H351L352 660Q359 728 394.5 758Q430 788 496 788Q539 788 565 777Q591 766 604.5 749.5Q618 733 622 714.5Q626 696 625 682L624 669Q622 640 607 620Q592 600 571 590Q587 579 597 560.5Q607 542 605 510L604 497Q603 482 596 462Q589 442 573 424Q557 406 529.5 393.5Q502 381 460 381Q315 381 329 506L330 515H462ZM24 390 39 503H106L121 621L92 603L40 696L171 778H274L238 503H304L289 390Z" glyph-name="thirteensixteenths" horiz-adv-x="1400" unicode="&#61985;" /><glyph d="M208 185Q214 174 229 159Q244 144 274 144Q347 144 360 246L365 284Q372 335 358.5 360.5Q345 386 307 386Q277 386 257.5 371Q238 356 229 345ZM289 800 248 490Q274 514 308.5 529Q343 544 395 544Q487 544 525.5 474Q564 404 548 284L543 246Q535 189 518.5 141Q502 93 475 58.5Q448 24 410 5Q372 -14 321 -14Q291 -14 270 -9Q249 -4 233.5 3.5Q218 11 207.5 21Q197 31 189 40L157 -200H-27L105 800Z" glyph-name="thorn" horiz-adv-x="585" unicode="&#254;" /><glyph d="M204 250Q200 220 204.5 200.5Q209 181 219 169Q229 157 242.5 152.5Q256 148 271 148H281Q310 148 332 167.5Q354 187 358 232L359 243Q365 317 295 317H192L214 479H314Q350 479 371.5 497Q393 515 396 552L397 563Q400 594 383 613Q366 632 340 632H330Q298 632 275.5 608Q253 584 245 520H59L61 536Q77 665 146 729.5Q215 794 343 794Q420 794 469 771.5Q518 749 545.5 715.5Q573 682 581.5 643.5Q590 605 586 573L583 551Q575 490 546.5 453.5Q518 417 479 399Q515 382 533 333.5Q551 285 545 223L543 203Q540 169 523.5 131Q507 93 474 60.5Q441 28 389.5 7Q338 -14 265 -14Q130 -14 65 53.5Q0 121 17 243L18 250Z" glyph-name="three" horiz-adv-x="600" unicode="3" /><glyph d="M108 106Q107 99 114 99Q121 99 122 106L124 125Q125 142 111 142H69L83 248H123Q136 248 138 260L141 284Q142 291 135 291Q128 291 127 284L124 260H-1L0 270Q7 338 42.5 368Q78 398 144 398Q187 398 213 387Q239 376 252.5 359.5Q266 343 270 324.5Q274 306 273 292L272 279Q270 250 255 230Q240 210 219 200Q235 189 245 170.5Q255 152 253 120L252 107Q251 92 244 72Q237 52 221 34Q205 16 177.5 3.5Q150 -9 108 -9Q-37 -9 -23 116L-22 125H110Z" glyph-name="three.inf" horiz-adv-x="300" unicode="&#58740;" /><glyph glyph-name="threeperemspace" horiz-adv-x="333" unicode="&#8196;" /><glyph d="M47 430H717L696 270H26Z" glyph-name="threequarteremdash" horiz-adv-x="750" unicode="&#58482;" /><glyph d="M52 470H722L701 310H31Z" glyph-name="threequarteremdash.cap" horiz-adv-x="750" unicode="&#58501;" /><glyph d="M615 175 622 215 593 175ZM592 0 600 63H467L479 156L650 390H775L747 177H763L748 63H732L724 0ZM-13 0 665 780H815L137 0ZM160 496Q159 489 166 489Q173 489 174 496L176 515Q177 532 163 532H121L135 638H175Q188 638 190 650L193 674Q194 681 187 681Q180 681 179 674L176 650H51L52 660Q59 728 94.5 758Q130 788 196 788Q239 788 265 777Q291 766 304.5 749.5Q318 733 322 714.5Q326 696 325 682L324 669Q322 640 307 620Q292 600 271 590Q287 579 297 560.5Q307 542 305 510L304 497Q303 482 296 462Q289 442 273 424Q257 406 229.5 393.5Q202 381 160 381Q15 381 29 506L30 515H162Z" glyph-name="threequarters" horiz-adv-x="800" unicode="&#190;" /><glyph d="M916 137Q913 137 909 133L906 106Q905 99 912 99Q919 99 920 106L922 126Q923 134 920.5 135.5Q918 137 916 137ZM1052 282Q1010 282 987 276Q964 270 953 262Q938 251 930 233Q939 240 951 243Q963 246 973 246Q1018 246 1038 215Q1058 184 1053 130L1052 120Q1049 93 1040 69.5Q1031 46 1014 28.5Q997 11 970.5 1Q944 -9 906 -9Q841 -9 804.5 26.5Q768 62 778 137L780 152Q787 205 804 249Q821 293 856 331Q875 352 900.5 365Q926 378 954 385.5Q982 393 1011 395.5Q1040 398 1067 398ZM472 0 487 113H554L569 231L540 213L488 306L619 388H722L686 113H752L737 0ZM-13 0 665 780H815L137 0ZM160 496Q159 489 166 489Q173 489 174 496L176 515Q177 532 163 532H121L135 638H175Q188 638 190 650L193 674Q194 681 187 681Q180 681 179 674L176 650H51L52 660Q59 728 94.5 758Q130 788 196 788Q239 788 265 777Q291 766 304.5 749.5Q318 733 322 714.5Q326 696 325 682L324 669Q322 640 307 620Q292 600 271 590Q287 579 297 560.5Q307 542 305 510L304 497Q303 482 296 462Q289 442 273 424Q257 406 229.5 393.5Q202 381 160 381Q15 381 29 506L30 515H162Z" glyph-name="threesixteenths" horiz-adv-x="1100" unicode="&#61974;" /><glyph d="M160 496Q159 489 166 489Q173 489 174 496L176 515Q177 532 163 532H121L135 638H175Q188 638 190 650L193 674Q194 681 187 681Q180 681 179 674L176 650H51L52 660Q59 728 94.5 758Q130 788 196 788Q239 788 265 777Q291 766 304.5 749.5Q318 733 322 714.5Q326 696 325 682L324 669Q322 640 307 620Q292 600 271 590Q287 579 297 560.5Q307 542 305 510L304 497Q303 482 296 462Q289 442 273 424Q257 406 229.5 393.5Q202 381 160 381Q15 381 29 506L30 515H162Z" glyph-name="threesuperior" horiz-adv-x="300" unicode="&#179;" /><glyph d="M518 780Q512 733 498 699.5Q484 666 465 645Q446 624 423 614Q400 604 375 604Q351 604 329.5 612Q308 620 289 629.5Q270 639 253.5 647Q237 655 222 655Q208 655 198.5 647Q189 639 187 620H67Q73 667 87 700.5Q101 734 120 755Q139 776 162 786Q185 796 210 796Q234 796 255.5 788Q277 780 296 770.5Q315 761 332 753Q349 745 364 745Q378 745 387 753Q396 761 398 780Z" glyph-name="tilde" horiz-adv-x="500" unicode="&#732;" /><glyph d="M521 950Q516 914 503.5 890Q491 866 473.5 851.5Q456 837 435.5 830.5Q415 824 394 824Q370 824 349 831Q328 838 310.5 847Q293 856 277.5 863Q262 870 248 870Q234 870 223.5 863.5Q213 857 211 840H116Q121 876 133.5 900Q146 924 163.5 938.5Q181 953 201.5 959.5Q222 966 243 966Q267 966 288 959Q309 952 326.5 943Q344 934 359.5 927Q375 920 389 920Q403 920 413.5 926.5Q424 933 426 950Z" glyph-name="tilde.cap" horiz-adv-x="500" unicode="&#58404;" /><glyph d="M424 530H350L313 677L315 620V530H244V800H350L387 654L424 800H530V530H459V620L461 677ZM152 530H81V739H16V800H218V739H152Z" glyph-name="trademark" horiz-adv-x="570" unicode="&#8482;" /><glyph d="M61 780H243L465 199L687 780H869L555 -14H375Z" glyph-name="triagdn" horiz-adv-x="930" unicode="&#9660;" /><glyph d="M850 794V612L269 390L850 168V-14L56 300V480Z" glyph-name="triaglf" horiz-adv-x="930" unicode="&#9668;" /><glyph d="M874 300 80 -14V168L661 390L80 612V794L874 480Z" glyph-name="triagrt" horiz-adv-x="930" unicode="&#9658;" /><glyph d="M869 0H687L465 581L243 0H61L375 794H555Z" glyph-name="triagup" horiz-adv-x="930" unicode="&#9650;" /><glyph d="M473 780 420 440H276L313 780ZM693 780 620 440H476L513 780ZM273 780 220 440H76L93 780Z" glyph-name="tripleprime" horiz-adv-x="680" unicode="&#8244;" /><glyph d="M532 162 511 0H-9L6 117L338 440Q358 460 375 483.5Q392 507 395 533L396 543Q401 591 383 611.5Q365 632 336 632H326Q297 632 275 608Q253 584 245 520H59L61 537Q76 665 144 729.5Q212 794 344 794Q419 794 467.5 773Q516 752 543.5 719.5Q571 687 580.5 648Q590 609 586 573L584 555Q580 521 571.5 495Q563 469 549 445.5Q535 422 515.5 400Q496 378 470 353L272 161L342 162Z" glyph-name="two" horiz-adv-x="600" unicode="2" /><glyph d="M235 0H-35L-24 83L125 233Q130 238 133 242Q136 246 137 254L141 284Q142 291 135 291Q128 291 127 284L124 260H-1L0 270Q7 338 41.5 368Q76 398 144 398Q187 398 213 386Q239 374 253 356.5Q267 339 270.5 319.5Q274 300 273 285L271 267Q267 236 253.5 215.5Q240 195 215 170L158 113H250Z" glyph-name="two.inf" horiz-adv-x="300" unicode="&#58739;" /><glyph d="M287 390H17L28 473L177 623Q182 628 185 632Q188 636 189 644L193 674Q194 681 187 681Q180 681 179 674L176 650H51L52 660Q59 728 93.5 758Q128 788 196 788Q239 788 265 776Q291 764 305 746.5Q319 729 322.5 709.5Q326 690 325 675L323 657Q319 626 305.5 605.5Q292 585 267 560L210 503H302Z" glyph-name="twosuperior" horiz-adv-x="300" unicode="&#178;" /><glyph d="M248 530 205 205Q204 196 204.5 185Q205 174 209.5 165Q214 156 224 150Q234 144 253 144Q283 144 305 159Q327 174 336 185L381 530H565L515 150L506 0H340V70Q306 30 262 8Q218 -14 158 -14Q111 -14 81.5 2Q52 18 36 44.5Q20 71 16.5 105Q13 139 18 175L64 530Z" glyph-name="u" horiz-adv-x="595" unicode="u" /><glyph d="M248 530 205 205Q204 196 204.5 185Q205 174 209.5 165Q214 156 224 150Q234 144 253 144Q283 144 305 159Q327 174 336 185L381 530H565L515 150L506 0H340V70Q306 30 262 8Q218 -14 158 -14Q111 -14 81.5 2Q52 18 36 44.5Q20 71 16.5 105Q13 139 18 175L64 530ZM549 780 413 590H231L347 780Z" glyph-name="uacute" horiz-adv-x="595" unicode="&#250;" /><glyph d="M248 530 205 205Q204 196 204.5 185Q205 174 209.5 165Q214 156 224 150Q234 144 253 144Q283 144 305 159Q327 174 336 185L381 530H565L515 150L506 0H340V70Q306 30 262 8Q218 -14 158 -14Q111 -14 81.5 2Q52 18 36 44.5Q20 71 16.5 105Q13 139 18 175L64 530ZM320 576Q264 576 228.5 591.5Q193 607 173.5 634Q154 661 149.5 698.5Q145 736 152 780H282Q279 759 283 746.5Q287 734 295 726.5Q303 719 314.5 716.5Q326 714 338 714Q363 714 385 726.5Q407 739 412 780H542Q537 736 523 698.5Q509 661 482 634Q455 607 415 591.5Q375 576 320 576Z" glyph-name="ubreve" horiz-adv-x="595" unicode="&#365;" /><glyph d="M248 530 205 205Q204 196 204.5 185Q205 174 209.5 165Q214 156 224 150Q234 144 253 144Q283 144 305 159Q327 174 336 185L381 530H565L515 150L506 0H340V70Q306 30 262 8Q218 -14 158 -14Q111 -14 81.5 2Q52 18 36 44.5Q20 71 16.5 105Q13 139 18 175L64 530ZM97 590 257 780H437L547 590H387L332 663L257 590Z" glyph-name="ucircumflex" horiz-adv-x="595" unicode="&#251;" /><glyph d="M248 530 205 205Q204 196 204.5 185Q205 174 209.5 165Q214 156 224 150Q234 144 253 144Q283 144 305 159Q327 174 336 185L381 530H565L515 150L506 0H340V70Q306 30 262 8Q218 -14 158 -14Q111 -14 81.5 2Q52 18 36 44.5Q20 71 16.5 105Q13 139 18 175L64 530ZM302 590H112L137 780H327ZM532 590H342L367 780H557Z" glyph-name="udieresis" horiz-adv-x="595" unicode="&#252;" /><glyph d="M248 530 205 205Q204 196 204.5 185Q205 174 209.5 165Q214 156 224 150Q234 144 253 144Q283 144 305 159Q327 174 336 185L381 530H565L515 150L506 0H340V70Q306 30 262 8Q218 -14 158 -14Q111 -14 81.5 2Q52 18 36 44.5Q20 71 16.5 105Q13 139 18 175L64 530ZM347 780 413 590H231L145 780Z" glyph-name="ugrave" horiz-adv-x="595" unicode="&#249;" /><glyph d="M248 530 205 205Q204 196 204.5 185Q205 174 209.5 165Q214 156 224 150Q234 144 253 144Q283 144 305 159Q327 174 336 185L381 530H565L515 150L506 0H340V70Q306 30 262 8Q218 -14 158 -14Q111 -14 81.5 2Q52 18 36 44.5Q20 71 16.5 105Q13 139 18 175L64 530ZM614 780 478 590H336L452 780ZM414 780 307 590H165L252 780Z" glyph-name="uhungarumlaut" horiz-adv-x="595" unicode="&#369;" /><glyph d="M248 530 205 205Q204 196 204.5 185Q205 174 209.5 165Q214 156 224 150Q234 144 253 144Q283 144 305 159Q327 174 336 185L381 530H565L515 150L506 0H340V70Q306 30 262 8Q218 -14 158 -14Q111 -14 81.5 2Q52 18 36 44.5Q20 71 16.5 105Q13 139 18 175L64 530ZM185 765H505L484 605H164Z" glyph-name="umacron" horiz-adv-x="595" unicode="&#363;" /><glyph d="M-15 -40H225L204 -200H-36Z" glyph-name="underscore" horiz-adv-x="320" unicode="_" /><glyph d="M-15 -40H505L484 -200H-36Z" glyph-name="underscoremonospace" horiz-adv-x="600" unicode="&#65343;" /><glyph d="M47 430H327L306 270H26Z" glyph-name="uni00AD" horiz-adv-x="360" unicode="&#173;" /><glyph d="M47 430H1167L1146 270H26Z" glyph-name="uni2015" horiz-adv-x="1200" unicode="&#8213;" /><glyph d="M52 470H1172L1151 310H31Z" glyph-name="uni2015.cap" horiz-adv-x="1200" unicode="&#58504;" /><glyph d="M198 667Q199 673 196 675.5Q193 678 189.5 678Q186 678 182.5 675.5Q179 673 178 667L157 502Q156 496 159 493.5Q162 491 165.5 491Q169 491 172.5 493.5Q176 496 177 502ZM304 498Q297 447 260 414Q223 381 159 381Q127 381 101.5 390Q76 399 58.5 414.5Q41 430 33 451.5Q25 473 28 498L51 671Q58 722 95 755Q132 788 196 788Q228 788 253.5 779.5Q279 771 296.5 755Q314 739 322 717.5Q330 696 327 671Z" glyph-name="uni2070" horiz-adv-x="300" unicode="&#8304;" /><glyph d="M167 565 174 605 145 565ZM144 390 152 453H19L31 546L202 780H327L299 567H315L300 453H284L276 390Z" glyph-name="uni2074" horiz-adv-x="300" unicode="&#8308;" /><glyph d="M162 515 160 496Q159 489 166 489Q173 489 174 496L177 523Q179 536 164 536H163Q157 536 150 532L41 572L76 780H335L320 666H170L166 640Q171 645 183 647.5Q195 650 212 650Q268 650 289.5 615.5Q311 581 306 524L305 511Q303 487 296 464Q289 441 272.5 422.5Q256 404 229 392.5Q202 381 160 381Q15 381 29 506L30 515Z" glyph-name="uni2075" horiz-adv-x="300" unicode="&#8309;" /><glyph d="M168 527Q165 527 161 523L158 496Q157 489 164 489Q171 489 172 496L174 516Q175 524 172.5 525.5Q170 527 168 527ZM304 672Q262 672 239 666Q216 660 205 652Q190 641 182 623Q191 630 203 633Q215 636 225 636Q270 636 290 605Q310 574 305 520L304 510Q301 483 292 459.5Q283 436 266 418.5Q249 401 222.5 391Q196 381 158 381Q93 381 56.5 416.5Q20 452 30 527L32 542Q39 595 56 639Q73 683 108 721Q127 742 152.5 755Q178 768 206 775.5Q234 783 263 785.5Q292 788 319 788Z" glyph-name="uni2076" horiz-adv-x="300" unicode="&#8310;" /><glyph d="M58 780H344L333 698L173 390H28L204 667L158 666L155 640H40Z" glyph-name="uni2077" horiz-adv-x="300" unicode="&#8311;" /><glyph d="M193 674Q194 681 187 681Q180 681 179 674L176 645Q175 638 182 638Q189 638 190 645ZM177 525Q178 532 171 532Q164 532 163 525L160 496Q159 489 166 489Q173 489 174 496ZM160 381Q118 381 92 393.5Q66 406 51.5 424Q37 442 32 462Q27 482 28 497L29 510Q31 542 47 563Q63 584 85 593Q71 603 61.5 621.5Q52 640 54 669L55 682Q56 696 62 714.5Q68 733 83.5 749.5Q99 766 126 777Q153 788 196 788Q239 788 265 777Q291 766 304.5 749.5Q318 733 322 714.5Q326 696 325 682L324 669Q322 640 307.5 621.5Q293 603 271 590Q287 579 297 560.5Q307 542 305 510L304 497Q303 482 296 462Q289 442 273 424Q257 406 229.5 393.5Q202 381 160 381Z" glyph-name="uni2078" horiz-adv-x="300" unicode="&#8312;" /><glyph d="M186 642Q189 642 193 646L196 673Q197 680 190 680Q183 680 182 673L180 653Q179 645 181.5 643.5Q184 642 186 642ZM48 497Q90 497 114 503Q138 509 149 517Q164 528 172 546Q163 539 151 536Q139 533 129 533Q84 533 64 564Q44 595 49 649L50 659Q53 686 61.5 709.5Q70 733 87.5 750.5Q105 768 131.5 778Q158 788 196 788Q261 788 297.5 752.5Q334 717 324 642L322 627Q315 574 298 530Q281 486 246 448Q227 427 201 414Q175 401 146.5 393.5Q118 386 89 383.5Q60 381 33 381Z" glyph-name="uni2079" horiz-adv-x="300" unicode="&#8313;" /><glyph d="M252 718 242 642H318L303 528H227L217 452H103L113 528H37L52 642H128L138 718Z" glyph-name="uni207A" horiz-adv-x="300" unicode="&#8314;" /><glyph d="M52 642H318L303 528H37Z" glyph-name="uni207B" horiz-adv-x="300" unicode="&#8315;" /><glyph d="M42 566H308L293 452H27ZM62 718H328L313 604H47Z" glyph-name="uni207C" horiz-adv-x="300" unicode="&#8316;" /><glyph d="M32 586Q35 624 44.5 655Q54 686 66 710Q78 734 92 751.5Q106 769 118 780H250Q237 768 223 748.5Q209 729 196 703.5Q183 678 174 648Q165 618 162 586L161 573Q159 542 161.5 514.5Q164 487 170 464Q176 441 184.5 422Q193 403 201 390H74Q67 400 58.5 419Q50 438 43 462Q36 486 32.5 514.5Q29 543 31 573Z" glyph-name="uni207D" horiz-adv-x="200" unicode="&#8317;" /><glyph d="M221 584Q218 546 208.5 515Q199 484 187 460Q175 436 161 418.5Q147 401 135 390H3Q16 402 30 421.5Q44 441 57 466.5Q70 492 79 522Q88 552 91 584L92 597Q94 628 91 655.5Q88 683 82 706Q76 729 68 748Q60 767 52 780H179Q186 769 194.5 750.5Q203 732 210 708Q217 684 220.5 655.5Q224 627 222 597Z" glyph-name="uni207E" horiz-adv-x="200" unicode="&#8318;" /><glyph d="M146 277Q147 283 144 285.5Q141 288 137.5 288Q134 288 130.5 285.5Q127 283 126 277L105 112Q104 106 107 103.5Q110 101 113.5 101Q117 101 120.5 103.5Q124 106 125 112ZM252 108Q245 57 208 24Q171 -9 107 -9Q75 -9 49.5 0Q24 9 6.5 24.5Q-11 40 -19 61.5Q-27 83 -24 108L-1 281Q6 332 43 365Q80 398 144 398Q176 398 201.5 389.5Q227 381 244.5 365Q262 349 270 327.5Q278 306 275 281Z" glyph-name="uni2080" horiz-adv-x="300" unicode="&#8320;" /><glyph d="M-28 0 -13 113H54L69 231L40 213L-12 306L119 388H222L186 113H252L237 0Z" glyph-name="uni2081" horiz-adv-x="300" unicode="&#8321;" /><glyph d="M235 0H-35L-24 83L125 233Q130 238 133 242Q136 246 137 254L141 284Q142 291 135 291Q128 291 127 284L124 260H-1L0 270Q7 338 41.5 368Q76 398 144 398Q187 398 213 386Q239 374 253 356.5Q267 339 270.5 319.5Q274 300 273 285L271 267Q267 236 253.5 215.5Q240 195 215 170L158 113H250Z" glyph-name="uni2082" horiz-adv-x="300" unicode="&#8322;" /><glyph d="M108 106Q107 99 114 99Q121 99 122 106L124 125Q125 142 111 142H69L83 248H123Q136 248 138 260L141 284Q142 291 135 291Q128 291 127 284L124 260H-1L0 270Q7 338 42.5 368Q78 398 144 398Q187 398 213 387Q239 376 252.5 359.5Q266 343 270 324.5Q274 306 273 292L272 279Q270 250 255 230Q240 210 219 200Q235 189 245 170.5Q255 152 253 120L252 107Q251 92 244 72Q237 52 221 34Q205 16 177.5 3.5Q150 -9 108 -9Q-37 -9 -23 116L-22 125H110Z" glyph-name="uni2083" horiz-adv-x="300" unicode="&#8323;" /><glyph d="M115 175 122 215 93 175ZM92 0 100 63H-33L-21 156L150 390H275L247 177H263L248 63H232L224 0Z" glyph-name="uni2084" horiz-adv-x="300" unicode="&#8324;" /><glyph d="M110 125 108 106Q107 99 114 99Q121 99 122 106L125 133Q127 146 112 146H111Q105 146 98 142L-11 182L24 390H283L268 276H118L114 250Q119 255 131 257.5Q143 260 160 260Q216 260 237.5 225.5Q259 191 254 134L253 121Q251 97 244 74Q237 51 220.5 32.5Q204 14 177 2.5Q150 -9 108 -9Q-37 -9 -23 116L-22 125Z" glyph-name="uni2085" horiz-adv-x="300" unicode="&#8325;" /><glyph d="M116 137Q113 137 109 133L106 106Q105 99 112 99Q119 99 120 106L122 126Q123 134 120.5 135.5Q118 137 116 137ZM252 282Q210 282 187 276Q164 270 153 262Q138 251 130 233Q139 240 151 243Q163 246 173 246Q218 246 238 215Q258 184 253 130L252 120Q249 93 240 69.5Q231 46 214 28.5Q197 11 170.5 1Q144 -9 106 -9Q41 -9 4.5 26.5Q-32 62 -22 137L-20 152Q-13 205 4 249Q21 293 56 331Q75 352 100.5 365Q126 378 154 385.5Q182 393 211 395.5Q240 398 267 398Z" glyph-name="uni2086" horiz-adv-x="300" unicode="&#8326;" /><glyph d="M6 390H292L281 308L121 0H-24L152 277L106 276L103 250H-12Z" glyph-name="uni2087" horiz-adv-x="300" unicode="&#8327;" /><glyph d="M141 284Q142 291 135 291Q128 291 127 284L124 255Q123 248 130 248Q137 248 138 255ZM125 135Q126 142 119 142Q112 142 111 135L108 106Q107 99 114 99Q121 99 122 106ZM108 -9Q66 -9 40 3.5Q14 16 -0.5 34Q-15 52 -20 72Q-25 92 -24 107L-23 120Q-21 152 -5 173Q11 194 33 203Q19 213 9.5 231.5Q0 250 2 279L3 292Q4 306 10 324.5Q16 343 31.5 359.5Q47 376 74 387Q101 398 144 398Q187 398 213 387Q239 376 252.5 359.5Q266 343 270 324.5Q274 306 273 292L272 279Q270 250 255.5 231.5Q241 213 219 200Q235 189 245 170.5Q255 152 253 120L252 107Q251 92 244 72Q237 52 221 34Q205 16 177.5 3.5Q150 -9 108 -9Z" glyph-name="uni2088" horiz-adv-x="300" unicode="&#8328;" /><glyph d="M134 252Q137 252 141 256L144 283Q145 290 138 290Q131 290 130 283L128 263Q127 255 129.5 253.5Q132 252 134 252ZM-4 107Q38 107 62 113Q86 119 97 127Q112 138 120 156Q111 149 99 146Q87 143 77 143Q32 143 12 174Q-8 205 -3 259L-2 269Q1 296 9.5 319.5Q18 343 35.5 360.5Q53 378 79.5 388Q106 398 144 398Q209 398 245.5 362.5Q282 327 272 252L270 237Q263 184 246 140Q229 96 194 58Q175 37 149 24Q123 11 94.5 3.5Q66 -4 37 -6.5Q8 -9 -19 -9Z" glyph-name="uni2089" horiz-adv-x="300" unicode="&#8329;" /><glyph d="M200 328 190 252H266L251 138H175L165 62H51L61 138H-15L0 252H76L86 328Z" glyph-name="uni208A" horiz-adv-x="300" unicode="&#8330;" /><glyph d="M0 252H266L251 138H-15Z" glyph-name="uni208B" horiz-adv-x="300" unicode="&#8331;" /><glyph d="M-10 176H256L241 62H-25ZM10 328H276L261 214H-5Z" glyph-name="uni208C" horiz-adv-x="300" unicode="&#8332;" /><glyph d="M-20 196Q-17 234 -7.5 265Q2 296 14 320Q26 344 40 361.5Q54 379 66 390H198Q185 378 171 358.5Q157 339 144 313.5Q131 288 122 258Q113 228 110 196L109 183Q107 152 109.5 124.5Q112 97 118 74Q124 51 132.5 32Q141 13 149 0H22Q15 10 6.5 29Q-2 48 -9 72Q-16 96 -19.5 124.5Q-23 153 -21 183Z" glyph-name="uni208D" horiz-adv-x="200" unicode="&#8333;" /><glyph d="M169 194Q166 156 156.5 125Q147 94 135 70Q123 46 109 28.5Q95 11 83 0H-49Q-36 12 -22 31.5Q-8 51 5 76.5Q18 102 27 132Q36 162 39 194L40 207Q42 238 39 265.5Q36 293 30 316Q24 339 16 358Q8 377 0 390H127Q134 379 142.5 360.5Q151 342 158 318Q165 294 168.5 265.5Q172 237 170 207Z" glyph-name="uni208E" horiz-adv-x="200" unicode="&#8334;" /><glyph d="M608 106Q607 99 614 99Q621 99 622 106L624 125Q625 142 611 142H569L583 248H623Q636 248 638 260L641 284Q642 291 635 291Q628 291 627 284L624 260H499L500 270Q507 338 542.5 368Q578 398 644 398Q687 398 713 387Q739 376 752.5 359.5Q766 343 770 324.5Q774 306 773 292L772 279Q770 250 755 230Q740 210 719 200Q735 189 745 170.5Q755 152 753 120L752 107Q751 92 744 72Q737 52 721 34Q705 16 677.5 3.5Q650 -9 608 -9Q463 -9 477 116L478 125H610ZM-13 0 665 780H815L137 0ZM24 390 39 503H106L121 621L92 603L40 696L171 778H274L238 503H304L289 390Z" glyph-name="uni2153" horiz-adv-x="800" unicode="&#8531;" /><glyph d="M608 106Q607 99 614 99Q621 99 622 106L624 125Q625 142 611 142H569L583 248H623Q636 248 638 260L641 284Q642 291 635 291Q628 291 627 284L624 260H499L500 270Q507 338 542.5 368Q578 398 644 398Q687 398 713 387Q739 376 752.5 359.5Q766 343 770 324.5Q774 306 773 292L772 279Q770 250 755 230Q740 210 719 200Q735 189 745 170.5Q755 152 753 120L752 107Q751 92 744 72Q737 52 721 34Q705 16 677.5 3.5Q650 -9 608 -9Q463 -9 477 116L478 125H610ZM-13 0 665 780H815L137 0ZM287 390H17L28 473L177 623Q182 628 185 632Q188 636 189 644L193 674Q194 681 187 681Q180 681 179 674L176 650H51L52 660Q59 728 93.5 758Q128 788 196 788Q239 788 265 776Q291 764 305 746.5Q319 729 322.5 709.5Q326 690 325 675L323 657Q319 626 305.5 605.5Q292 585 267 560L210 503H302Z" glyph-name="uni2154" horiz-adv-x="800" unicode="&#8532;" /><glyph d="M610 125 608 106Q607 99 614 99Q621 99 622 106L625 133Q627 146 612 146H611Q605 146 598 142L489 182L524 390H783L768 276H618L614 250Q619 255 631 257.5Q643 260 660 260Q716 260 737.5 225.5Q759 191 754 134L753 121Q751 97 744 74Q737 51 720.5 32.5Q704 14 677 2.5Q650 -9 608 -9Q463 -9 477 116L478 125ZM-13 0 665 780H815L137 0ZM24 390 39 503H106L121 621L92 603L40 696L171 778H274L238 503H304L289 390Z" glyph-name="uni2155" horiz-adv-x="800" unicode="&#8533;" /><glyph d="M610 125 608 106Q607 99 614 99Q621 99 622 106L625 133Q627 146 612 146H611Q605 146 598 142L489 182L524 390H783L768 276H618L614 250Q619 255 631 257.5Q643 260 660 260Q716 260 737.5 225.5Q759 191 754 134L753 121Q751 97 744 74Q737 51 720.5 32.5Q704 14 677 2.5Q650 -9 608 -9Q463 -9 477 116L478 125ZM-13 0 665 780H815L137 0ZM287 390H17L28 473L177 623Q182 628 185 632Q188 636 189 644L193 674Q194 681 187 681Q180 681 179 674L176 650H51L52 660Q59 728 93.5 758Q128 788 196 788Q239 788 265 776Q291 764 305 746.5Q319 729 322.5 709.5Q326 690 325 675L323 657Q319 626 305.5 605.5Q292 585 267 560L210 503H302Z" glyph-name="uni2156" horiz-adv-x="800" unicode="&#8534;" /><glyph d="M610 125 608 106Q607 99 614 99Q621 99 622 106L625 133Q627 146 612 146H611Q605 146 598 142L489 182L524 390H783L768 276H618L614 250Q619 255 631 257.5Q643 260 660 260Q716 260 737.5 225.5Q759 191 754 134L753 121Q751 97 744 74Q737 51 720.5 32.5Q704 14 677 2.5Q650 -9 608 -9Q463 -9 477 116L478 125ZM-13 0 665 780H815L137 0ZM160 496Q159 489 166 489Q173 489 174 496L176 515Q177 532 163 532H121L135 638H175Q188 638 190 650L193 674Q194 681 187 681Q180 681 179 674L176 650H51L52 660Q59 728 94.5 758Q130 788 196 788Q239 788 265 777Q291 766 304.5 749.5Q318 733 322 714.5Q326 696 325 682L324 669Q322 640 307 620Q292 600 271 590Q287 579 297 560.5Q307 542 305 510L304 497Q303 482 296 462Q289 442 273 424Q257 406 229.5 393.5Q202 381 160 381Q15 381 29 506L30 515H162Z" glyph-name="uni2157" horiz-adv-x="800" unicode="&#8535;" /><glyph d="M610 125 608 106Q607 99 614 99Q621 99 622 106L625 133Q627 146 612 146H611Q605 146 598 142L489 182L524 390H783L768 276H618L614 250Q619 255 631 257.5Q643 260 660 260Q716 260 737.5 225.5Q759 191 754 134L753 121Q751 97 744 74Q737 51 720.5 32.5Q704 14 677 2.5Q650 -9 608 -9Q463 -9 477 116L478 125ZM-13 0 665 780H815L137 0ZM167 565 174 605 145 565ZM144 390 152 453H19L31 546L202 780H327L299 567H315L300 453H284L276 390Z" glyph-name="uni2158" horiz-adv-x="800" unicode="&#8536;" /><glyph d="M616 137Q613 137 609 133L606 106Q605 99 612 99Q619 99 620 106L622 126Q623 134 620.5 135.5Q618 137 616 137ZM752 282Q710 282 687 276Q664 270 653 262Q638 251 630 233Q639 240 651 243Q663 246 673 246Q718 246 738 215Q758 184 753 130L752 120Q749 93 740 69.5Q731 46 714 28.5Q697 11 670.5 1Q644 -9 606 -9Q541 -9 504.5 26.5Q468 62 478 137L480 152Q487 205 504 249Q521 293 556 331Q575 352 600.5 365Q626 378 654 385.5Q682 393 711 395.5Q740 398 767 398ZM-13 0 665 780H815L137 0ZM24 390 39 503H106L121 621L92 603L40 696L171 778H274L238 503H304L289 390Z" glyph-name="uni2159" horiz-adv-x="800" unicode="&#8537;" /><glyph d="M616 137Q613 137 609 133L606 106Q605 99 612 99Q619 99 620 106L622 126Q623 134 620.5 135.5Q618 137 616 137ZM752 282Q710 282 687 276Q664 270 653 262Q638 251 630 233Q639 240 651 243Q663 246 673 246Q718 246 738 215Q758 184 753 130L752 120Q749 93 740 69.5Q731 46 714 28.5Q697 11 670.5 1Q644 -9 606 -9Q541 -9 504.5 26.5Q468 62 478 137L480 152Q487 205 504 249Q521 293 556 331Q575 352 600.5 365Q626 378 654 385.5Q682 393 711 395.5Q740 398 767 398ZM-13 0 665 780H815L137 0ZM162 515 160 496Q159 489 166 489Q173 489 174 496L177 523Q179 536 164 536H163Q157 536 150 532L41 572L76 780H335L320 666H170L166 640Q171 645 183 647.5Q195 650 212 650Q268 650 289.5 615.5Q311 581 306 524L305 511Q303 487 296 464Q289 441 272.5 422.5Q256 404 229 392.5Q202 381 160 381Q15 381 29 506L30 515Z" glyph-name="uni215A" horiz-adv-x="800" unicode="&#8538;" /><glyph d="M641 284Q642 291 635 291Q628 291 627 284L624 255Q623 248 630 248Q637 248 638 255ZM625 135Q626 142 619 142Q612 142 611 135L608 106Q607 99 614 99Q621 99 622 106ZM608 -9Q566 -9 540 3.5Q514 16 499.5 34Q485 52 480 72Q475 92 476 107L477 120Q479 152 495 173Q511 194 533 203Q519 213 509.5 231.5Q500 250 502 279L503 292Q504 306 510 324.5Q516 343 531.5 359.5Q547 376 574 387Q601 398 644 398Q687 398 713 387Q739 376 752.5 359.5Q766 343 770 324.5Q774 306 773 292L772 279Q770 250 755.5 231.5Q741 213 719 200Q735 189 745 170.5Q755 152 753 120L752 107Q751 92 744 72Q737 52 721 34Q705 16 677.5 3.5Q650 -9 608 -9ZM-13 0 665 780H815L137 0ZM24 390 39 503H106L121 621L92 603L40 696L171 778H274L238 503H304L289 390Z" glyph-name="uni215B" horiz-adv-x="800" unicode="&#8539;" /><glyph d="M641 284Q642 291 635 291Q628 291 627 284L624 255Q623 248 630 248Q637 248 638 255ZM625 135Q626 142 619 142Q612 142 611 135L608 106Q607 99 614 99Q621 99 622 106ZM608 -9Q566 -9 540 3.5Q514 16 499.5 34Q485 52 480 72Q475 92 476 107L477 120Q479 152 495 173Q511 194 533 203Q519 213 509.5 231.5Q500 250 502 279L503 292Q504 306 510 324.5Q516 343 531.5 359.5Q547 376 574 387Q601 398 644 398Q687 398 713 387Q739 376 752.5 359.5Q766 343 770 324.5Q774 306 773 292L772 279Q770 250 755.5 231.5Q741 213 719 200Q735 189 745 170.5Q755 152 753 120L752 107Q751 92 744 72Q737 52 721 34Q705 16 677.5 3.5Q650 -9 608 -9ZM-13 0 665 780H815L137 0ZM160 496Q159 489 166 489Q173 489 174 496L176 515Q177 532 163 532H121L135 638H175Q188 638 190 650L193 674Q194 681 187 681Q180 681 179 674L176 650H51L52 660Q59 728 94.5 758Q130 788 196 788Q239 788 265 777Q291 766 304.5 749.5Q318 733 322 714.5Q326 696 325 682L324 669Q322 640 307 620Q292 600 271 590Q287 579 297 560.5Q307 542 305 510L304 497Q303 482 296 462Q289 442 273 424Q257 406 229.5 393.5Q202 381 160 381Q15 381 29 506L30 515H162Z" glyph-name="uni215C" horiz-adv-x="800" unicode="&#8540;" /><glyph d="M641 284Q642 291 635 291Q628 291 627 284L624 255Q623 248 630 248Q637 248 638 255ZM625 135Q626 142 619 142Q612 142 611 135L608 106Q607 99 614 99Q621 99 622 106ZM608 -9Q566 -9 540 3.5Q514 16 499.5 34Q485 52 480 72Q475 92 476 107L477 120Q479 152 495 173Q511 194 533 203Q519 213 509.5 231.5Q500 250 502 279L503 292Q504 306 510 324.5Q516 343 531.5 359.5Q547 376 574 387Q601 398 644 398Q687 398 713 387Q739 376 752.5 359.5Q766 343 770 324.5Q774 306 773 292L772 279Q770 250 755.5 231.5Q741 213 719 200Q735 189 745 170.5Q755 152 753 120L752 107Q751 92 744 72Q737 52 721 34Q705 16 677.5 3.5Q650 -9 608 -9ZM-13 0 665 780H815L137 0ZM162 515 160 496Q159 489 166 489Q173 489 174 496L177 523Q179 536 164 536H163Q157 536 150 532L41 572L76 780H335L320 666H170L166 640Q171 645 183 647.5Q195 650 212 650Q268 650 289.5 615.5Q311 581 306 524L305 511Q303 487 296 464Q289 441 272.5 422.5Q256 404 229 392.5Q202 381 160 381Q15 381 29 506L30 515Z" glyph-name="uni215D" horiz-adv-x="800" unicode="&#8541;" /><glyph d="M641 284Q642 291 635 291Q628 291 627 284L624 255Q623 248 630 248Q637 248 638 255ZM625 135Q626 142 619 142Q612 142 611 135L608 106Q607 99 614 99Q621 99 622 106ZM608 -9Q566 -9 540 3.5Q514 16 499.5 34Q485 52 480 72Q475 92 476 107L477 120Q479 152 495 173Q511 194 533 203Q519 213 509.5 231.5Q500 250 502 279L503 292Q504 306 510 324.5Q516 343 531.5 359.5Q547 376 574 387Q601 398 644 398Q687 398 713 387Q739 376 752.5 359.5Q766 343 770 324.5Q774 306 773 292L772 279Q770 250 755.5 231.5Q741 213 719 200Q735 189 745 170.5Q755 152 753 120L752 107Q751 92 744 72Q737 52 721 34Q705 16 677.5 3.5Q650 -9 608 -9ZM-13 0 665 780H815L137 0ZM58 780H344L333 698L173 390H28L204 667L158 666L155 640H40Z" glyph-name="uni215E" horiz-adv-x="800" unicode="&#8542;" /><glyph d="M-13 0 665 780H815L137 0ZM24 390 39 503H106L121 621L92 603L40 696L171 778H274L238 503H304L289 390Z" glyph-name="uni215F" horiz-adv-x="500" unicode="&#8543;" /><glyph d="M70 0V780H850V616H349L865 101L749 -15L234 501V0Z" glyph-name="uni2196" horiz-adv-x="920" unicode="&#8598;" /><glyph d="M70 780H850V0H686V501L171 -15L55 101L571 616H70Z" glyph-name="uni2197" horiz-adv-x="920" unicode="&#8599;" /><glyph d="M70 164H571L55 679L171 795L686 279V780H850V0H70Z" glyph-name="uni2198" horiz-adv-x="920" unicode="&#8600;" /><glyph d="M850 0H70V780H234V279L749 795L865 679L349 164H850Z" glyph-name="uni2199" horiz-adv-x="920" unicode="&#8601;" /><glyph d="M853 -1 789 -64 6 275 134 404 702 150 448 718 577 846 916 63Z" glyph-name="uni25E2" horiz-adv-x="930" unicode="&#9698;" /><glyph d="M14 63 353 846 482 718 228 150 796 404 924 275 141 -64 77 -1Z" glyph-name="uni25E3" horiz-adv-x="930" unicode="&#9699;" /><glyph d="M77 783 141 846 924 507 796 378 228 632 482 64 353 -64 14 719Z" glyph-name="uni25E4" horiz-adv-x="930" unicode="&#9700;" /><glyph d="M916 719 577 -64 448 64 702 632 134 378 6 507 789 846 853 783Z" glyph-name="uni25E5" horiz-adv-x="930" unicode="&#9701;" /><glyph d="M180 -10 279 297 19 486H341L440 792L539 486H861L601 297L700 -10L440 180Z" glyph-name="uni2605" horiz-adv-x="880" unicode="&#9733;" /><glyph d="M479 -11 437 191Q437 189 436.5 182.5Q436 176 433.5 166.5Q431 157 425 146Q419 135 408 125Q396 114 384 106Q372 98 362 90Q352 82 346 72Q340 62 340 47Q340 39 342 33Q344 27 346 22Q349 17 352 12Q329 19 317.5 36.5Q306 54 306 74Q306 104 327 125Q349 147 358.5 174.5Q368 202 368 220L196 107L309 279Q308 278 303 273.5Q298 269 290 264.5Q282 260 270 256.5Q258 253 243 253Q229 253 211.5 257Q194 261 181 261Q161 261 149 253.5Q137 246 131 237Q124 226 122 213Q114 227 114 241Q114 270 134.5 290Q155 310 185 310Q202 310 218.5 315Q235 320 248.5 326.5Q262 333 270.5 339.5Q279 346 281 348L79 390L281 432Q279 432 272.5 432.5Q266 433 256.5 435.5Q247 438 236 444Q225 450 215 461Q204 473 196 485Q188 497 180 507Q172 517 162 523Q152 529 137 529Q129 529 123 527Q117 525 112 523Q107 520 102 517Q109 540 126.5 551.5Q144 563 164 563Q194 563 215 542Q237 520 264.5 510.5Q292 501 310 501L197 673L369 560Q368 561 363.5 566Q359 571 354.5 579Q350 587 346.5 599Q343 611 343 626Q343 640 347 657.5Q351 675 351 688Q351 708 343.5 720Q336 732 327 738Q316 745 303 747Q317 755 331 755Q360 755 380 734.5Q400 714 400 684Q400 667 405 650.5Q410 634 416.5 620.5Q423 607 429.5 598Q436 589 438 588L480 790L522 588Q522 589 522.5 596Q523 603 525.5 612.5Q528 622 534 633Q540 644 551 654Q563 665 575 673Q587 681 597 689Q607 697 613 707Q619 717 619 732Q619 740 617 746Q615 752 613 757Q610 762 607 767Q630 760 641.5 742.5Q653 725 653 705Q653 675 632 654Q610 632 600.5 604.5Q591 577 591 559L763 672L650 500Q651 501 656 505.5Q661 510 669 514.5Q677 519 689 522.5Q701 526 716 526Q730 526 747.5 522Q765 518 778 518Q798 518 810 525.5Q822 533 828 542Q835 553 837 566Q845 552 845 538Q845 509 824.5 489Q804 469 774 469Q757 469 740.5 464Q724 459 710.5 452.5Q697 446 688 439.5Q679 433 678 431L880 389L678 347Q679 347 686 346.5Q693 346 702.5 343.5Q712 341 723 335Q734 329 744 318Q755 306 763 294Q771 282 779 272Q787 262 797 256Q807 250 822 250Q830 250 836 252Q842 254 847 256Q852 259 857 262Q850 239 832.5 227.5Q815 216 795 216Q765 216 744 237Q722 259 694.5 268.5Q667 278 649 278L762 106L590 219Q591 218 595.5 213Q600 208 604.5 200Q609 192 612.5 180Q616 168 616 153Q616 139 612 121.5Q608 104 608 91Q608 71 615.5 59Q623 47 632 41Q643 34 656 32Q642 24 628 24Q599 24 579 44.5Q559 65 559 95Q559 112 554 128.5Q549 145 542.5 158.5Q536 172 529.5 180.5Q523 189 521 191Z" glyph-name="uni263C" horiz-adv-x="960" unicode="&#9788;" /><glyph d="M624 728Q557 728 498 701.5Q439 675 395 629Q351 583 325.5 521.5Q300 460 300 390Q300 320 325.5 258.5Q351 197 395 151Q439 105 498 78.5Q557 52 624 52Q673 52 720 67Q669 30 607.5 10Q546 -10 480 -10Q397 -10 324 21.5Q251 53 197 107Q143 161 111.5 234Q80 307 80 390Q80 473 111.5 546Q143 619 197 673Q251 727 324 758.5Q397 790 480 790Q546 790 607.5 769.5Q669 749 720 713Q697 720 673 724Q649 728 624 728Z" glyph-name="uni263E" horiz-adv-x="960" unicode="&#9790;" /><glyph d="M875 410Q879 403 882 391.5Q885 380 885 366Q885 340 873.5 317Q862 294 845 277Q828 260 808.5 250Q789 240 773 240L657 441L806 527ZM311 41Q303 41 290.5 44Q278 47 267 54Q244 67 230 88.5Q216 110 209.5 133Q203 156 204.5 178Q206 200 214 214H446V41ZM267 717Q271 724 280 732.5Q289 741 301 748Q323 761 348.5 762.5Q374 764 397.5 758Q421 752 439.5 739.5Q458 727 466 713L350 512L200 598ZM404 780H597Q611 780 623.5 778.5Q636 777 647.5 772.5Q659 768 669 759Q679 750 689 733L717 684L760 708L699 542L526 573L567 597L495 722Q484 742 468 753Q452 764 438 770Q421 777 404 779ZM184 122 88 290Q82 302 76.5 313.5Q71 325 69.5 337Q68 349 71 362.5Q74 376 84 393L112 442L70 466L244 497L303 331L262 355Q243 321 227 294Q213 271 202 251.5Q191 232 190 230Q179 210 177 191.5Q175 173 177 157Q180 139 186 122ZM864 264 768 97Q760 85 753 75Q746 65 736 57.5Q726 50 713 45.5Q700 41 680 41H623V-8L510 128L623 263V214H768Q790 214 808 222Q826 230 838 240Q852 251 863 266Z" glyph-name="uni267B" horiz-adv-x="960" unicode="&#9851;" /><glyph d="M64 390Q64 472 95 544Q126 616 180 670Q234 724 306 755Q378 786 460 786Q542 786 614 755Q686 724 740 670Q794 616 825 544Q856 472 856 390Q856 308 825 236Q794 164 740 110Q686 56 614 25Q542 -6 460 -6Q378 -6 306 25Q234 56 180 110Q126 164 95 236Q64 308 64 390ZM754 295Q745 284 734 275Q724 267 710.5 261Q697 255 680 255H568V293L480 188L568 83V121H612Q643 121 656 133.5Q669 146 680 164L755 294ZM710 498 594 431 684 275Q696 275 711.5 282.5Q727 290 740.5 303.5Q754 317 762.5 335Q771 353 771 373Q771 384 768.5 393Q766 402 763 407ZM229 184Q224 197 222 211Q220 223 221.5 238Q223 253 232 268L288 365L320 346L274 475L139 451L172 432L150 394Q134 368 138.5 350.5Q143 333 153 314L228 184ZM427 121V255H247Q241 244 240 227Q239 210 243.5 192Q248 174 259 157.5Q270 141 288 131Q297 126 306.5 123.5Q316 121 322 121ZM394 693Q408 691 421 686Q432 681 444 672Q456 663 465 649L521 552L489 533L623 509L670 638L637 619L615 657Q600 683 583 688.5Q566 694 544 694H394ZM240 553 356 486 446 642Q440 653 425.5 662.5Q411 672 393 676.5Q375 681 355 680Q335 679 318 669Q309 664 302 657Q295 650 292 645Z" glyph-name="uni267C" horiz-adv-x="960" unicode="&#9852;" /><glyph d="M98 390Q98 315 126.5 249Q155 183 204 134Q253 85 319 56.5Q385 28 460 28Q535 28 601 56.5Q667 85 716 134Q765 183 793.5 249Q822 315 822 390Q822 465 793.5 531Q765 597 716 646Q667 695 601 723.5Q535 752 460 752Q385 752 319 723.5Q253 695 204 646Q155 597 126.5 531Q98 465 98 390ZM60 390Q60 473 91.5 546Q123 619 177 673Q231 727 304 758.5Q377 790 460 790Q543 790 616 758.5Q689 727 743 673Q797 619 828.5 546Q860 473 860 390Q860 307 828.5 234Q797 161 743 107Q689 53 616 21.5Q543 -10 460 -10Q377 -10 304 21.5Q231 53 177 107Q123 161 91.5 234Q60 307 60 390ZM755 294 680 164Q669 146 656 133.5Q643 121 612 121H568V83L480 188L568 293V255H680Q697 255 710.5 261Q724 267 734 275Q745 284 754 295ZM763 407Q766 402 768.5 393Q771 384 771 373Q771 353 762.5 335Q754 317 740.5 303.5Q727 290 711.5 282.5Q696 275 684 275L594 431L710 498ZM228 184 153 314Q143 333 138.5 350.5Q134 368 150 394L172 432L139 451L274 475L320 346L288 365L232 268Q223 253 221.5 238Q220 223 222 211Q224 197 229 184ZM322 121Q316 121 306.5 123.5Q297 126 288 131Q270 141 259 157.5Q248 174 243.5 192Q239 210 240 227Q241 244 247 255H427V121ZM394 694H544Q566 694 583 688.5Q600 683 615 657L637 619L670 638L623 509L489 533L521 552L465 649Q456 663 444 672Q432 681 421 686Q408 691 394 693ZM292 645Q295 650 302 657Q309 664 318 669Q335 679 355 680Q375 681 393 676.5Q411 672 425.5 662.5Q440 653 446 642L356 486L240 553Z" glyph-name="uni267D" horiz-adv-x="960" unicode="&#9853;" /><glyph d="M248 530 205 205Q204 196 204.5 185Q205 174 209.5 165Q214 156 224 150Q234 144 253 144Q283 144 305 159Q327 174 336 185L381 530H565L515 150L506 0Q497 -4 485.5 -9.5Q474 -15 464.5 -22.5Q455 -30 448.5 -40Q442 -50 442 -63Q442 -75 451.5 -82.5Q461 -90 477 -90Q491 -90 500 -86.5Q509 -83 514 -80L540 -190Q523 -200 493 -208Q463 -216 429 -216Q370 -216 335.5 -193.5Q301 -171 301 -123Q301 -93 311.5 -67Q322 -41 340 -18V70Q306 30 262 8Q218 -14 158 -14Q111 -14 81.5 2Q52 18 36 44.5Q20 71 16.5 105Q13 139 18 175L64 530Z" glyph-name="uogonek" horiz-adv-x="595" unicode="&#371;" /><glyph d="M248 530 205 205Q204 196 204.5 185Q205 174 209.5 165Q214 156 224 150Q234 144 253 144Q283 144 305 159Q327 174 336 185L381 530H565L515 150L506 0H340V70Q306 30 262 8Q218 -14 158 -14Q111 -14 81.5 2Q52 18 36 44.5Q20 71 16.5 105Q13 139 18 175L64 530ZM341 734Q318 734 301.5 719Q285 704 285 680Q285 660 297 648Q309 636 328 636Q351 636 367.5 651Q384 666 384 690Q384 710 372 722Q360 734 341 734ZM322 576Q279 576 251.5 603Q224 630 224 672Q224 698 234 720.5Q244 743 260.5 759.5Q277 776 299.5 785Q322 794 347 794Q390 794 417.5 767Q445 740 445 698Q445 672 435 649.5Q425 627 408.5 610.5Q392 594 369.5 585Q347 576 322 576Z" glyph-name="uring" horiz-adv-x="595" unicode="&#367;" /><glyph d="M248 530 205 205Q204 196 204.5 185Q205 174 209.5 165Q214 156 224 150Q234 144 253 144Q283 144 305 159Q327 174 336 185L381 530H565L515 150L506 0H340V70Q306 30 262 8Q218 -14 158 -14Q111 -14 81.5 2Q52 18 36 44.5Q20 71 16.5 105Q13 139 18 175L64 530ZM562 780Q556 733 542 699.5Q528 666 509 645Q490 624 467 614Q444 604 419 604Q395 604 373.5 612Q352 620 333 629.5Q314 639 297.5 647Q281 655 266 655Q252 655 242.5 647Q233 639 231 620H111Q117 667 131 700.5Q145 734 164 755Q183 776 206 786Q229 796 254 796Q278 796 299.5 788Q321 780 340 770.5Q359 761 376 753Q393 745 408 745Q422 745 431 753Q440 761 442 780Z" glyph-name="utilde" horiz-adv-x="595" unicode="&#361;" /><glyph d="M25 530H215L250 145L385 530H575L361 0H101Z" glyph-name="v" horiz-adv-x="560" unicode="v" /><glyph d="M281 0H51L35 530H215L197 200L300 530H520L537 200L605 530H785L631 0H401L385 340Z" glyph-name="w" horiz-adv-x="780" unicode="w" /><glyph d="M645 780 509 590H327L443 780ZM281 0H51L35 530H215L197 200L300 530H520L537 200L605 530H785L631 0H401L385 340Z" glyph-name="wacute" horiz-adv-x="780" unicode="&#7811;" /><glyph d="M193 590 353 780H533L643 590H483L428 663L353 590ZM281 0H51L35 530H215L197 200L300 530H520L537 200L605 530H785L631 0H401L385 340Z" glyph-name="wcircumflex" horiz-adv-x="780" unicode="&#373;" /><glyph d="M398 590H208L233 780H423ZM628 590H438L463 780H653ZM281 0H51L35 530H215L197 200L300 530H520L537 200L605 530H785L631 0H401L385 340Z" glyph-name="wdieresis" horiz-adv-x="780" unicode="&#7813;" /><glyph d="M443 780 509 590H327L241 780ZM281 0H51L35 530H215L197 200L300 530H520L537 200L605 530H785L631 0H401L385 340Z" glyph-name="wgrave" horiz-adv-x="780" unicode="&#7809;" /><glyph d="M218 390Q218 340 237 296Q256 252 289 219Q322 186 366 167Q410 148 460 148Q510 148 554 167Q598 186 631 219Q664 252 683 296Q702 340 702 390Q702 440 683 484Q664 528 631 561Q598 594 554 613Q510 632 460 632Q410 632 366 613Q322 594 289 561Q256 528 237 484Q218 440 218 390ZM56 390Q56 474 88 547.5Q120 621 174.5 675.5Q229 730 302.5 762Q376 794 460 794Q544 794 617.5 762Q691 730 745.5 675.5Q800 621 832 547.5Q864 474 864 390Q864 306 832 232.5Q800 159 745.5 104.5Q691 50 617.5 18Q544 -14 460 -14Q376 -14 302.5 18Q229 50 174.5 104.5Q120 159 88 232.5Q56 306 56 390Z" glyph-name="whitecircle" horiz-adv-x="920" unicode="&#9675;" /><glyph d="M232 368V162H438V368ZM600 530V0H70V530Z" glyph-name="whitesmallsquare" horiz-adv-x="680" unicode="&#9643;" /><glyph d="M232 618V162H688V618ZM70 0V780H850V0Z" glyph-name="whitesquare" horiz-adv-x="920" unicode="&#9633;" /><glyph d="M247 530 288 362 373 530H585L423 275L516 0H310L263 172L172 0H-34L130 275L35 530Z" glyph-name="x" horiz-adv-x="580" unicode="x" /><glyph d="M390 530H590L339 30L243 -200H23L139 30L20 530H220L264 220Z" glyph-name="y" horiz-adv-x="570" unicode="y" /><glyph d="M540 780 404 590H222L338 780ZM390 530H590L339 30L243 -200H23L139 30L20 530H220L264 220Z" glyph-name="yacute" horiz-adv-x="570" unicode="&#253;" /><glyph d="M88 590 248 780H428L538 590H378L323 663L248 590ZM390 530H590L339 30L243 -200H23L139 30L20 530H220L264 220Z" glyph-name="ycircumflex" horiz-adv-x="570" unicode="&#375;" /><glyph d="M293 590H103L128 780H318ZM523 590H333L358 780H548ZM390 530H590L339 30L243 -200H23L139 30L20 530H220L264 220Z" glyph-name="ydieresis" horiz-adv-x="570" unicode="&#255;" /><glyph d="M54 480H138L57 780H265L314 480L441 780H649L489 480H574L553 320H404L382 280H547L526 120H361L346 0H156L171 120H6L27 280H192L182 320H33Z" glyph-name="yen" horiz-adv-x="600" unicode="&#165;" /></font>
</defs>
</svg>
