<?xml version="1.0" standalone="no"?><!DOCTYPE svg PUBLIC "-//W3C//DTD SVG 1.1//EN" "http://www.w3.org/Graphics/SVG/1.1/DTD/svg11.dtd" ><svg version="1.1" xmlns="http://www.w3.org/2000/svg"><defs><font horiz-adv-x="0" id="font"><font-face ascent="750" bbox="-210 -210 1376 960" cap-height="780" descent="-250" font-family="Cooper Hewitt" font-stretch="normal" font-style="normal" font-weight="600" units-per-em="1000" x-height="530" /><missing-glyph d="M805 115V665L530 390ZM165 665V115L440 390ZM485 435 764 714H206ZM206 66H764L485 345ZM95 780H875V0H95Z" horiz-adv-x="970" /><glyph d="M151 249H448L300 750ZM330 790 566 0H522L459 211H140L78 0H34L270 790Z" glyph-name="A" horiz-adv-x="600" unicode="A" /><glyph d="M163 259H414L343 742ZM780 780V742H382L431 417H730V379H436L487 38H780V0H452L419 221H149L67 0H24L319 780Z" glyph-name="AE" horiz-adv-x="820" unicode="&#198;" /><glyph d="M383 950 321 840H279L341 950ZM151 249H448L300 750ZM330 790 566 0H522L459 211H140L78 0H34L270 790Z" glyph-name="Aacute" horiz-adv-x="600" unicode="&#193;" /><glyph d="M300 830Q237 830 202.5 863.5Q168 897 168 950H204Q204 912 227.5 887.5Q251 863 300 863Q349 863 372.5 887.5Q396 912 396 950H432Q432 897 397.5 863.5Q363 830 300 830ZM151 249H448L300 750ZM330 790 566 0H522L459 211H140L78 0H34L270 790Z" glyph-name="Abreve" horiz-adv-x="600" unicode="&#258;" /><glyph d="M185 840 285 950H315L415 840H370L300 917L230 840ZM151 249H448L300 750ZM330 790 566 0H522L459 211H140L78 0H34L270 790Z" glyph-name="Acircumflex" horiz-adv-x="600" unicode="&#194;" /><glyph d="M405 865H345V925H405ZM255 865H195V925H255ZM151 249H448L300 750ZM330 790 566 0H522L459 211H140L78 0H34L270 790Z" glyph-name="Adieresis" horiz-adv-x="600" unicode="&#196;" /><glyph d="M259 950 321 840H279L217 950ZM151 249H448L300 750ZM330 790 566 0H522L459 211H140L78 0H34L270 790Z" glyph-name="Agrave" horiz-adv-x="600" unicode="&#192;" /><glyph d="M200 915H400V875H200ZM151 249H448L300 750ZM330 790 566 0H522L459 211H140L78 0H34L270 790Z" glyph-name="Amacron" horiz-adv-x="600" unicode="&#256;" /><glyph d="M330 790 566 0H522L300 750L78 0H34L270 790Z" glyph-name="Anocross" horiz-adv-x="600" unicode="&#59185;" /><glyph d="M151 249H448L300 750ZM472 -117Q472 -146 492 -161.5Q512 -177 546 -177Q562 -177 578 -173.5Q594 -170 607 -163L619 -191Q603 -201 582 -205.5Q561 -210 543 -210Q495 -210 467 -187.5Q439 -165 439 -117Q439 -72 462.5 -41.5Q486 -11 519 9L459 211H140L78 0H34L270 790H330L566 0Q549 -8 532 -18.5Q515 -29 501.5 -43Q488 -57 480 -75.5Q472 -94 472 -117Z" glyph-name="Aogonek" horiz-adv-x="600" unicode="&#260;" /><glyph d="M242 870Q242 846 259 829Q276 812 300 812Q324 812 341 829Q358 846 358 870Q358 894 341 911Q324 928 300 928Q276 928 259 911Q242 894 242 870ZM151 249H448L300 750ZM210 870Q210 908 236 934Q262 960 300 960Q338 960 364 934Q390 908 390 870Q390 841 373.5 818Q357 795 331 785L566 0H522L459 211H140L78 0H34L268 785Q242 795 226 818Q210 841 210 870Z" glyph-name="Aring" horiz-adv-x="600" unicode="&#197;" /><glyph d="M440 932Q440 889 420 868.5Q400 848 368 848Q346 848 328 857.5Q310 867 294.5 878.5Q279 890 264.5 899.5Q250 909 235 909Q196 909 196 858H160Q160 901 180 921.5Q200 942 232 942Q254 942 271.5 932.5Q289 923 305 911.5Q321 900 335.5 890.5Q350 881 365 881Q404 881 404 932ZM151 249H448L300 750ZM330 790 566 0H522L459 211H140L78 0H34L270 790Z" glyph-name="Atilde" horiz-adv-x="600" unicode="&#195;" /><glyph d="M120 742V420H262Q301 420 334.5 428.5Q368 437 393.5 455.5Q419 474 433.5 503Q448 532 448 573V589Q448 630 433.5 659Q419 688 393.5 706.5Q368 725 334.5 733.5Q301 742 262 742ZM120 382V38H282Q321 38 354.5 47.5Q388 57 413.5 77Q439 97 453.5 128Q468 159 468 202V218Q468 261 453.5 292Q439 323 413.5 343Q388 363 354.5 372.5Q321 382 282 382ZM257 780Q307 780 349.5 768.5Q392 757 423.5 733.5Q455 710 472.5 674.5Q490 639 490 591V571Q490 502 454.5 461Q419 420 360 403Q427 387 468.5 342.5Q510 298 510 220V200Q510 150 492.5 112.5Q475 75 443.5 50Q412 25 369.5 12.5Q327 0 277 0H80V780Z" glyph-name="B" horiz-adv-x="570" unicode="B" /><glyph d="M295 865H235V925H295ZM120 742V420H262Q301 420 334.5 428.5Q368 437 393.5 455.5Q419 474 433.5 503Q448 532 448 573V589Q448 630 433.5 659Q419 688 393.5 706.5Q368 725 334.5 733.5Q301 742 262 742ZM120 382V38H282Q321 38 354.5 47.5Q388 57 413.5 77Q439 97 453.5 128Q468 159 468 202V218Q468 261 453.5 292Q439 323 413.5 343Q388 363 354.5 372.5Q321 382 282 382ZM257 780Q307 780 349.5 768.5Q392 757 423.5 733.5Q455 710 472.5 674.5Q490 639 490 591V571Q490 502 454.5 461Q419 420 360 403Q427 387 468.5 342.5Q510 298 510 220V200Q510 150 492.5 112.5Q475 75 443.5 50Q412 25 369.5 12.5Q327 0 277 0H80V780Z" glyph-name="Bdotaccent" horiz-adv-x="570" unicode="&#7682;" /><glyph d="M105 370Q105 278 118.5 213Q132 148 158.5 107Q185 66 224.5 47Q264 28 317 28H323Q422 28 466 84.5Q510 141 510 250H552V240Q552 124 495 57Q438 -10 318 -10Q254 -10 206.5 11.5Q159 33 127 79Q95 125 79 197Q63 269 63 370V410Q63 511 79 583Q95 655 127 701Q159 747 206.5 768.5Q254 790 318 790Q439 790 495.5 721.5Q552 653 552 525V500H510Q510 635 465 693.5Q420 752 323 752H317Q265 752 225.5 733Q186 714 159 673Q132 632 118.5 567Q105 502 105 410Z" glyph-name="C" horiz-adv-x="607" unicode="C" /><glyph d="M401 950 339 840H297L359 950ZM105 370Q105 278 118.5 213Q132 148 158.5 107Q185 66 224.5 47Q264 28 317 28H323Q422 28 466 84.5Q510 141 510 250H552V240Q552 124 495 57Q438 -10 318 -10Q254 -10 206.5 11.5Q159 33 127 79Q95 125 79 197Q63 269 63 370V410Q63 511 79 583Q95 655 127 701Q159 747 206.5 768.5Q254 790 318 790Q439 790 495.5 721.5Q552 653 552 525V500H510Q510 635 465 693.5Q420 752 323 752H317Q265 752 225.5 733Q186 714 159 673Q132 632 118.5 567Q105 502 105 410Z" glyph-name="Cacute" horiz-adv-x="607" unicode="&#262;" /><glyph d="M248 950 318 873 388 950H433L333 840H303L203 950ZM105 370Q105 278 118.5 213Q132 148 158.5 107Q185 66 224.5 47Q264 28 317 28H323Q422 28 466 84.5Q510 141 510 250H552V240Q552 124 495 57Q438 -10 318 -10Q254 -10 206.5 11.5Q159 33 127 79Q95 125 79 197Q63 269 63 370V410Q63 511 79 583Q95 655 127 701Q159 747 206.5 768.5Q254 790 318 790Q439 790 495.5 721.5Q552 653 552 525V500H510Q510 635 465 693.5Q420 752 323 752H317Q265 752 225.5 733Q186 714 159 673Q132 632 118.5 567Q105 502 105 410Z" glyph-name="Ccaron" horiz-adv-x="607" unicode="&#268;" /><glyph d="M246 -158Q259 -166 277.5 -171.5Q296 -177 316 -177Q351 -177 368 -168Q385 -159 385 -136Q385 -114 366.5 -105.5Q348 -97 320 -97Q315 -97 310.5 -97.5Q306 -98 302 -98Q298 -99 294 -99L277 -83L304 -10Q183 -6 123 83.5Q63 173 63 370V410Q63 511 79 583Q95 655 127 701Q159 747 206.5 768.5Q254 790 318 790Q439 790 495.5 721.5Q552 653 552 525V500H510Q510 635 465 693.5Q420 752 323 752H317Q265 752 225.5 733Q186 714 159 673Q132 632 118.5 567Q105 502 105 410V370Q105 278 118.5 213Q132 148 158.5 107Q185 66 224.5 47Q264 28 317 28H323Q422 28 466 84.5Q510 141 510 250H552V240Q552 128 500.5 62.5Q449 -3 340 -9L320 -64H325Q341 -64 357.5 -67.5Q374 -71 387.5 -79Q401 -87 409.5 -100.5Q418 -114 418 -135Q418 -176 390 -193Q362 -210 321 -210Q296 -210 272 -204.5Q248 -199 233 -188Z" glyph-name="Ccedilla" horiz-adv-x="607" unicode="&#199;" /><glyph d="M203 840 303 950H333L433 840H388L318 917L248 840ZM105 370Q105 278 118.5 213Q132 148 158.5 107Q185 66 224.5 47Q264 28 317 28H323Q422 28 466 84.5Q510 141 510 250H552V240Q552 124 495 57Q438 -10 318 -10Q254 -10 206.5 11.5Q159 33 127 79Q95 125 79 197Q63 269 63 370V410Q63 511 79 583Q95 655 127 701Q159 747 206.5 768.5Q254 790 318 790Q439 790 495.5 721.5Q552 653 552 525V500H510Q510 635 465 693.5Q420 752 323 752H317Q265 752 225.5 733Q186 714 159 673Q132 632 118.5 567Q105 502 105 410Z" glyph-name="Ccircumflex" horiz-adv-x="607" unicode="&#264;" /><glyph d="M348 865H288V925H348ZM105 370Q105 278 118.5 213Q132 148 158.5 107Q185 66 224.5 47Q264 28 317 28H323Q422 28 466 84.5Q510 141 510 250H552V240Q552 124 495 57Q438 -10 318 -10Q254 -10 206.5 11.5Q159 33 127 79Q95 125 79 197Q63 269 63 370V410Q63 511 79 583Q95 655 127 701Q159 747 206.5 768.5Q254 790 318 790Q439 790 495.5 721.5Q552 653 552 525V500H510Q510 635 465 693.5Q420 752 323 752H317Q265 752 225.5 733Q186 714 159 673Q132 632 118.5 567Q105 502 105 410Z" glyph-name="Cdotaccent" horiz-adv-x="607" unicode="&#266;" /><glyph d="M270 38Q328 38 375 55.5Q422 73 455.5 112Q489 151 507 214.5Q525 278 525 370V410Q525 502 507 565.5Q489 629 455.5 668Q422 707 375 724.5Q328 742 270 742H120V38ZM567 370Q567 269 546 198.5Q525 128 486.5 84Q448 40 394.5 20Q341 0 275 0H80V780H275Q341 780 394.5 760Q448 740 486.5 696Q525 652 546 581.5Q567 511 567 410Z" glyph-name="D" horiz-adv-x="630" unicode="D" /><glyph d="M215 950 285 873 355 950H400L300 840H270L170 950ZM270 38Q328 38 375 55.5Q422 73 455.5 112Q489 151 507 214.5Q525 278 525 370V410Q525 502 507 565.5Q489 629 455.5 668Q422 707 375 724.5Q328 742 270 742H120V38ZM567 370Q567 269 546 198.5Q525 128 486.5 84Q448 40 394.5 20Q341 0 275 0H80V780H275Q341 780 394.5 760Q448 740 486.5 696Q525 652 546 581.5Q567 511 567 410Z" glyph-name="Dcaron" horiz-adv-x="630" unicode="&#270;" /><glyph d="M180 417H410V379H180V38H330Q388 38 435 55.5Q482 73 515.5 112Q549 151 567 214.5Q585 278 585 370V410Q585 502 567 565.5Q549 629 515.5 668Q482 707 435 724.5Q388 742 330 742H180ZM20 417H140V780H335Q401 780 454.5 760Q508 740 546.5 696Q585 652 606 581.5Q627 511 627 410V370Q627 269 606 198.5Q585 128 546.5 84Q508 40 454.5 20Q401 0 335 0H140V379H20Z" glyph-name="Dcroat" horiz-adv-x="690" unicode="&#272;" /><glyph d="M315 865H255V925H315ZM270 38Q328 38 375 55.5Q422 73 455.5 112Q489 151 507 214.5Q525 278 525 370V410Q525 502 507 565.5Q489 629 455.5 668Q422 707 375 724.5Q328 742 270 742H120V38ZM567 370Q567 269 546 198.5Q525 128 486.5 84Q448 40 394.5 20Q341 0 275 0H80V780H275Q341 780 394.5 760Q448 740 486.5 696Q525 652 546 581.5Q567 511 567 410Z" glyph-name="Ddotaccent" horiz-adv-x="630" unicode="&#7690;" /><glyph d="M500 780V742H120V417H450V379H120V38H500V0H80V780Z" glyph-name="E" horiz-adv-x="540" unicode="E" /><glyph d="M383 950 321 840H279L341 950ZM500 780V742H120V417H450V379H120V38H500V0H80V780Z" glyph-name="Eacute" horiz-adv-x="540" unicode="&#201;" /><glyph d="M300 830Q237 830 202.5 863.5Q168 897 168 950H204Q204 912 227.5 887.5Q251 863 300 863Q349 863 372.5 887.5Q396 912 396 950H432Q432 897 397.5 863.5Q363 830 300 830ZM500 780V742H120V417H450V379H120V38H500V0H80V780Z" glyph-name="Ebreve" horiz-adv-x="540" unicode="&#276;" /><glyph d="M230 950 300 873 370 950H415L315 840H285L185 950ZM500 780V742H120V417H450V379H120V38H500V0H80V780Z" glyph-name="Ecaron" horiz-adv-x="540" unicode="&#282;" /><glyph d="M185 840 285 950H315L415 840H370L300 917L230 840ZM500 780V742H120V417H450V379H120V38H500V0H80V780Z" glyph-name="Ecircumflex" horiz-adv-x="540" unicode="&#202;" /><glyph d="M255 865H195V925H255ZM405 865H345V925H405ZM500 780V742H120V417H450V379H120V38H500V0H80V780Z" glyph-name="Edieresis" horiz-adv-x="540" unicode="&#203;" /><glyph d="M330 865H270V925H330ZM500 780V742H120V417H450V379H120V38H500V0H80V780Z" glyph-name="Edotaccent" horiz-adv-x="540" unicode="&#278;" /><glyph d="M259 950 321 840H279L217 950ZM500 780V742H120V417H450V379H120V38H500V0H80V780Z" glyph-name="Egrave" horiz-adv-x="540" unicode="&#200;" /><glyph d="M200 915H400V875H200ZM500 780V742H120V417H450V379H120V38H500V0H80V780Z" glyph-name="Emacron" horiz-adv-x="540" unicode="&#274;" /><glyph d="M530 -9 115 720 118 530V0H80V780H125L535 60L532 250V780H570V-65Q570 -104 559.5 -132Q549 -160 530 -177Q511 -194 485.5 -202Q460 -210 430 -210Q400 -210 382.5 -206Q365 -202 360 -200V-163Q367 -166 384.5 -169Q402 -172 420 -172Q447 -172 468 -167Q489 -162 502.5 -149.5Q516 -137 523 -115.5Q530 -94 530 -60Z" glyph-name="Eng" horiz-adv-x="650" unicode="&#330;" /><glyph d="M406 -117Q406 -146 426 -161.5Q446 -177 480 -177Q496 -177 512 -173.5Q528 -170 541 -163L553 -191Q537 -201 516 -205.5Q495 -210 477 -210Q429 -210 401 -187.5Q373 -165 373 -117Q373 -77 391.5 -48.5Q410 -20 439 0H80V780H500V742H120V417H450V379H120V38H500V0Q483 -8 466 -18.5Q449 -29 435.5 -43Q422 -57 414 -75.5Q406 -94 406 -117Z" glyph-name="Eogonek" horiz-adv-x="540" unicode="&#280;" /><glyph d="M475 728Q448 741 415 746.5Q382 752 345 752Q296 752 254 742Q212 732 181 707.5Q150 683 132.5 641Q115 599 115 535V0H75V540Q75 613 96 661Q117 709 153.5 737.5Q190 766 239.5 778Q289 790 345 790Q395 790 439 781Q483 772 518 750V721L355 437L466 423Q586 408 643 352Q700 296 700 214V204Q700 154 684 114Q668 74 638.5 46.5Q609 19 567.5 4.5Q526 -10 475 -10Q363 -10 306.5 54Q250 118 250 240V250H290Q290 190 303.5 147.5Q317 105 341 78.5Q365 52 398.5 40Q432 28 472 28H478Q559 28 608.5 72Q658 116 658 199V209Q658 288 603.5 331Q549 374 447 387L307 405V434Z" glyph-name="Eszett" horiz-adv-x="740" unicode="&#7838;" /><glyph d="M180 417H410V379H180V38H330Q388 38 435 55.5Q482 73 515.5 112Q549 151 567 214.5Q585 278 585 370V410Q585 502 567 565.5Q549 629 515.5 668Q482 707 435 724.5Q388 742 330 742H180ZM20 417H140V780H335Q401 780 454.5 760Q508 740 546.5 696Q585 652 606 581.5Q627 511 627 410V370Q627 269 606 198.5Q585 128 546.5 84Q508 40 454.5 20Q401 0 335 0H140V379H20Z" glyph-name="Eth" horiz-adv-x="690" unicode="&#208;" /><glyph d="M35 480H112Q122 644 180.5 717Q239 790 345 790Q401 790 440 772.5Q479 755 503.5 721Q528 687 539 638Q550 589 550 525V500H510Q510 635 473 693.5Q436 752 350 752H344Q264 752 213.5 688.5Q163 625 153 480H440L421 440H151V340H390L371 300H153Q158 227 173.5 175.5Q189 124 213.5 91Q238 58 271 43Q304 28 344 28H350Q429 28 469.5 84.5Q510 141 510 250H550V240Q550 182 538.5 135.5Q527 89 502 57Q477 25 438 7.5Q399 -10 345 -10Q239 -10 180.5 63Q122 136 112 300H35V340H110V440H35Z" glyph-name="Euro" horiz-adv-x="600" unicode="&#8364;" /><glyph d="M480 780V742H120V417H430V379H120V0H80V780Z" glyph-name="F" horiz-adv-x="500" unicode="F" /><glyph d="M330 865H270V925H330ZM480 780V742H120V417H430V379H120V0H80V780Z" glyph-name="Fdotaccent" horiz-adv-x="500" unicode="&#7710;" /><glyph d="M338 -10Q270 -10 219 11.5Q168 33 133 79Q98 125 80.5 197Q63 269 63 370V410Q63 511 80.5 583Q98 655 131.5 701Q165 747 214.5 768.5Q264 790 328 790Q449 790 506 721.5Q563 653 563 525V500H521Q521 635 475.5 693.5Q430 752 333 752H327Q274 752 233 733Q192 714 163.5 673Q135 632 120 567Q105 502 105 410V370Q105 278 119.5 213Q134 148 163 107Q192 66 235.5 47Q279 28 337 28H343Q411 28 456 50.5Q501 73 523 99V333H378V371H563V79Q549 63 529 47Q509 31 481.5 18.5Q454 6 418.5 -2Q383 -10 338 -10Z" glyph-name="G" horiz-adv-x="638" unicode="G" /><glyph d="M328 830Q265 830 230.5 863.5Q196 897 196 950H232Q232 912 255.5 887.5Q279 863 328 863Q377 863 400.5 887.5Q424 912 424 950H460Q460 897 425.5 863.5Q391 830 328 830ZM338 -10Q270 -10 219 11.5Q168 33 133 79Q98 125 80.5 197Q63 269 63 370V410Q63 511 80.5 583Q98 655 131.5 701Q165 747 214.5 768.5Q264 790 328 790Q449 790 506 721.5Q563 653 563 525V500H521Q521 635 475.5 693.5Q430 752 333 752H327Q274 752 233 733Q192 714 163.5 673Q135 632 120 567Q105 502 105 410V370Q105 278 119.5 213Q134 148 163 107Q192 66 235.5 47Q279 28 337 28H343Q411 28 456 50.5Q501 73 523 99V333H378V371H563V79Q549 63 529 47Q509 31 481.5 18.5Q454 6 418.5 -2Q383 -10 338 -10Z" glyph-name="Gbreve" horiz-adv-x="638" unicode="&#286;" /><glyph d="M213 840 313 950H343L443 840H398L328 917L258 840ZM338 -10Q270 -10 219 11.5Q168 33 133 79Q98 125 80.5 197Q63 269 63 370V410Q63 511 80.5 583Q98 655 131.5 701Q165 747 214.5 768.5Q264 790 328 790Q449 790 506 721.5Q563 653 563 525V500H521Q521 635 475.5 693.5Q430 752 333 752H327Q274 752 233 733Q192 714 163.5 673Q135 632 120 567Q105 502 105 410V370Q105 278 119.5 213Q134 148 163 107Q192 66 235.5 47Q279 28 337 28H343Q411 28 456 50.5Q501 73 523 99V333H378V371H563V79Q549 63 529 47Q509 31 481.5 18.5Q454 6 418.5 -2Q383 -10 338 -10Z" glyph-name="Gcircumflex" horiz-adv-x="638" unicode="&#284;" /><glyph d="M368 -108Q368 -155 344 -182.5Q320 -210 278 -210V-180Q302 -180 319 -166Q336 -152 338 -120H308V-60H368ZM338 -10Q270 -10 219 11.5Q168 33 133 79Q98 125 80.5 197Q63 269 63 370V410Q63 511 80.5 583Q98 655 131.5 701Q165 747 214.5 768.5Q264 790 328 790Q449 790 506 721.5Q563 653 563 525V500H521Q521 635 475.5 693.5Q430 752 333 752H327Q274 752 233 733Q192 714 163.5 673Q135 632 120 567Q105 502 105 410V370Q105 278 119.5 213Q134 148 163 107Q192 66 235.5 47Q279 28 337 28H343Q411 28 456 50.5Q501 73 523 99V333H378V371H563V79Q549 63 529 47Q509 31 481.5 18.5Q454 6 418.5 -2Q383 -10 338 -10Z" glyph-name="Gcommaaccent" horiz-adv-x="638" unicode="&#290;" /><glyph d="M358 865H298V925H358ZM338 -10Q270 -10 219 11.5Q168 33 133 79Q98 125 80.5 197Q63 269 63 370V410Q63 511 80.5 583Q98 655 131.5 701Q165 747 214.5 768.5Q264 790 328 790Q449 790 506 721.5Q563 653 563 525V500H521Q521 635 475.5 693.5Q430 752 333 752H327Q274 752 233 733Q192 714 163.5 673Q135 632 120 567Q105 502 105 410V370Q105 278 119.5 213Q134 148 163 107Q192 66 235.5 47Q279 28 337 28H343Q411 28 456 50.5Q501 73 523 99V333H378V371H563V79Q549 63 529 47Q509 31 481.5 18.5Q454 6 418.5 -2Q383 -10 338 -10Z" glyph-name="Gdotaccent" horiz-adv-x="638" unicode="&#288;" /><glyph d="M550 780V0H510V379H120V0H80V780H120V417H510V780Z" glyph-name="H" horiz-adv-x="630" unicode="H" /><glyph d="M510 417V581H120V417ZM550 780V0H510V379H120V0H80V780H120V619H510V780Z" glyph-name="Hbar" horiz-adv-x="630" unicode="&#294;" /><glyph d="M200 840 300 950H330L430 840H385L315 917L245 840ZM550 780V0H510V379H120V0H80V780H120V417H510V780Z" glyph-name="Hcircumflex" horiz-adv-x="630" unicode="&#292;" /><glyph d="M125 0H85V780H125Z" glyph-name="I" horiz-adv-x="210" unicode="I" /><glyph d="M125 0H85V780H125ZM345 780H385V145Q385 104 375 74.5Q365 45 348 26Q331 7 307 -1.5Q283 -10 255 -10Q225 -10 207.5 -5.5Q190 -1 185 2V39Q193 35 211 31.5Q229 28 245 28Q298 28 321.5 55Q345 82 345 150Z" glyph-name="IJ" horiz-adv-x="460" unicode="&#306;" /><glyph d="M188 950 126 840H84L146 950ZM125 0H85V780H125Z" glyph-name="Iacute" horiz-adv-x="210" unicode="&#205;" /><glyph d="M105 830Q42 830 7.5 863.5Q-27 897 -27 950H9Q9 912 32.5 887.5Q56 863 105 863Q154 863 177.5 887.5Q201 912 201 950H237Q237 897 202.5 863.5Q168 830 105 830ZM125 0H85V780H125Z" glyph-name="Ibreve" horiz-adv-x="210" unicode="&#300;" /><glyph d="M-10 840 90 950H120L220 840H175L105 917L35 840ZM125 0H85V780H125Z" glyph-name="Icircumflex" horiz-adv-x="210" unicode="&#206;" /><glyph d="M60 865H0V925H60ZM210 865H150V925H210ZM125 0H85V780H125Z" glyph-name="Idieresis" horiz-adv-x="210" unicode="&#207;" /><glyph d="M135 865H75V925H135ZM125 0H85V780H125Z" glyph-name="Idotaccent" horiz-adv-x="210" unicode="&#304;" /><glyph d="M64 950 126 840H84L22 950ZM125 0H85V780H125Z" glyph-name="Igrave" horiz-adv-x="210" unicode="&#204;" /><glyph d="M5 915H205V875H5ZM125 0H85V780H125Z" glyph-name="Imacron" horiz-adv-x="210" unicode="&#298;" /><glyph d="M31 -117Q31 -146 51 -161.5Q71 -177 105 -177Q121 -177 137 -173.5Q153 -170 166 -163L178 -191Q162 -201 141 -205.5Q120 -210 102 -210Q54 -210 26 -187.5Q-2 -165 -2 -117Q-2 -69 23.5 -38Q49 -7 85 13V780H125V0Q108 -8 91 -18.5Q74 -29 60.5 -43Q47 -57 39 -75.5Q31 -94 31 -117Z" glyph-name="Iogonek" horiz-adv-x="210" unicode="&#302;" /><glyph d="M245 932Q245 889 225 868.5Q205 848 173 848Q151 848 133 857.5Q115 867 99.5 878.5Q84 890 69.5 899.5Q55 909 40 909Q1 909 1 858H-35Q-35 901 -15 921.5Q5 942 37 942Q59 942 76.5 932.5Q94 923 110 911.5Q126 900 140.5 890.5Q155 881 170 881Q209 881 209 932ZM125 0H85V780H125Z" glyph-name="Itilde" horiz-adv-x="210" unicode="&#296;" /><glyph d="M405 780V240Q405 182 395.5 135.5Q386 89 363.5 57Q341 25 305 7.5Q269 -10 217 -10Q164 -10 128.5 7Q93 24 71.5 56Q50 88 40.5 134.5Q31 181 31 240V250H69Q69 133 103.5 80.5Q138 28 217 28Q296 28 330.5 80.5Q365 133 365 250V780Z" glyph-name="J" horiz-adv-x="480" unicode="J" /><glyph d="M270 840 370 950H400L500 840H455L385 917L315 840ZM405 780V240Q405 182 395.5 135.5Q386 89 363.5 57Q341 25 305 7.5Q269 -10 217 -10Q164 -10 128.5 7Q93 24 71.5 56Q50 88 40.5 134.5Q31 181 31 240V250H69Q69 133 103.5 80.5Q138 28 217 28Q296 28 330.5 80.5Q365 133 365 250V780Z" glyph-name="Jcircumflex" horiz-adv-x="480" unicode="&#308;" /><glyph d="M120 307 451 780H500L262 446L500 0H453L237 410L120 245V0H80V780H120Z" glyph-name="K" horiz-adv-x="540" unicode="K" /><glyph d="M295 -108Q295 -155 271 -182.5Q247 -210 205 -210V-180Q229 -180 246 -166Q263 -152 265 -120H235V-60H295ZM120 307 451 780H500L262 446L500 0H453L237 410L120 245V0H80V780H120Z" glyph-name="Kcommaaccent" horiz-adv-x="540" unicode="&#310;" /><glyph d="M80 0V780H120V38H465V0Z" glyph-name="L" horiz-adv-x="480" unicode="L" /><glyph d="M183 950 121 840H79L141 950ZM80 0V780H120V38H465V0Z" glyph-name="Lacute" horiz-adv-x="480" unicode="&#313;" /><glyph d="M323 800 308 620H278V800ZM80 0V780H120V38H465V0Z" glyph-name="Lcaron" horiz-adv-x="480" unicode="&#317;" /><glyph d="M305 -108Q305 -155 281 -182.5Q257 -210 215 -210V-180Q239 -180 256 -166Q273 -152 275 -120H245V-60H305ZM80 0V780H120V38H465V0Z" glyph-name="Lcommaaccent" horiz-adv-x="480" unicode="&#315;" /><glyph d="M362 368H302V428H362ZM80 0V780H120V38H465V0Z" glyph-name="Ldot" horiz-adv-x="480" unicode="&#319;" /><glyph d="M20 335 140 398V780H180V419L410 540V498L180 377V38H525V0H140V356L20 293Z" glyph-name="Lslash" horiz-adv-x="540" unicode="&#321;" /><glyph d="M405 0H375L117 710L120 530V0H80V780H132L390 68L648 780H700V0H660V530L663 710Z" glyph-name="M" horiz-adv-x="780" unicode="M" /><glyph d="M420 865H360V925H420ZM405 0H375L117 710L120 530V0H80V780H132L390 68L648 780H700V0H660V530L663 710Z" glyph-name="Mdotaccent" horiz-adv-x="780" unicode="&#7744;" /><glyph d="M570 0H525L115 720L118 530V0H80V780H125L535 60L532 250V780H570Z" glyph-name="N" horiz-adv-x="650" unicode="N" /><glyph d="M408 950 346 840H304L366 950ZM570 0H525L115 720L118 530V0H80V780H125L535 60L532 250V780H570Z" glyph-name="Nacute" horiz-adv-x="650" unicode="&#323;" /><glyph d="M255 950 325 873 395 950H440L340 840H310L210 950ZM570 0H525L115 720L118 530V0H80V780H125L535 60L532 250V780H570Z" glyph-name="Ncaron" horiz-adv-x="650" unicode="&#327;" /><glyph d="M355 -108Q355 -155 331 -182.5Q307 -210 265 -210V-180Q289 -180 306 -166Q323 -152 325 -120H295V-60H355ZM570 0H525L115 720L118 530V0H80V780H125L535 60L532 250V780H570Z" glyph-name="Ncommaaccent" horiz-adv-x="650" unicode="&#325;" /><glyph d="M465 932Q465 889 445 868.5Q425 848 393 848Q371 848 353 857.5Q335 867 319.5 878.5Q304 890 289.5 899.5Q275 909 260 909Q221 909 221 858H185Q185 901 205 921.5Q225 942 257 942Q279 942 296.5 932.5Q314 923 330 911.5Q346 900 360.5 890.5Q375 881 390 881Q429 881 429 932ZM570 0H525L115 720L118 530V0H80V780H125L535 60L532 250V780H570Z" glyph-name="Ntilde" horiz-adv-x="650" unicode="&#209;" /><glyph d="M323 28Q376 28 416 47Q456 66 482.5 107Q509 148 522 213Q535 278 535 370V410Q535 502 522 567Q509 632 482.5 673Q456 714 416 733Q376 752 323 752H317Q264 752 224 733Q184 714 157.5 673Q131 632 118 567Q105 502 105 410V370Q105 278 118 213Q131 148 157.5 107Q184 66 224 47Q264 28 317 28ZM320 -10Q256 -10 208 11.5Q160 33 127.5 79Q95 125 79 197Q63 269 63 370V410Q63 511 79 583Q95 655 127.5 701Q160 747 208 768.5Q256 790 320 790Q384 790 432 768.5Q480 747 512 701Q544 655 560.5 583Q577 511 577 410V370Q577 269 560.5 197Q544 125 512 79Q480 33 432 11.5Q384 -10 320 -10Z" glyph-name="O" horiz-adv-x="640" unicode="O" /><glyph d="M480 742H360Q302 742 255 724.5Q208 707 174.5 668Q141 629 123 565.5Q105 502 105 410V370Q105 278 123 214.5Q141 151 174.5 112Q208 73 255 55.5Q302 38 360 38H480ZM63 410Q63 511 84 581.5Q105 652 143.5 696Q182 740 235.5 760Q289 780 355 780H900V742H520V417H850V379H520V38H900V0H355Q289 0 235.5 20Q182 40 143.5 84Q105 128 84 198.5Q63 269 63 370Z" glyph-name="OE" horiz-adv-x="940" unicode="&#338;" /><glyph d="M403 950 341 840H299L361 950ZM323 28Q376 28 416 47Q456 66 482.5 107Q509 148 522 213Q535 278 535 370V410Q535 502 522 567Q509 632 482.5 673Q456 714 416 733Q376 752 323 752H317Q264 752 224 733Q184 714 157.5 673Q131 632 118 567Q105 502 105 410V370Q105 278 118 213Q131 148 157.5 107Q184 66 224 47Q264 28 317 28ZM320 -10Q256 -10 208 11.5Q160 33 127.5 79Q95 125 79 197Q63 269 63 370V410Q63 511 79 583Q95 655 127.5 701Q160 747 208 768.5Q256 790 320 790Q384 790 432 768.5Q480 747 512 701Q544 655 560.5 583Q577 511 577 410V370Q577 269 560.5 197Q544 125 512 79Q480 33 432 11.5Q384 -10 320 -10Z" glyph-name="Oacute" horiz-adv-x="640" unicode="&#211;" /><glyph d="M320 830Q257 830 222.5 863.5Q188 897 188 950H224Q224 912 247.5 887.5Q271 863 320 863Q369 863 392.5 887.5Q416 912 416 950H452Q452 897 417.5 863.5Q383 830 320 830ZM323 28Q376 28 416 47Q456 66 482.5 107Q509 148 522 213Q535 278 535 370V410Q535 502 522 567Q509 632 482.5 673Q456 714 416 733Q376 752 323 752H317Q264 752 224 733Q184 714 157.5 673Q131 632 118 567Q105 502 105 410V370Q105 278 118 213Q131 148 157.5 107Q184 66 224 47Q264 28 317 28ZM320 -10Q256 -10 208 11.5Q160 33 127.5 79Q95 125 79 197Q63 269 63 370V410Q63 511 79 583Q95 655 127.5 701Q160 747 208 768.5Q256 790 320 790Q384 790 432 768.5Q480 747 512 701Q544 655 560.5 583Q577 511 577 410V370Q577 269 560.5 197Q544 125 512 79Q480 33 432 11.5Q384 -10 320 -10Z" glyph-name="Obreve" horiz-adv-x="640" unicode="&#334;" /><glyph d="M205 840 305 950H335L435 840H390L320 917L250 840ZM323 28Q376 28 416 47Q456 66 482.5 107Q509 148 522 213Q535 278 535 370V410Q535 502 522 567Q509 632 482.5 673Q456 714 416 733Q376 752 323 752H317Q264 752 224 733Q184 714 157.5 673Q131 632 118 567Q105 502 105 410V370Q105 278 118 213Q131 148 157.5 107Q184 66 224 47Q264 28 317 28ZM320 -10Q256 -10 208 11.5Q160 33 127.5 79Q95 125 79 197Q63 269 63 370V410Q63 511 79 583Q95 655 127.5 701Q160 747 208 768.5Q256 790 320 790Q384 790 432 768.5Q480 747 512 701Q544 655 560.5 583Q577 511 577 410V370Q577 269 560.5 197Q544 125 512 79Q480 33 432 11.5Q384 -10 320 -10Z" glyph-name="Ocircumflex" horiz-adv-x="640" unicode="&#212;" /><glyph d="M425 865H365V925H425ZM275 865H215V925H275ZM323 28Q376 28 416 47Q456 66 482.5 107Q509 148 522 213Q535 278 535 370V410Q535 502 522 567Q509 632 482.5 673Q456 714 416 733Q376 752 323 752H317Q264 752 224 733Q184 714 157.5 673Q131 632 118 567Q105 502 105 410V370Q105 278 118 213Q131 148 157.5 107Q184 66 224 47Q264 28 317 28ZM320 -10Q256 -10 208 11.5Q160 33 127.5 79Q95 125 79 197Q63 269 63 370V410Q63 511 79 583Q95 655 127.5 701Q160 747 208 768.5Q256 790 320 790Q384 790 432 768.5Q480 747 512 701Q544 655 560.5 583Q577 511 577 410V370Q577 269 560.5 197Q544 125 512 79Q480 33 432 11.5Q384 -10 320 -10Z" glyph-name="Odieresis" horiz-adv-x="640" unicode="&#214;" /><glyph d="M279 950 341 840H299L237 950ZM323 28Q376 28 416 47Q456 66 482.5 107Q509 148 522 213Q535 278 535 370V410Q535 502 522 567Q509 632 482.5 673Q456 714 416 733Q376 752 323 752H317Q264 752 224 733Q184 714 157.5 673Q131 632 118 567Q105 502 105 410V370Q105 278 118 213Q131 148 157.5 107Q184 66 224 47Q264 28 317 28ZM320 -10Q256 -10 208 11.5Q160 33 127.5 79Q95 125 79 197Q63 269 63 370V410Q63 511 79 583Q95 655 127.5 701Q160 747 208 768.5Q256 790 320 790Q384 790 432 768.5Q480 747 512 701Q544 655 560.5 583Q577 511 577 410V370Q577 269 560.5 197Q544 125 512 79Q480 33 432 11.5Q384 -10 320 -10Z" glyph-name="Ograve" horiz-adv-x="640" unicode="&#210;" /><glyph d="M458 950 396 840H354L416 950ZM348 950 286 840H244L306 950ZM323 28Q376 28 416 47Q456 66 482.5 107Q509 148 522 213Q535 278 535 370V410Q535 502 522 567Q509 632 482.5 673Q456 714 416 733Q376 752 323 752H317Q264 752 224 733Q184 714 157.5 673Q131 632 118 567Q105 502 105 410V370Q105 278 118 213Q131 148 157.5 107Q184 66 224 47Q264 28 317 28ZM320 -10Q256 -10 208 11.5Q160 33 127.5 79Q95 125 79 197Q63 269 63 370V410Q63 511 79 583Q95 655 127.5 701Q160 747 208 768.5Q256 790 320 790Q384 790 432 768.5Q480 747 512 701Q544 655 560.5 583Q577 511 577 410V370Q577 269 560.5 197Q544 125 512 79Q480 33 432 11.5Q384 -10 320 -10Z" glyph-name="Ohungarumlaut" horiz-adv-x="640" unicode="&#336;" /><glyph d="M220 915H420V875H220ZM323 28Q376 28 416 47Q456 66 482.5 107Q509 148 522 213Q535 278 535 370V410Q535 502 522 567Q509 632 482.5 673Q456 714 416 733Q376 752 323 752H317Q264 752 224 733Q184 714 157.5 673Q131 632 118 567Q105 502 105 410V370Q105 278 118 213Q131 148 157.5 107Q184 66 224 47Q264 28 317 28ZM320 -10Q256 -10 208 11.5Q160 33 127.5 79Q95 125 79 197Q63 269 63 370V410Q63 511 79 583Q95 655 127.5 701Q160 747 208 768.5Q256 790 320 790Q384 790 432 768.5Q480 747 512 701Q544 655 560.5 583Q577 511 577 410V370Q577 269 560.5 197Q544 125 512 79Q480 33 432 11.5Q384 -10 320 -10Z" glyph-name="Omacron" horiz-adv-x="640" unicode="&#332;" /><glyph d="M105 370Q105 218 141 137L471 688Q420 752 323 752H317Q264 752 224 733Q184 714 157.5 673Q131 632 118 567Q105 502 105 410ZM535 410Q535 491 524.5 550.5Q514 610 494 652L163 99Q189 62 227.5 45Q266 28 317 28H323Q376 28 416 47Q456 66 482.5 107Q509 148 522 213Q535 278 535 370ZM63 410Q63 511 79 583Q95 655 127.5 701Q160 747 208 768.5Q256 790 320 790Q431 790 493 725L526 780H570L518 693Q547 646 562 576.5Q577 507 577 410V370Q577 269 560.5 197Q544 125 512 79Q480 33 432 11.5Q384 -10 320 -10Q262 -10 217.5 7Q173 24 141 62L104 0H60L117 95Q63 188 63 370Z" glyph-name="Oslash" horiz-adv-x="626" unicode="&#216;" /><glyph d="M460 932Q460 889 440 868.5Q420 848 388 848Q366 848 348 857.5Q330 867 314.5 878.5Q299 890 284.5 899.5Q270 909 255 909Q216 909 216 858H180Q180 901 200 921.5Q220 942 252 942Q274 942 291.5 932.5Q309 923 325 911.5Q341 900 355.5 890.5Q370 881 385 881Q424 881 424 932ZM323 28Q376 28 416 47Q456 66 482.5 107Q509 148 522 213Q535 278 535 370V410Q535 502 522 567Q509 632 482.5 673Q456 714 416 733Q376 752 323 752H317Q264 752 224 733Q184 714 157.5 673Q131 632 118 567Q105 502 105 410V370Q105 278 118 213Q131 148 157.5 107Q184 66 224 47Q264 28 317 28ZM320 -10Q256 -10 208 11.5Q160 33 127.5 79Q95 125 79 197Q63 269 63 370V410Q63 511 79 583Q95 655 127.5 701Q160 747 208 768.5Q256 790 320 790Q384 790 432 768.5Q480 747 512 701Q544 655 560.5 583Q577 511 577 410V370Q577 269 560.5 197Q544 125 512 79Q480 33 432 11.5Q384 -10 320 -10Z" glyph-name="Otilde" horiz-adv-x="640" unicode="&#213;" /><glyph d="M282 368Q310 368 343 374.5Q376 381 403.5 400.5Q431 420 449.5 455Q468 490 468 547V563Q468 620 449.5 655Q431 690 403.5 709.5Q376 729 343 735.5Q310 742 282 742H120V368ZM120 0H80V780H282Q322 780 362.5 770.5Q403 761 436 736.5Q469 712 489.5 670.5Q510 629 510 565V545Q510 481 489.5 439.5Q469 398 436 373.5Q403 349 362.5 339.5Q322 330 282 330H120Z" glyph-name="P" horiz-adv-x="560" unicode="P" /><glyph d="M315 865H255V925H315ZM282 368Q310 368 343 374.5Q376 381 403.5 400.5Q431 420 449.5 455Q468 490 468 547V563Q468 620 449.5 655Q431 690 403.5 709.5Q376 729 343 735.5Q310 742 282 742H120V368ZM120 0H80V780H282Q322 780 362.5 770.5Q403 761 436 736.5Q469 712 489.5 670.5Q510 629 510 565V545Q510 481 489.5 439.5Q469 398 436 373.5Q403 349 362.5 339.5Q322 330 282 330H120Z" glyph-name="Pdotaccent" horiz-adv-x="560" unicode="&#7766;" /><glyph d="M405 42Q470 68 502.5 147Q535 226 535 370V410Q535 502 522 567Q509 632 482.5 673Q456 714 416 733Q376 752 323 752H317Q264 752 224 733Q184 714 157.5 673Q131 632 118 567Q105 502 105 410V370Q105 278 118 213Q131 148 157.5 107Q184 66 224 47Q264 28 317 28H323Q346 28 366 31L300 213H340ZM320 -10Q256 -10 208 11.5Q160 33 127.5 79Q95 125 79 197Q63 269 63 370V410Q63 511 79 583Q95 655 127.5 701Q160 747 208 768.5Q256 790 320 790Q384 790 432 768.5Q480 747 512 701Q544 655 560.5 583Q577 511 577 410V370Q577 211 537.5 123.5Q498 36 419 6L460 -100H415L380 -4Q351 -10 320 -10Z" glyph-name="Q" horiz-adv-x="640" unicode="Q" /><glyph d="M282 368Q310 368 343 374.5Q376 381 403.5 400.5Q431 420 449.5 455Q468 490 468 547V563Q468 620 449.5 655Q431 690 403.5 709.5Q376 729 343 735.5Q310 742 282 742H120V368ZM120 0H80V780H282Q322 780 362.5 770.5Q403 761 436 736.5Q469 712 489.5 670.5Q510 629 510 565V545Q510 499 499 464.5Q488 430 469 406Q450 382 424.5 366.5Q399 351 371 342L510 0H465L333 334Q310 330 282 330H120Z" glyph-name="R" horiz-adv-x="570" unicode="R" /><glyph d="M348 950 286 840H244L306 950ZM282 368Q310 368 343 374.5Q376 381 403.5 400.5Q431 420 449.5 455Q468 490 468 547V563Q468 620 449.5 655Q431 690 403.5 709.5Q376 729 343 735.5Q310 742 282 742H120V368ZM120 0H80V780H282Q322 780 362.5 770.5Q403 761 436 736.5Q469 712 489.5 670.5Q510 629 510 565V545Q510 499 499 464.5Q488 430 469 406Q450 382 424.5 366.5Q399 351 371 342L510 0H465L333 334Q310 330 282 330H120Z" glyph-name="Racute" horiz-adv-x="570" unicode="&#340;" /><glyph d="M195 950 265 873 335 950H380L280 840H250L150 950ZM282 368Q310 368 343 374.5Q376 381 403.5 400.5Q431 420 449.5 455Q468 490 468 547V563Q468 620 449.5 655Q431 690 403.5 709.5Q376 729 343 735.5Q310 742 282 742H120V368ZM120 0H80V780H282Q322 780 362.5 770.5Q403 761 436 736.5Q469 712 489.5 670.5Q510 629 510 565V545Q510 499 499 464.5Q488 430 469 406Q450 382 424.5 366.5Q399 351 371 342L510 0H465L333 334Q310 330 282 330H120Z" glyph-name="Rcaron" horiz-adv-x="570" unicode="&#344;" /><glyph d="M305 -108Q305 -155 281 -182.5Q257 -210 215 -210V-180Q239 -180 256 -166Q273 -152 275 -120H245V-60H305ZM282 368Q310 368 343 374.5Q376 381 403.5 400.5Q431 420 449.5 455Q468 490 468 547V563Q468 620 449.5 655Q431 690 403.5 709.5Q376 729 343 735.5Q310 742 282 742H120V368ZM120 0H80V780H282Q322 780 362.5 770.5Q403 761 436 736.5Q469 712 489.5 670.5Q510 629 510 565V545Q510 499 499 464.5Q488 430 469 406Q450 382 424.5 366.5Q399 351 371 342L510 0H465L333 334Q310 330 282 330H120Z" glyph-name="Rcommaaccent" horiz-adv-x="570" unicode="&#342;" /><glyph d="M287 385Q223 394 179.5 413Q136 432 109.5 458Q83 484 71.5 515.5Q60 547 60 580V590Q60 637 77.5 674Q95 711 126 737Q157 763 200.5 776.5Q244 790 295 790Q358 790 402.5 773.5Q447 757 475.5 725.5Q504 694 517 648.5Q530 603 530 545V520H490Q490 643 444 697.5Q398 752 298 752H292Q252 752 217.5 741.5Q183 731 157.5 711.5Q132 692 117 664Q102 636 102 600V590Q102 555 112.5 527.5Q123 500 147 479Q171 458 210 443.5Q249 429 306 421Q370 412 414.5 394Q459 376 487 350Q515 324 527.5 289.5Q540 255 540 214V204Q540 154 522 114Q504 74 472 46.5Q440 19 395 4.5Q350 -10 295 -10Q235 -10 189.5 7.5Q144 25 113 58Q82 91 66 137Q50 183 50 240V250H90Q90 193 105 151.5Q120 110 147 82.5Q174 55 211 41.5Q248 28 292 28H298Q342 28 378.5 39Q415 50 441.5 72Q468 94 483 126Q498 158 498 199V209Q498 288 447 329Q396 370 287 385Z" glyph-name="S" horiz-adv-x="590" unicode="S" /><glyph d="M378 950 316 840H274L336 950ZM287 385Q223 394 179.5 413Q136 432 109.5 458Q83 484 71.5 515.5Q60 547 60 580V590Q60 637 77.5 674Q95 711 126 737Q157 763 200.5 776.5Q244 790 295 790Q358 790 402.5 773.5Q447 757 475.5 725.5Q504 694 517 648.5Q530 603 530 545V520H490Q490 643 444 697.5Q398 752 298 752H292Q252 752 217.5 741.5Q183 731 157.5 711.5Q132 692 117 664Q102 636 102 600V590Q102 555 112.5 527.5Q123 500 147 479Q171 458 210 443.5Q249 429 306 421Q370 412 414.5 394Q459 376 487 350Q515 324 527.5 289.5Q540 255 540 214V204Q540 154 522 114Q504 74 472 46.5Q440 19 395 4.5Q350 -10 295 -10Q235 -10 189.5 7.5Q144 25 113 58Q82 91 66 137Q50 183 50 240V250H90Q90 193 105 151.5Q120 110 147 82.5Q174 55 211 41.5Q248 28 292 28H298Q342 28 378.5 39Q415 50 441.5 72Q468 94 483 126Q498 158 498 199V209Q498 288 447 329Q396 370 287 385Z" glyph-name="Sacute" horiz-adv-x="590" unicode="&#346;" /><glyph d="M225 950 295 873 365 950H410L310 840H280L180 950ZM287 385Q223 394 179.5 413Q136 432 109.5 458Q83 484 71.5 515.5Q60 547 60 580V590Q60 637 77.5 674Q95 711 126 737Q157 763 200.5 776.5Q244 790 295 790Q358 790 402.5 773.5Q447 757 475.5 725.5Q504 694 517 648.5Q530 603 530 545V520H490Q490 643 444 697.5Q398 752 298 752H292Q252 752 217.5 741.5Q183 731 157.5 711.5Q132 692 117 664Q102 636 102 600V590Q102 555 112.5 527.5Q123 500 147 479Q171 458 210 443.5Q249 429 306 421Q370 412 414.5 394Q459 376 487 350Q515 324 527.5 289.5Q540 255 540 214V204Q540 154 522 114Q504 74 472 46.5Q440 19 395 4.5Q350 -10 295 -10Q235 -10 189.5 7.5Q144 25 113 58Q82 91 66 137Q50 183 50 240V250H90Q90 193 105 151.5Q120 110 147 82.5Q174 55 211 41.5Q248 28 292 28H298Q342 28 378.5 39Q415 50 441.5 72Q468 94 483 126Q498 158 498 199V209Q498 288 447 329Q396 370 287 385Z" glyph-name="Scaron" horiz-adv-x="590" unicode="&#352;" /><glyph d="M217 -158Q230 -166 248.5 -171.5Q267 -177 287 -177Q322 -177 339 -168Q356 -159 356 -136Q356 -114 337.5 -105.5Q319 -97 291 -97Q286 -97 281.5 -97.5Q277 -98 273 -98Q269 -99 265 -99L248 -83L275 -9Q220 -6 178 12.5Q136 31 107.5 63.5Q79 96 64.5 140.5Q50 185 50 240V250H90Q90 193 105 151.5Q120 110 147 82.5Q174 55 211 41.5Q248 28 292 28H298Q342 28 378.5 39Q415 50 441.5 72Q468 94 483 126Q498 158 498 199V209Q498 288 447 329Q396 370 287 385Q223 394 179.5 413Q136 432 109.5 458Q83 484 71.5 515.5Q60 547 60 580V590Q60 637 77.5 674Q95 711 126 737Q157 763 200.5 776.5Q244 790 295 790Q358 790 402.5 773.5Q447 757 475.5 725.5Q504 694 517 648.5Q530 603 530 545V520H490Q490 643 444 697.5Q398 752 298 752H292Q252 752 217.5 741.5Q183 731 157.5 711.5Q132 692 117 664Q102 636 102 600V590Q102 555 112.5 527.5Q123 500 147 479Q171 458 210 443.5Q249 429 306 421Q370 412 414.5 394Q459 376 487 350Q515 324 527.5 289.5Q540 255 540 214V204Q540 156 523.5 117.5Q507 79 477 51.5Q447 24 404.5 8.5Q362 -7 311 -9L291 -64H296Q312 -64 328.5 -67.5Q345 -71 358.5 -79Q372 -87 380.5 -100.5Q389 -114 389 -135Q389 -176 361 -193Q333 -210 292 -210Q267 -210 243 -204.5Q219 -199 204 -188Z" glyph-name="Scedilla" horiz-adv-x="590" unicode="&#350;" /><glyph d="M180 840 280 950H310L410 840H365L295 917L225 840ZM287 385Q223 394 179.5 413Q136 432 109.5 458Q83 484 71.5 515.5Q60 547 60 580V590Q60 637 77.5 674Q95 711 126 737Q157 763 200.5 776.5Q244 790 295 790Q358 790 402.5 773.5Q447 757 475.5 725.5Q504 694 517 648.5Q530 603 530 545V520H490Q490 643 444 697.5Q398 752 298 752H292Q252 752 217.5 741.5Q183 731 157.5 711.5Q132 692 117 664Q102 636 102 600V590Q102 555 112.5 527.5Q123 500 147 479Q171 458 210 443.5Q249 429 306 421Q370 412 414.5 394Q459 376 487 350Q515 324 527.5 289.5Q540 255 540 214V204Q540 154 522 114Q504 74 472 46.5Q440 19 395 4.5Q350 -10 295 -10Q235 -10 189.5 7.5Q144 25 113 58Q82 91 66 137Q50 183 50 240V250H90Q90 193 105 151.5Q120 110 147 82.5Q174 55 211 41.5Q248 28 292 28H298Q342 28 378.5 39Q415 50 441.5 72Q468 94 483 126Q498 158 498 199V209Q498 288 447 329Q396 370 287 385Z" glyph-name="Scircumflex" horiz-adv-x="590" unicode="&#348;" /><glyph d="M325 -108Q325 -155 301 -182.5Q277 -210 235 -210V-180Q259 -180 276 -166Q293 -152 295 -120H265V-60H325ZM287 385Q223 394 179.5 413Q136 432 109.5 458Q83 484 71.5 515.5Q60 547 60 580V590Q60 637 77.5 674Q95 711 126 737Q157 763 200.5 776.5Q244 790 295 790Q358 790 402.5 773.5Q447 757 475.5 725.5Q504 694 517 648.5Q530 603 530 545V520H490Q490 643 444 697.5Q398 752 298 752H292Q252 752 217.5 741.5Q183 731 157.5 711.5Q132 692 117 664Q102 636 102 600V590Q102 555 112.5 527.5Q123 500 147 479Q171 458 210 443.5Q249 429 306 421Q370 412 414.5 394Q459 376 487 350Q515 324 527.5 289.5Q540 255 540 214V204Q540 154 522 114Q504 74 472 46.5Q440 19 395 4.5Q350 -10 295 -10Q235 -10 189.5 7.5Q144 25 113 58Q82 91 66 137Q50 183 50 240V250H90Q90 193 105 151.5Q120 110 147 82.5Q174 55 211 41.5Q248 28 292 28H298Q342 28 378.5 39Q415 50 441.5 72Q468 94 483 126Q498 158 498 199V209Q498 288 447 329Q396 370 287 385Z" glyph-name="Scommaaccent" horiz-adv-x="590" unicode="&#536;" /><glyph d="M270 0H230V742H25V780H475V742H270Z" glyph-name="T" horiz-adv-x="500" unicode="T" /><glyph d="M270 417H400V379H270V0H230V379H100V417H230V742H25V780H475V742H270Z" glyph-name="Tbar" horiz-adv-x="500" unicode="&#358;" /><glyph d="M180 950 250 873 320 950H365L265 840H235L135 950ZM270 0H230V742H25V780H475V742H270Z" glyph-name="Tcaron" horiz-adv-x="500" unicode="&#356;" /><glyph d="M280 -108Q280 -155 256 -182.5Q232 -210 190 -210V-180Q214 -180 231 -166Q248 -152 250 -120H220V-60H280ZM270 0H230V742H25V780H475V742H270Z" glyph-name="Tcommaaccent" horiz-adv-x="500" unicode="&#354;" /><glyph d="M280 865H220V925H280ZM270 0H230V742H25V780H475V742H270Z" glyph-name="Tdotaccent" horiz-adv-x="500" unicode="&#7786;" /><glyph d="M282 203Q310 203 343 209.5Q376 216 403.5 235.5Q431 255 449.5 290Q468 325 468 382V398Q468 455 449.5 490Q431 525 403.5 544.5Q376 564 343 570.5Q310 577 282 577H120V203ZM120 615H282Q322 615 362.5 605.5Q403 596 436 571.5Q469 547 489.5 505.5Q510 464 510 400V380Q510 316 489.5 274.5Q469 233 436 208.5Q403 184 362.5 174.5Q322 165 282 165H120V0H80V780H120Z" glyph-name="Thorn" horiz-adv-x="560" unicode="&#222;" /><glyph d="M315 -10Q259 -10 214.5 2Q170 14 139 42.5Q108 71 91.5 119Q75 167 75 240V780H115V245Q115 181 128 139Q141 97 166.5 72.5Q192 48 229 38Q266 28 315 28Q364 28 401 38Q438 48 463.5 72.5Q489 97 502 139Q515 181 515 245V780H555V240Q555 167 538.5 119Q522 71 491 42.5Q460 14 415.5 2Q371 -10 315 -10Z" glyph-name="U" horiz-adv-x="630" unicode="U" /><glyph d="M398 950 336 840H294L356 950ZM315 -10Q259 -10 214.5 2Q170 14 139 42.5Q108 71 91.5 119Q75 167 75 240V780H115V245Q115 181 128 139Q141 97 166.5 72.5Q192 48 229 38Q266 28 315 28Q364 28 401 38Q438 48 463.5 72.5Q489 97 502 139Q515 181 515 245V780H555V240Q555 167 538.5 119Q522 71 491 42.5Q460 14 415.5 2Q371 -10 315 -10Z" glyph-name="Uacute" horiz-adv-x="630" unicode="&#218;" /><glyph d="M315 830Q252 830 217.5 863.5Q183 897 183 950H219Q219 912 242.5 887.5Q266 863 315 863Q364 863 387.5 887.5Q411 912 411 950H447Q447 897 412.5 863.5Q378 830 315 830ZM315 -10Q259 -10 214.5 2Q170 14 139 42.5Q108 71 91.5 119Q75 167 75 240V780H115V245Q115 181 128 139Q141 97 166.5 72.5Q192 48 229 38Q266 28 315 28Q364 28 401 38Q438 48 463.5 72.5Q489 97 502 139Q515 181 515 245V780H555V240Q555 167 538.5 119Q522 71 491 42.5Q460 14 415.5 2Q371 -10 315 -10Z" glyph-name="Ubreve" horiz-adv-x="630" unicode="&#364;" /><glyph d="M200 840 300 950H330L430 840H385L315 917L245 840ZM315 -10Q259 -10 214.5 2Q170 14 139 42.5Q108 71 91.5 119Q75 167 75 240V780H115V245Q115 181 128 139Q141 97 166.5 72.5Q192 48 229 38Q266 28 315 28Q364 28 401 38Q438 48 463.5 72.5Q489 97 502 139Q515 181 515 245V780H555V240Q555 167 538.5 119Q522 71 491 42.5Q460 14 415.5 2Q371 -10 315 -10Z" glyph-name="Ucircumflex" horiz-adv-x="630" unicode="&#219;" /><glyph d="M270 865H210V925H270ZM420 865H360V925H420ZM315 -10Q259 -10 214.5 2Q170 14 139 42.5Q108 71 91.5 119Q75 167 75 240V780H115V245Q115 181 128 139Q141 97 166.5 72.5Q192 48 229 38Q266 28 315 28Q364 28 401 38Q438 48 463.5 72.5Q489 97 502 139Q515 181 515 245V780H555V240Q555 167 538.5 119Q522 71 491 42.5Q460 14 415.5 2Q371 -10 315 -10Z" glyph-name="Udieresis" horiz-adv-x="630" unicode="&#220;" /><glyph d="M274 950 336 840H294L232 950ZM315 -10Q259 -10 214.5 2Q170 14 139 42.5Q108 71 91.5 119Q75 167 75 240V780H115V245Q115 181 128 139Q141 97 166.5 72.5Q192 48 229 38Q266 28 315 28Q364 28 401 38Q438 48 463.5 72.5Q489 97 502 139Q515 181 515 245V780H555V240Q555 167 538.5 119Q522 71 491 42.5Q460 14 415.5 2Q371 -10 315 -10Z" glyph-name="Ugrave" horiz-adv-x="630" unicode="&#217;" /><glyph d="M343 950 281 840H239L301 950ZM453 950 391 840H349L411 950ZM315 -10Q259 -10 214.5 2Q170 14 139 42.5Q108 71 91.5 119Q75 167 75 240V780H115V245Q115 181 128 139Q141 97 166.5 72.5Q192 48 229 38Q266 28 315 28Q364 28 401 38Q438 48 463.5 72.5Q489 97 502 139Q515 181 515 245V780H555V240Q555 167 538.5 119Q522 71 491 42.5Q460 14 415.5 2Q371 -10 315 -10Z" glyph-name="Uhungarumlaut" horiz-adv-x="630" unicode="&#368;" /><glyph d="M215 915H415V875H215ZM315 -10Q259 -10 214.5 2Q170 14 139 42.5Q108 71 91.5 119Q75 167 75 240V780H115V245Q115 181 128 139Q141 97 166.5 72.5Q192 48 229 38Q266 28 315 28Q364 28 401 38Q438 48 463.5 72.5Q489 97 502 139Q515 181 515 245V780H555V240Q555 167 538.5 119Q522 71 491 42.5Q460 14 415.5 2Q371 -10 315 -10Z" glyph-name="Umacron" horiz-adv-x="630" unicode="&#362;" /><glyph d="M315 -117Q315 -146 335 -161.5Q355 -177 389 -177Q405 -177 421 -173.5Q437 -170 450 -163L462 -191Q446 -201 425 -205.5Q404 -210 386 -210Q338 -210 310 -187.5Q282 -165 282 -117Q282 -82 297 -55.5Q312 -29 335 -9Q330 -10 325 -10Q320 -10 315 -10Q259 -10 214.5 2Q170 14 139 42.5Q108 71 91.5 119Q75 167 75 240V780H115V245Q115 181 128 139Q141 97 166.5 72.5Q192 48 229 38Q266 28 315 28Q364 28 401 38Q438 48 463.5 72.5Q489 97 502 139Q515 181 515 245V780H555V240Q555 184 545.5 143Q536 102 517.5 73.5Q499 45 471.5 27Q444 9 409 0Q392 -5 375.5 -15Q359 -25 345.5 -40Q332 -55 323.5 -74.5Q315 -94 315 -117Z" glyph-name="Uogonek" horiz-adv-x="630" unicode="&#370;" /><glyph d="M257 870Q257 846 274 829Q291 812 315 812Q339 812 356 829Q373 846 373 870Q373 894 356 911Q339 928 315 928Q291 928 274 911Q257 894 257 870ZM225 870Q225 908 251 934Q277 960 315 960Q353 960 379 934Q405 908 405 870Q405 832 379 806Q353 780 315 780Q277 780 251 806Q225 832 225 870ZM315 -10Q259 -10 214.5 2Q170 14 139 42.5Q108 71 91.5 119Q75 167 75 240V780H115V245Q115 181 128 139Q141 97 166.5 72.5Q192 48 229 38Q266 28 315 28Q364 28 401 38Q438 48 463.5 72.5Q489 97 502 139Q515 181 515 245V780H555V240Q555 167 538.5 119Q522 71 491 42.5Q460 14 415.5 2Q371 -10 315 -10Z" glyph-name="Uring" horiz-adv-x="630" unicode="&#366;" /><glyph d="M455 932Q455 889 435 868.5Q415 848 383 848Q361 848 343 857.5Q325 867 309.5 878.5Q294 890 279.5 899.5Q265 909 250 909Q211 909 211 858H175Q175 901 195 921.5Q215 942 247 942Q269 942 286.5 932.5Q304 923 320 911.5Q336 900 350.5 890.5Q365 881 380 881Q419 881 419 932ZM315 -10Q259 -10 214.5 2Q170 14 139 42.5Q108 71 91.5 119Q75 167 75 240V780H115V245Q115 181 128 139Q141 97 166.5 72.5Q192 48 229 38Q266 28 315 28Q364 28 401 38Q438 48 463.5 72.5Q489 97 502 139Q515 181 515 245V780H555V240Q555 167 538.5 119Q522 71 491 42.5Q460 14 415.5 2Q371 -10 315 -10Z" glyph-name="Utilde" horiz-adv-x="630" unicode="&#360;" /><glyph d="M270 -10 34 780H78L300 30L522 780H566L330 -10Z" glyph-name="V" horiz-adv-x="600" unicode="V" /><glyph d="M440 740 260 -10H200L49 780H92L230 32L410 780H470L650 32L788 780H831L680 -10H620Z" glyph-name="W" horiz-adv-x="880" unicode="W" /><glyph d="M523 950 461 840H419L481 950ZM440 740 260 -10H200L49 780H92L230 32L410 780H470L650 32L788 780H831L680 -10H620Z" glyph-name="Wacute" horiz-adv-x="880" unicode="&#7810;" /><glyph d="M325 840 425 950H455L555 840H510L440 917L370 840ZM440 740 260 -10H200L49 780H92L230 32L410 780H470L650 32L788 780H831L680 -10H620Z" glyph-name="Wcircumflex" horiz-adv-x="880" unicode="&#372;" /><glyph d="M395 865H335V925H395ZM545 865H485V925H545ZM440 740 260 -10H200L49 780H92L230 32L410 780H470L650 32L788 780H831L680 -10H620Z" glyph-name="Wdieresis" horiz-adv-x="880" unicode="&#7812;" /><glyph d="M399 950 461 840H419L357 950ZM440 740 260 -10H200L49 780H92L230 32L410 780H470L650 32L788 780H831L680 -10H620Z" glyph-name="Wgrave" horiz-adv-x="880" unicode="&#7808;" /><glyph d="M277 393 35 780H83L300 427L517 780H565L323 393L565 0H517L300 355L83 0H35Z" glyph-name="X" horiz-adv-x="600" unicode="X" /><glyph d="M300 0H260V235L25 780H68L280 285L492 780H535L300 235Z" glyph-name="Y" horiz-adv-x="560" unicode="Y" /><glyph d="M363 950 301 840H259L321 950ZM300 0H260V235L25 780H68L280 285L492 780H535L300 235Z" glyph-name="Yacute" horiz-adv-x="560" unicode="&#221;" /><glyph d="M165 840 265 950H295L395 840H350L280 917L210 840ZM300 0H260V235L25 780H68L280 285L492 780H535L300 235Z" glyph-name="Ycircumflex" horiz-adv-x="560" unicode="&#374;" /><glyph d="M235 865H175V925H235ZM385 865H325V925H385ZM300 0H260V235L25 780H68L280 285L492 780H535L300 235Z" glyph-name="Ydieresis" horiz-adv-x="560" unicode="&#376;" /><glyph d="M239 950 301 840H259L197 950ZM300 0H260V235L25 780H68L280 285L492 780H535L300 235Z" glyph-name="Ygrave" horiz-adv-x="560" unicode="&#7922;" /><glyph d="M180 915H380V875H180ZM300 0H260V235L25 780H68L280 285L492 780H535L300 235Z" glyph-name="Ymacron" horiz-adv-x="560" unicode="&#562;" /><glyph d="M450 744 330 742H50V780H500V752L90 36L210 38H510V0H40V28Z" glyph-name="Z" horiz-adv-x="550" unicode="Z" /><glyph d="M450 744 330 742H50V780H500V752L90 36L210 38H510V0H40V28ZM355 950 293 840H251L313 950Z" glyph-name="Zacute" horiz-adv-x="550" unicode="&#377;" /><glyph d="M450 744 330 742H50V780H500V752L90 36L210 38H510V0H40V28ZM202 950 272 873 342 950H387L287 840H257L157 950Z" glyph-name="Zcaron" horiz-adv-x="550" unicode="&#381;" /><glyph d="M450 744 330 742H50V780H500V752L90 36L210 38H510V0H40V28ZM302 865H242V925H302Z" glyph-name="Zdotaccent" horiz-adv-x="550" unicode="&#379;" /><glyph d="M205 28Q249 28 281 39Q313 50 334.5 65.5Q356 81 369.5 98Q383 115 390 128V288L215 259Q158 249 124 220.5Q90 192 90 140V130Q90 110 96.5 91.5Q103 73 117.5 59Q132 45 153.5 36.5Q175 28 205 28ZM395 80Q382 63 364 46.5Q346 30 322 17.5Q298 5 267.5 -2.5Q237 -10 200 -10Q132 -10 91 28Q50 66 50 130V140Q50 183 65.5 211.5Q81 240 105 257.5Q129 275 159 284Q189 293 218 298L390 325V345Q390 422 360 462Q330 502 250 502Q207 502 179.5 490.5Q152 479 136.5 458.5Q121 438 115.5 411.5Q110 385 110 355H70V364Q70 392 77 423.5Q84 455 103.5 480.5Q123 506 158.5 523Q194 540 250 540Q302 540 336.5 525.5Q371 511 392 485Q413 459 421.5 423Q430 387 430 345V150L435 0H405Z" glyph-name="a" horiz-adv-x="500" unicode="a" /><glyph d="M361 780 271 620H229L319 780ZM205 28Q249 28 281 39Q313 50 334.5 65.5Q356 81 369.5 98Q383 115 390 128V288L215 259Q158 249 124 220.5Q90 192 90 140V130Q90 110 96.5 91.5Q103 73 117.5 59Q132 45 153.5 36.5Q175 28 205 28ZM395 80Q382 63 364 46.5Q346 30 322 17.5Q298 5 267.5 -2.5Q237 -10 200 -10Q132 -10 91 28Q50 66 50 130V140Q50 183 65.5 211.5Q81 240 105 257.5Q129 275 159 284Q189 293 218 298L390 325V345Q390 422 360 462Q330 502 250 502Q207 502 179.5 490.5Q152 479 136.5 458.5Q121 438 115.5 411.5Q110 385 110 355H70V364Q70 392 77 423.5Q84 455 103.5 480.5Q123 506 158.5 523Q194 540 250 540Q302 540 336.5 525.5Q371 511 392 485Q413 459 421.5 423Q430 387 430 345V150L435 0H405Z" glyph-name="aacute" horiz-adv-x="500" unicode="&#225;" /><glyph d="M250 610Q171 610 134.5 657.5Q98 705 98 780H134Q134 751 140 726Q146 701 160 682.5Q174 664 196 653.5Q218 643 250 643Q282 643 304 653.5Q326 664 340 682.5Q354 701 360 726Q366 751 366 780H402Q402 705 365.5 657.5Q329 610 250 610ZM205 28Q249 28 281 39Q313 50 334.5 65.5Q356 81 369.5 98Q383 115 390 128V288L215 259Q158 249 124 220.5Q90 192 90 140V130Q90 110 96.5 91.5Q103 73 117.5 59Q132 45 153.5 36.5Q175 28 205 28ZM395 80Q382 63 364 46.5Q346 30 322 17.5Q298 5 267.5 -2.5Q237 -10 200 -10Q132 -10 91 28Q50 66 50 130V140Q50 183 65.5 211.5Q81 240 105 257.5Q129 275 159 284Q189 293 218 298L390 325V345Q390 422 360 462Q330 502 250 502Q207 502 179.5 490.5Q152 479 136.5 458.5Q121 438 115.5 411.5Q110 385 110 355H70V364Q70 392 77 423.5Q84 455 103.5 480.5Q123 506 158.5 523Q194 540 250 540Q302 540 336.5 525.5Q371 511 392 485Q413 459 421.5 423Q430 387 430 345V150L435 0H405Z" glyph-name="abreve" horiz-adv-x="500" unicode="&#259;" /><glyph d="M105 620 235 780H265L395 620H350L250 744L150 620ZM205 28Q249 28 281 39Q313 50 334.5 65.5Q356 81 369.5 98Q383 115 390 128V288L215 259Q158 249 124 220.5Q90 192 90 140V130Q90 110 96.5 91.5Q103 73 117.5 59Q132 45 153.5 36.5Q175 28 205 28ZM395 80Q382 63 364 46.5Q346 30 322 17.5Q298 5 267.5 -2.5Q237 -10 200 -10Q132 -10 91 28Q50 66 50 130V140Q50 183 65.5 211.5Q81 240 105 257.5Q129 275 159 284Q189 293 218 298L390 325V345Q390 422 360 462Q330 502 250 502Q207 502 179.5 490.5Q152 479 136.5 458.5Q121 438 115.5 411.5Q110 385 110 355H70V364Q70 392 77 423.5Q84 455 103.5 480.5Q123 506 158.5 523Q194 540 250 540Q302 540 336.5 525.5Q371 511 392 485Q413 459 421.5 423Q430 387 430 345V150L435 0H405Z" glyph-name="acircumflex" horiz-adv-x="500" unicode="&#226;" /><glyph d="M361 780 271 620H229L319 780Z" glyph-name="acute" horiz-adv-x="500" unicode="&#180;" /><glyph d="M333 950 271 840H229L291 950Z" glyph-name="acute.cap" horiz-adv-x="500" unicode="&#58402;" /><glyph d="M355 675H295V735H355ZM205 675H145V735H205ZM205 28Q249 28 281 39Q313 50 334.5 65.5Q356 81 369.5 98Q383 115 390 128V288L215 259Q158 249 124 220.5Q90 192 90 140V130Q90 110 96.5 91.5Q103 73 117.5 59Q132 45 153.5 36.5Q175 28 205 28ZM395 80Q382 63 364 46.5Q346 30 322 17.5Q298 5 267.5 -2.5Q237 -10 200 -10Q132 -10 91 28Q50 66 50 130V140Q50 183 65.5 211.5Q81 240 105 257.5Q129 275 159 284Q189 293 218 298L390 325V345Q390 422 360 462Q330 502 250 502Q207 502 179.5 490.5Q152 479 136.5 458.5Q121 438 115.5 411.5Q110 385 110 355H70V364Q70 392 77 423.5Q84 455 103.5 480.5Q123 506 158.5 523Q194 540 250 540Q302 540 336.5 525.5Q371 511 392 485Q413 459 421.5 423Q430 387 430 345V150L435 0H405Z" glyph-name="adieresis" horiz-adv-x="500" unicode="&#228;" /><glyph d="M605 502Q561 502 529 486Q497 470 475.5 441.5Q454 413 443.5 373Q433 333 432 284H778Q777 333 766 373Q755 413 734 441.5Q713 470 680.5 486Q648 502 605 502ZM402 153Q390 199 390 255V288L215 259Q158 249 124 220.5Q90 192 90 140V130Q90 110 96.5 91.5Q103 73 117.5 59Q132 45 153.5 36.5Q175 28 205 28Q250 28 282 39.5Q314 51 336 67Q358 83 371 100.5Q384 118 391 130ZM432 246Q433 197 443.5 157Q454 117 475.5 88.5Q497 60 530.5 44Q564 28 610 28Q656 28 688.5 41Q721 54 741 74.5Q761 95 770.5 120.5Q780 146 780 170H820V166Q820 137 808 106Q796 75 770.5 49.5Q745 24 705 7Q665 -10 610 -10Q536 -10 489 23Q442 56 417 110Q407 90 389 68.5Q371 47 344 29.5Q317 12 281 1Q245 -10 200 -10Q132 -10 91 28Q50 66 50 130V140Q50 183 65.5 211.5Q81 240 105 257.5Q129 275 159 284Q189 293 218 298L390 325V345Q390 422 360 462Q330 502 250 502Q207 502 179.5 490.5Q152 479 136.5 458.5Q121 438 115.5 411.5Q110 385 110 355H70V364Q70 392 77 423.5Q84 455 103.5 480.5Q123 506 158.5 523Q194 540 250 540Q330 540 368.5 505.5Q407 471 418 415Q441 472 486 506Q531 540 605 540Q662 540 702.5 519Q743 498 769 462Q795 426 807.5 377.5Q820 329 820 275V246Z" glyph-name="ae" horiz-adv-x="875" unicode="&#230;" /><glyph d="M181 780 271 620H229L139 780ZM205 28Q249 28 281 39Q313 50 334.5 65.5Q356 81 369.5 98Q383 115 390 128V288L215 259Q158 249 124 220.5Q90 192 90 140V130Q90 110 96.5 91.5Q103 73 117.5 59Q132 45 153.5 36.5Q175 28 205 28ZM395 80Q382 63 364 46.5Q346 30 322 17.5Q298 5 267.5 -2.5Q237 -10 200 -10Q132 -10 91 28Q50 66 50 130V140Q50 183 65.5 211.5Q81 240 105 257.5Q129 275 159 284Q189 293 218 298L390 325V345Q390 422 360 462Q330 502 250 502Q207 502 179.5 490.5Q152 479 136.5 458.5Q121 438 115.5 411.5Q110 385 110 355H70V364Q70 392 77 423.5Q84 455 103.5 480.5Q123 506 158.5 523Q194 540 250 540Q302 540 336.5 525.5Q371 511 392 485Q413 459 421.5 423Q430 387 430 345V150L435 0H405Z" glyph-name="agrave" horiz-adv-x="500" unicode="&#224;" /><glyph d="M311 -136Q311 -114 292.5 -105.5Q274 -97 246 -97Q229 -97 213 -100Q197 -103 187 -107V-76Q198 -71 216.5 -67.5Q235 -64 255 -64Q269 -64 284.5 -67.5Q300 -71 313.5 -79Q327 -87 335.5 -100.5Q344 -114 344 -135Q344 -176 316 -193Q288 -210 247 -210Q222 -210 198 -204.5Q174 -199 159 -188L172 -158Q185 -166 203.5 -171.5Q222 -177 242 -177Q277 -177 294 -168Q311 -159 311 -136Z" glyph-name="altcedilla" horiz-adv-x="602" unicode="&#58390;" /><glyph d="M145 720H355V680H145ZM205 28Q249 28 281 39Q313 50 334.5 65.5Q356 81 369.5 98Q383 115 390 128V288L215 259Q158 249 124 220.5Q90 192 90 140V130Q90 110 96.5 91.5Q103 73 117.5 59Q132 45 153.5 36.5Q175 28 205 28ZM395 80Q382 63 364 46.5Q346 30 322 17.5Q298 5 267.5 -2.5Q237 -10 200 -10Q132 -10 91 28Q50 66 50 130V140Q50 183 65.5 211.5Q81 240 105 257.5Q129 275 159 284Q189 293 218 298L390 325V345Q390 422 360 462Q330 502 250 502Q207 502 179.5 490.5Q152 479 136.5 458.5Q121 438 115.5 411.5Q110 385 110 355H70V364Q70 392 77 423.5Q84 455 103.5 480.5Q123 506 158.5 523Q194 540 250 540Q302 540 336.5 525.5Q371 511 392 485Q413 459 421.5 423Q430 387 430 345V150L435 0H405Z" glyph-name="amacron" horiz-adv-x="500" unicode="&#257;" /><glyph d="M112 625Q112 598 120 575.5Q128 553 142.5 531.5Q157 510 176 489Q195 468 218 445Q248 465 276.5 484.5Q305 504 327.5 525.5Q350 547 364 571Q378 595 378 625V635Q378 657 370 678Q362 699 346 715Q330 731 305.5 740.5Q281 750 249 750H241Q209 750 184.5 740.5Q160 731 144 715Q128 699 120 678Q112 657 112 635ZM273 30Q299 30 325.5 34.5Q352 39 377 50Q402 61 425 79Q448 97 467 123L210 394Q186 376 164 356.5Q142 337 125.5 314.5Q109 292 99.5 266.5Q90 241 90 210V200Q90 162 100.5 131Q111 100 132.5 77.5Q154 55 187.5 42.5Q221 30 267 30ZM270 -10Q168 -10 109 44Q50 98 50 200V210Q50 247 61 277.5Q72 308 90.5 333.5Q109 359 133 380.5Q157 402 184 421Q157 449 136 473.5Q115 498 100.5 521.5Q86 545 78 570Q70 595 70 625V635Q70 703 116 746.5Q162 790 245 790Q328 790 374 746.5Q420 703 420 635V625Q420 590 404.5 561.5Q389 533 364 508Q339 483 307.5 461Q276 439 244 417L489 159Q510 200 522.5 256.5Q535 313 535 390V395H575Q575 306 559.5 241Q544 176 518 129L640 0H584L495 94Q451 37 392 13.5Q333 -10 270 -10Z" glyph-name="ampersand" horiz-adv-x="650" unicode="&amp;" /><glyph d="M96 360 258 -120H217L55 360L217 840H258Z" glyph-name="anglebracketleft" horiz-adv-x="300" unicode="&#12296;" /><glyph d="M96 390 230 0H189L55 390L189 780H230Z" glyph-name="anglebracketleft.cap" horiz-adv-x="300" unicode="&#58519;" /><glyph d="M204 360 42 840H83L245 360L83 -120H42Z" glyph-name="anglebracketright" horiz-adv-x="300" unicode="&#12297;" /><glyph d="M70 780H111L245 390L111 0H70L204 390Z" glyph-name="anglebracketright.cap" horiz-adv-x="300" unicode="&#58520;" /><glyph d="M205 28Q249 28 281 39Q313 50 334.5 65.5Q356 81 369.5 98Q383 115 390 128V288L215 259Q158 249 124 220.5Q90 192 90 140V130Q90 110 96.5 91.5Q103 73 117.5 59Q132 45 153.5 36.5Q175 28 205 28ZM337 -117Q337 -146 357 -161.5Q377 -177 411 -177Q427 -177 443 -173.5Q459 -170 472 -163L484 -191Q468 -201 447 -205.5Q426 -210 408 -210Q360 -210 332 -187.5Q304 -165 304 -117Q304 -92 312 -71Q320 -50 333.5 -33.5Q347 -17 364.5 -4Q382 9 402 19L395 80Q382 63 364 46.5Q346 30 322 17.5Q298 5 267.5 -2.5Q237 -10 200 -10Q132 -10 91 28Q50 66 50 130V140Q50 183 65.5 211.5Q81 240 105 257.5Q129 275 159 284Q189 293 218 298L390 325V345Q390 422 360 462Q330 502 250 502Q207 502 179.5 490.5Q152 479 136.5 458.5Q121 438 115.5 411.5Q110 385 110 355H70V364Q70 392 77 423.5Q84 455 103.5 480.5Q123 506 158.5 523Q194 540 250 540Q302 540 336.5 525.5Q371 511 392 485Q413 459 421.5 423Q430 387 430 345V150L435 0H431Q414 -8 397 -18.5Q380 -29 366.5 -43Q353 -57 345 -75.5Q337 -94 337 -117Z" glyph-name="aogonek" horiz-adv-x="500" unicode="&#261;" /><glyph d="M174 540Q214 540 246 528.5Q278 517 307 503.5Q336 490 365 478.5Q394 467 430 467Q447 467 462.5 473Q478 479 491 487.5Q504 496 514.5 506.5Q525 517 532 526L560 498Q552 488 540 476Q528 464 511.5 453.5Q495 443 473.5 436Q452 429 426 429Q385 429 353.5 440.5Q322 452 293 465.5Q264 479 235 490.5Q206 502 170 502Q153 502 137.5 496Q122 490 109 481.5Q96 473 85.5 462.5Q75 452 68 443L40 471Q48 481 60 493Q72 505 88.5 515.5Q105 526 126.5 533Q148 540 174 540ZM174 340Q214 340 246 328.5Q278 317 307 303.5Q336 290 365 278.5Q394 267 430 267Q447 267 462.5 273Q478 279 491 287.5Q504 296 514.5 306.5Q525 317 532 326L560 298Q552 288 540 276Q528 264 511.5 253.5Q495 243 473.5 236Q452 229 426 229Q385 229 353.5 240.5Q322 252 293 265.5Q264 279 235 290.5Q206 302 170 302Q153 302 137.5 296Q122 290 109 281.5Q96 273 85.5 262.5Q75 252 68 243L40 271Q48 281 60 293Q72 305 88.5 315.5Q105 326 126.5 333Q148 340 174 340Z" glyph-name="approxequal" horiz-adv-x="600" unicode="&#8776;" /><glyph d="M187 700Q187 676 204 659Q221 642 245 642Q269 642 286 659Q303 676 303 700Q303 724 286 741Q269 758 245 758Q221 758 204 741Q187 724 187 700ZM155 700Q155 738 181 764Q207 790 245 790Q283 790 309 764Q335 738 335 700Q335 662 309 636Q283 610 245 610Q207 610 181 636Q155 662 155 700ZM205 28Q249 28 281 39Q313 50 334.5 65.5Q356 81 369.5 98Q383 115 390 128V288L215 259Q158 249 124 220.5Q90 192 90 140V130Q90 110 96.5 91.5Q103 73 117.5 59Q132 45 153.5 36.5Q175 28 205 28ZM50 140Q50 183 65.5 211.5Q81 240 105 257.5Q129 275 159 284Q189 293 218 298L390 325V345Q390 422 360 462Q330 502 250 502Q207 502 179.5 490.5Q152 479 136.5 458.5Q121 438 115.5 411.5Q110 385 110 355H70V364Q70 392 77 423.5Q84 455 103.5 480.5Q123 506 158.5 523Q194 540 250 540Q302 540 336.5 525.5Q371 511 392 485Q413 459 421.5 423Q430 387 430 345V150L435 0H405L395 80Q382 63 364 46.5Q346 30 322 17.5Q298 5 267.5 -2.5Q237 -10 200 -10Q132 -10 91 28Q50 66 50 130Z" glyph-name="aring" horiz-adv-x="500" unicode="&#229;" /><glyph d="M70 436 440 66V780H480V66L850 436V380L460 -10L70 380Z" glyph-name="arrowdown" horiz-adv-x="920" unicode="&#8595;" /><glyph d="M506 780 136 410H850V370H136L506 0H450L60 390L450 780Z" glyph-name="arrowleft" horiz-adv-x="920" unicode="&#8592;" /><glyph d="M470 780 860 390 470 0H414L784 370H70V410H784L414 780Z" glyph-name="arrowright" horiz-adv-x="920" unicode="&#8594;" /><glyph d="M70 400 460 790 850 400V344L480 714V0H440V714L70 344Z" glyph-name="arrowup" horiz-adv-x="920" unicode="&#8593;" /><glyph d="M566 280H524L300 739L76 280H34L280 780H320Z" glyph-name="asciicircum" horiz-adv-x="600" unicode="^" /><glyph d="M174 440Q214 440 246 428.5Q278 417 307 403.5Q336 390 365 378.5Q394 367 430 367Q447 367 462.5 373Q478 379 491 387.5Q504 396 514.5 406.5Q525 417 532 426L560 398Q552 388 540 376Q528 364 511.5 353.5Q495 343 473.5 336Q452 329 426 329Q385 329 353.5 340.5Q322 352 293 365.5Q264 379 235 390.5Q206 402 170 402Q153 402 137.5 396Q122 390 109 381.5Q96 373 85.5 362.5Q75 352 68 343L40 371Q48 381 60 393Q72 405 88.5 415.5Q105 426 126.5 433Q148 440 174 440Z" glyph-name="asciitilde" horiz-adv-x="600" unicode="~" /><glyph d="M280 464 196 588 220 605 312 487ZM368 657 223 616 214 644 355 695ZM68 487 160 605 184 588 100 464ZM25 695 166 644 157 616 12 657ZM210 800 205 650H175L170 800Z" glyph-name="asterisk" horiz-adv-x="380" unicode="*" /><glyph d="M610 410Q601 425 586.5 441Q572 457 553.5 470.5Q535 484 511.5 493Q488 502 460 502Q418 502 387 487Q356 472 336 445.5Q316 419 306.5 383Q297 347 297 305V285Q297 243 306.5 207Q316 171 336 144.5Q356 118 387 103Q418 88 460 88Q488 88 511.5 96.5Q535 105 553.5 118.5Q572 132 586.5 148.5Q601 165 610 180ZM503 -172Q594 -172 675 -149.5Q756 -127 832 -70L854 -100Q813 -132 769 -153.5Q725 -175 680 -187.5Q635 -200 589.5 -205Q544 -210 500 -210Q397 -210 311.5 -177Q226 -144 164.5 -82.5Q103 -21 69 68Q35 157 35 270V310Q35 422 68 511.5Q101 601 161.5 662.5Q222 724 307 757Q392 790 495 790Q581 790 657.5 764.5Q734 739 791 688.5Q848 638 881.5 562Q915 486 915 385V355Q915 265 895.5 207.5Q876 150 840.5 117.5Q805 85 756.5 72.5Q708 60 650 60H625L615 136Q595 102 556 76Q517 50 455 50Q401 50 363 70Q325 90 301 123Q277 156 266 198.5Q255 241 255 285V305Q255 349 266 391.5Q277 434 301 467Q325 500 363 520Q401 540 455 540Q517 540 556 514Q595 488 615 453L625 530H655L650 380V97Q698 98 738.5 107Q779 116 809 143Q839 170 856 220.5Q873 271 873 355V385Q873 481 842 550Q811 619 759.5 664Q708 709 640 730.5Q572 752 498 752H492Q399 752 322.5 721.5Q246 691 191 634Q136 577 105.5 495Q75 413 75 310V270Q75 163 106 80.5Q137 -2 193 -58Q249 -114 326.5 -143Q404 -172 497 -172Z" glyph-name="at" horiz-adv-x="950" unicode="@" /><glyph d="M610 510Q601 525 586.5 541Q572 557 553.5 570.5Q535 584 511.5 593Q488 602 460 602Q418 602 387 587Q356 572 336 545.5Q316 519 306.5 483Q297 447 297 405V385Q297 343 306.5 307Q316 271 336 244.5Q356 218 387 203Q418 188 460 188Q488 188 511.5 196.5Q535 205 553.5 218.5Q572 232 586.5 248.5Q601 265 610 280ZM503 -72Q594 -72 675 -49.5Q756 -27 832 30L854 0Q813 -32 769 -53.5Q725 -75 680 -87.5Q635 -100 589.5 -105Q544 -110 500 -110Q397 -110 311.5 -77Q226 -44 164.5 17.5Q103 79 69 168Q35 257 35 370V410Q35 522 68 611.5Q101 701 161.5 762.5Q222 824 307 857Q392 890 495 890Q581 890 657.5 864.5Q734 839 791 788.5Q848 738 881.5 662Q915 586 915 485V455Q915 365 895.5 307.5Q876 250 840.5 217.5Q805 185 756.5 172.5Q708 160 650 160H625L615 236Q595 202 556 176Q517 150 455 150Q401 150 363 170Q325 190 301 223Q277 256 266 298.5Q255 341 255 385V405Q255 449 266 491.5Q277 534 301 567Q325 600 363 620Q401 640 455 640Q517 640 556 614Q595 588 615 553L625 630H655L650 480V197Q698 198 738.5 207Q779 216 809 243Q839 270 856 320.5Q873 371 873 455V485Q873 581 842 650Q811 719 759.5 764Q708 809 640 830.5Q572 852 498 852H492Q399 852 322.5 821.5Q246 791 191 734Q136 677 105.5 595Q75 513 75 410V370Q75 263 106 180.5Q137 98 193 42Q249 -14 326.5 -43Q404 -72 497 -72Z" glyph-name="at.cap" horiz-adv-x="950" unicode="&#58643;" /><glyph d="M390 737Q390 694 371 673.5Q352 653 320 653Q298 653 279.5 662.5Q261 672 244.5 683Q228 694 213 703.5Q198 713 182 713Q166 713 155.5 702Q145 691 145 663H110Q110 706 129 726.5Q148 747 180 747Q202 747 220 737.5Q238 728 254.5 717Q271 706 286.5 696.5Q302 687 318 687Q334 687 344.5 698Q355 709 355 737ZM205 28Q249 28 281 39Q313 50 334.5 65.5Q356 81 369.5 98Q383 115 390 128V288L215 259Q158 249 124 220.5Q90 192 90 140V130Q90 110 96.5 91.5Q103 73 117.5 59Q132 45 153.5 36.5Q175 28 205 28ZM395 80Q382 63 364 46.5Q346 30 322 17.5Q298 5 267.5 -2.5Q237 -10 200 -10Q132 -10 91 28Q50 66 50 130V140Q50 183 65.5 211.5Q81 240 105 257.5Q129 275 159 284Q189 293 218 298L390 325V345Q390 422 360 462Q330 502 250 502Q207 502 179.5 490.5Q152 479 136.5 458.5Q121 438 115.5 411.5Q110 385 110 355H70V364Q70 392 77 423.5Q84 455 103.5 480.5Q123 506 158.5 523Q194 540 250 540Q302 540 336.5 525.5Q371 511 392 485Q413 459 421.5 423Q430 387 430 345V150L435 0H405Z" glyph-name="atilde" horiz-adv-x="500" unicode="&#227;" /><glyph d="M110 120Q119 105 132.5 88.5Q146 72 164 58.5Q182 45 206 36.5Q230 28 260 28Q345 28 386.5 89.5Q428 151 428 255V275Q428 379 386.5 440.5Q345 502 260 502Q230 502 206 493Q182 484 164 470.5Q146 457 132.5 441Q119 425 110 410ZM110 464Q130 495 167.5 517.5Q205 540 265 540Q319 540 358 519Q397 498 422 462Q447 426 458.5 377.5Q470 329 470 275V255Q470 201 458.5 152.5Q447 104 422 68Q397 32 358 11Q319 -10 265 -10Q201 -10 162.5 15.5Q124 41 104 75L95 0H65L70 150V800H110Z" glyph-name="b" horiz-adv-x="525" unicode="b" /><glyph d="M15 840H55L285 -120H245Z" glyph-name="backslash" horiz-adv-x="300" unicode="\" /><glyph d="M74 780 266 0H226L34 780Z" glyph-name="backslash.cap" horiz-adv-x="300" unicode="&#58466;" /><glyph d="M173 132 306 265 173 398 202 427 335 294 468 427 497 398 364 265 497 132 468 103 335 236 202 103ZM108 492V38H562V492ZM70 0V530H600V0Z" glyph-name="ballotboxwithx" horiz-adv-x="680" unicode="&#9746;" /><glyph d="M70 840H110V-120H70Z" glyph-name="bar" horiz-adv-x="180" unicode="|" /><glyph d="M70 780H110V0H70Z" glyph-name="bar.cap" horiz-adv-x="180" unicode="&#58467;" /><glyph d="M120 865H60V925H120ZM110 120Q119 105 132.5 88.5Q146 72 164 58.5Q182 45 206 36.5Q230 28 260 28Q345 28 386.5 89.5Q428 151 428 255V275Q428 379 386.5 440.5Q345 502 260 502Q230 502 206 493Q182 484 164 470.5Q146 457 132.5 441Q119 425 110 410ZM110 464Q130 495 167.5 517.5Q205 540 265 540Q319 540 358 519Q397 498 422 462Q447 426 458.5 377.5Q470 329 470 275V255Q470 201 458.5 152.5Q447 104 422 68Q397 32 358 11Q319 -10 265 -10Q201 -10 162.5 15.5Q124 41 104 75L95 0H65L70 150V800H110Z" glyph-name="bdotaccent" horiz-adv-x="525" unicode="&#7683;" /><glyph d="M60 390Q60 473 91.5 546Q123 619 177 673Q231 727 304 758.5Q377 790 460 790Q543 790 616 758.5Q689 727 743 673Q797 619 828.5 546Q860 473 860 390Q860 307 828.5 234Q797 161 743 107Q689 53 616 21.5Q543 -10 460 -10Q377 -10 304 21.5Q231 53 177 107Q123 161 91.5 234Q60 307 60 390Z" glyph-name="blackcircle" horiz-adv-x="920" unicode="&#9679;" /><glyph d="M70 0V530H600V0Z" glyph-name="blacksmallsquare" horiz-adv-x="680" unicode="&#9642;" /><glyph d="M70 0V780H850V0Z" glyph-name="blacksquare" horiz-adv-x="920" unicode="&#9632;" /><glyph d="M255 800Q232 800 213.5 795.5Q195 791 182 779Q169 767 162 745.5Q155 724 155 690V458Q155 416 140 393.5Q125 371 102 360Q125 349 140 326Q155 303 155 262V30Q155 -4 162 -25.5Q169 -47 182 -59Q195 -71 213.5 -75.5Q232 -80 255 -80V-120H240Q219 -120 197 -114.5Q175 -109 157 -95Q139 -81 127 -57Q115 -33 115 5V250Q115 279 109.5 296.5Q104 314 92.5 324Q81 334 64 337Q47 340 25 340V380Q47 380 64 383Q81 386 92.5 396Q104 406 109.5 423.5Q115 441 115 470V715Q115 752 127 776.5Q139 801 157 815Q175 829 197 834.5Q219 840 240 840H255Z" glyph-name="braceleft" horiz-adv-x="300" unicode="{" /><glyph d="M255 740Q232 740 213.5 735.5Q195 731 182 719Q169 707 162 685.5Q155 664 155 630V488Q155 446 140 423.5Q125 401 102 390Q125 379 140 356Q155 333 155 292V150Q155 116 162 94.5Q169 73 182 61Q195 49 213.5 44.5Q232 40 255 40V0H240Q219 0 197 5.5Q175 11 157 25Q139 39 127 63Q115 87 115 125V280Q115 309 109.5 326.5Q104 344 92.5 354Q81 364 64 367Q47 370 25 370V410Q47 410 64 413Q81 416 92.5 426Q104 436 109.5 453.5Q115 471 115 500V655Q115 692 127 716.5Q139 741 157 755Q175 769 197 774.5Q219 780 240 780H255Z" glyph-name="braceleft.cap" horiz-adv-x="300" unicode="&#58517;" /><glyph d="M45 -80Q68 -80 86.5 -75.5Q105 -71 118 -59Q131 -47 138 -25.5Q145 -4 145 30V262Q145 303 160 326Q175 349 198 360Q175 371 160 393.5Q145 416 145 458V690Q145 724 138 745.5Q131 767 118 779Q105 791 86.5 795.5Q68 800 45 800V840H60Q81 840 103 834.5Q125 829 143 815Q161 801 173 776.5Q185 752 185 715V470Q185 441 190.5 423.5Q196 406 207.5 396Q219 386 235.5 383Q252 380 275 380V340Q252 340 235.5 337Q219 334 207.5 324Q196 314 190.5 296.5Q185 279 185 250V5Q185 -33 173 -57Q161 -81 143 -95Q125 -109 103 -114.5Q81 -120 60 -120H45Z" glyph-name="braceright" horiz-adv-x="300" unicode="}" /><glyph d="M45 780H60Q81 780 103 774.5Q125 769 143 755Q161 741 173 716.5Q185 692 185 655V500Q185 471 190.5 453.5Q196 436 207.5 426Q219 416 235.5 413Q252 410 275 410V370Q252 370 235.5 367Q219 364 207.5 354Q196 344 190.5 326.5Q185 309 185 280V125Q185 87 173 63Q161 39 143 25Q125 11 103 5.5Q81 0 60 0H45V40Q68 40 86.5 44.5Q105 49 118 61Q131 73 138 94.5Q145 116 145 150V292Q145 333 160 356Q175 379 198 390Q175 401 160 423.5Q145 446 145 488V630Q145 664 138 685.5Q131 707 118 719Q105 731 86.5 735.5Q68 740 45 740Z" glyph-name="braceright.cap" horiz-adv-x="300" unicode="&#58518;" /><glyph d="M255 840V800H110V-80H255V-120H70V840Z" glyph-name="bracketleft" horiz-adv-x="300" unicode="[" /><glyph d="M255 780V740H110V40H255V0H70V780Z" glyph-name="bracketleft.cap" horiz-adv-x="300" unicode="&#58515;" /><glyph d="M45 -120V-80H190V800H45V840H230V-120Z" glyph-name="bracketright" horiz-adv-x="300" unicode="]" /><glyph d="M45 0V40H190V740H45V780H230V0Z" glyph-name="bracketright.cap" horiz-adv-x="300" unicode="&#58516;" /><glyph d="M250 610Q171 610 134.5 657.5Q98 705 98 780H134Q134 751 140 726Q146 701 160 682.5Q174 664 196 653.5Q218 643 250 643Q282 643 304 653.5Q326 664 340 682.5Q354 701 360 726Q366 751 366 780H402Q402 705 365.5 657.5Q329 610 250 610Z" glyph-name="breve" horiz-adv-x="500" unicode="&#728;" /><glyph d="M250 830Q187 830 152.5 863.5Q118 897 118 950H154Q154 912 177.5 887.5Q201 863 250 863Q299 863 322.5 887.5Q346 912 346 950H382Q382 897 347.5 863.5Q313 830 250 830Z" glyph-name="breve.cap" horiz-adv-x="500" unicode="&#58406;" /><glyph d="M70 320H110V-120H70ZM70 840H110V400H70Z" glyph-name="brokenbar" horiz-adv-x="180" unicode="&#166;" /><glyph d="M70 350H110V0H70ZM70 780H110V430H70Z" glyph-name="brokenbar.cap" horiz-adv-x="180" unicode="&#58469;" /><glyph d="M310 230H70V470H310Z" glyph-name="bullet" horiz-adv-x="380" unicode="&#8226;" /><glyph d="M310 270H70V510H310Z" glyph-name="bullet.cap" horiz-adv-x="380" unicode="&#58470;" /><glyph d="M97 255Q97 204 107.5 162.5Q118 121 139 91Q160 61 192.5 44.5Q225 28 270 28Q313 28 343 41Q373 54 391 75Q409 96 417 123.5Q425 151 425 180H465V166Q465 137 455 106Q445 75 421.5 49.5Q398 24 361 7Q324 -10 270 -10Q213 -10 172.5 11Q132 32 106 68Q80 104 67.5 152.5Q55 201 55 255V275Q55 329 67.5 377.5Q80 426 106 462Q132 498 172.5 519Q213 540 270 540Q324 540 361 522.5Q398 505 421.5 478Q445 451 455 419Q465 387 465 359V340H425Q425 374 416.5 403.5Q408 433 389.5 455Q371 477 341.5 489.5Q312 502 270 502Q225 502 192.5 485.5Q160 469 139 439Q118 409 107.5 367.5Q97 326 97 275Z" glyph-name="c" horiz-adv-x="520" unicode="c" /><glyph d="M381 780 291 620H249L339 780ZM97 255Q97 204 107.5 162.5Q118 121 139 91Q160 61 192.5 44.5Q225 28 270 28Q313 28 343 41Q373 54 391 75Q409 96 417 123.5Q425 151 425 180H465V166Q465 137 455 106Q445 75 421.5 49.5Q398 24 361 7Q324 -10 270 -10Q213 -10 172.5 11Q132 32 106 68Q80 104 67.5 152.5Q55 201 55 255V275Q55 329 67.5 377.5Q80 426 106 462Q132 498 172.5 519Q213 540 270 540Q324 540 361 522.5Q398 505 421.5 478Q445 451 455 419Q465 387 465 359V340H425Q425 374 416.5 403.5Q408 433 389.5 455Q371 477 341.5 489.5Q312 502 270 502Q225 502 192.5 485.5Q160 469 139 439Q118 409 107.5 367.5Q97 326 97 275Z" glyph-name="cacute" horiz-adv-x="520" unicode="&#263;" /><glyph d="M150 780 250 656 350 780H395L265 620H235L105 780Z" glyph-name="caron" horiz-adv-x="500" unicode="&#711;" /><glyph d="M180 950 250 873 320 950H365L265 840H235L135 950Z" glyph-name="caron.cap" horiz-adv-x="500" unicode="&#58413;" /><glyph d="M375 800 360 620H330V800Z" glyph-name="caronSlovak" horiz-adv-x="500" unicode="&#58387;" /><glyph d="M170 780 270 656 370 780H415L285 620H255L125 780ZM97 255Q97 204 107.5 162.5Q118 121 139 91Q160 61 192.5 44.5Q225 28 270 28Q313 28 343 41Q373 54 391 75Q409 96 417 123.5Q425 151 425 180H465V166Q465 137 455 106Q445 75 421.5 49.5Q398 24 361 7Q324 -10 270 -10Q213 -10 172.5 11Q132 32 106 68Q80 104 67.5 152.5Q55 201 55 255V275Q55 329 67.5 377.5Q80 426 106 462Q132 498 172.5 519Q213 540 270 540Q324 540 361 522.5Q398 505 421.5 478Q445 451 455 419Q465 387 465 359V340H425Q425 374 416.5 403.5Q408 433 389.5 455Q371 477 341.5 489.5Q312 502 270 502Q225 502 192.5 485.5Q160 469 139 439Q118 409 107.5 367.5Q97 326 97 275Z" glyph-name="ccaron" horiz-adv-x="520" unicode="&#269;" /><glyph d="M199 -158Q212 -166 230.5 -171.5Q249 -177 269 -177Q304 -177 321 -168Q338 -159 338 -136Q338 -114 319.5 -105.5Q301 -97 273 -97Q268 -97 263.5 -97.5Q259 -98 255 -98Q251 -99 247 -99L230 -83L257 -10Q204 -7 165.5 14.5Q127 36 102.5 72Q78 108 66.5 155Q55 202 55 255V275Q55 329 67.5 377.5Q80 426 106 462Q132 498 172.5 519Q213 540 270 540Q324 540 361 522.5Q398 505 421.5 478Q445 451 455 419Q465 387 465 359V340H425Q425 374 416.5 403.5Q408 433 389.5 455Q371 477 341.5 489.5Q312 502 270 502Q225 502 192.5 485.5Q160 469 139 439Q118 409 107.5 367.5Q97 326 97 275V255Q97 204 107.5 162.5Q118 121 139 91Q160 61 192.5 44.5Q225 28 270 28Q313 28 343 41Q373 54 391 75Q409 96 417 123.5Q425 151 425 180H465V166Q465 139 456 109.5Q447 80 426.5 55Q406 30 373 12.5Q340 -5 293 -9L273 -64H278Q294 -64 310.5 -67.5Q327 -71 340.5 -79Q354 -87 362.5 -100.5Q371 -114 371 -135Q371 -176 343 -193Q315 -210 274 -210Q249 -210 225 -204.5Q201 -199 186 -188Z" glyph-name="ccedilla" horiz-adv-x="520" unicode="&#231;" /><glyph d="M125 620 255 780H285L415 620H370L270 744L170 620ZM97 255Q97 204 107.5 162.5Q118 121 139 91Q160 61 192.5 44.5Q225 28 270 28Q313 28 343 41Q373 54 391 75Q409 96 417 123.5Q425 151 425 180H465V166Q465 137 455 106Q445 75 421.5 49.5Q398 24 361 7Q324 -10 270 -10Q213 -10 172.5 11Q132 32 106 68Q80 104 67.5 152.5Q55 201 55 255V275Q55 329 67.5 377.5Q80 426 106 462Q132 498 172.5 519Q213 540 270 540Q324 540 361 522.5Q398 505 421.5 478Q445 451 455 419Q465 387 465 359V340H425Q425 374 416.5 403.5Q408 433 389.5 455Q371 477 341.5 489.5Q312 502 270 502Q225 502 192.5 485.5Q160 469 139 439Q118 409 107.5 367.5Q97 326 97 275Z" glyph-name="ccircumflex" horiz-adv-x="520" unicode="&#265;" /><glyph d="M300 675H240V735H300ZM97 255Q97 204 107.5 162.5Q118 121 139 91Q160 61 192.5 44.5Q225 28 270 28Q313 28 343 41Q373 54 391 75Q409 96 417 123.5Q425 151 425 180H465V166Q465 137 455 106Q445 75 421.5 49.5Q398 24 361 7Q324 -10 270 -10Q213 -10 172.5 11Q132 32 106 68Q80 104 67.5 152.5Q55 201 55 255V275Q55 329 67.5 377.5Q80 426 106 462Q132 498 172.5 519Q213 540 270 540Q324 540 361 522.5Q398 505 421.5 478Q445 451 455 419Q465 387 465 359V340H425Q425 374 416.5 403.5Q408 433 389.5 455Q371 477 341.5 489.5Q312 502 270 502Q225 502 192.5 485.5Q160 469 139 439Q118 409 107.5 367.5Q97 326 97 275Z" glyph-name="cdotaccent" horiz-adv-x="520" unicode="&#267;" /><glyph d="M172 -158Q185 -166 203.5 -171.5Q222 -177 242 -177Q277 -177 294 -168Q311 -159 311 -136Q311 -114 292.5 -105.5Q274 -97 246 -97Q241 -97 236.5 -97.5Q232 -98 228 -98Q224 -99 220 -99L203 -83L234 0H270L246 -64H251Q267 -64 283.5 -67.5Q300 -71 313.5 -79Q327 -87 335.5 -100.5Q344 -114 344 -135Q344 -176 316 -193Q288 -210 247 -210Q222 -210 198 -204.5Q174 -199 159 -188Z" glyph-name="cedilla" horiz-adv-x="602" unicode="&#184;" /><glyph d="M112 378Q112 181 211 122L346 684Q339 685 332 685.5Q325 686 317 686H314Q217 686 164.5 616Q112 546 112 403ZM393 715Q465 693 497.5 635.5Q530 578 530 503V481H489Q489 562 464 611Q439 660 384 677L247 105Q277 96 314 96H317Q363 96 396 109Q429 122 449.5 146Q470 170 479.5 203.5Q489 237 489 278H530V266Q530 222 518 184Q506 146 479.5 117.5Q453 89 412.5 72.5Q372 56 315 56Q271 56 238 66L208 -60H168L201 80Q136 113 103 188.5Q70 264 70 378V403Q70 560 132 643Q194 726 315 726Q337 726 355 723L383 840H423Z" glyph-name="cent" horiz-adv-x="600" unicode="&#162;" /><glyph d="M105 620 235 780H265L395 620H350L250 744L150 620Z" glyph-name="circumflex" horiz-adv-x="500" unicode="&#710;" /><glyph d="M135 840 235 950H265L365 840H320L250 917L180 840Z" glyph-name="circumflex.cap" horiz-adv-x="500" unicode="&#58403;" /><glyph d="M349 0Q368 37 381.5 73Q395 109 404.5 147Q414 185 420.5 227Q427 269 431 320L428 321Q415 290 396 261Q377 232 352 209.5Q327 187 296 173.5Q265 160 228 160Q191 160 159 173.5Q127 187 103 210.5Q79 234 65.5 265.5Q52 297 52 334Q52 373 64.5 406Q77 439 100 463Q123 487 155 500.5Q187 514 226 514Q252 514 272.5 507Q293 500 310 491L312 493Q295 518 284.5 547.5Q274 577 274 610Q274 647 287.5 680Q301 713 324.5 737.5Q348 762 380 776Q412 790 450 790Q488 790 520 776Q552 762 575.5 737.5Q599 713 612.5 680Q626 647 626 610Q626 577 615.5 547.5Q605 518 588 493L590 491Q607 500 627.5 507Q648 514 674 514Q713 514 745 500.5Q777 487 800 463Q823 439 835.5 406Q848 373 848 334Q848 297 834.5 265.5Q821 234 797 210.5Q773 187 741 173.5Q709 160 672 160Q635 160 604 173.5Q573 187 548 209.5Q523 232 504 261Q485 290 472 321L469 320Q473 269 479.5 227Q486 185 495.5 147Q505 109 518.5 73Q532 37 551 0Z" glyph-name="club" horiz-adv-x="900" unicode="&#9827;" /><glyph d="M130 360H70V420H130ZM130 0H70V60H130Z" glyph-name="colon" horiz-adv-x="200" unicode=":" /><glyph d="M180 360H120V420H180ZM180 0H120V60H180Z" glyph-name="colon.T" horiz-adv-x="300" unicode="&#61828;" /><glyph d="M130 12Q130 -110 40 -110V-80Q69 -80 83.5 -63.5Q98 -47 100 0H70V60H130Z" glyph-name="comma" horiz-adv-x="200" unicode="," /><glyph d="M180 12Q180 -110 90 -110V-80Q119 -80 133.5 -63.5Q148 -47 150 0H120V60H180Z" glyph-name="comma.T" horiz-adv-x="300" unicode="&#61827;" /><glyph d="M280 -108Q280 -155 256 -182.5Q232 -210 190 -210V-180Q214 -180 231 -166Q248 -152 250 -120H220V-60H280Z" glyph-name="commaaccent" horiz-adv-x="602" unicode="&#58388;" /><glyph d="M220 888Q220 916 237 938Q254 960 295 960V930Q272 930 262 923.5Q252 917 250 900H280V840H220Z" glyph-name="commaaccent.cap" horiz-adv-x="500" unicode="&#58414;" /><glyph d="M460 185Q503 185 531.5 197Q560 209 576 227Q592 245 598.5 266Q605 287 605 305H645V295Q645 276 636.5 250.5Q628 225 606.5 201.5Q585 178 549.5 161.5Q514 145 460 145Q403 145 364 167Q325 189 301 223.5Q277 258 266 299.5Q255 341 255 380V400Q255 439 266 480.5Q277 522 301 556.5Q325 591 364 613Q403 635 460 635Q514 635 549.5 618Q585 601 606.5 576.5Q628 552 636.5 525.5Q645 499 645 480V465H605Q605 487 598 510.5Q591 534 574.5 552.5Q558 571 530 583Q502 595 460 595Q415 595 384 577.5Q353 560 333.5 532.5Q314 505 305.5 470Q297 435 297 400V380Q297 345 305.5 310Q314 275 333.5 247.5Q353 220 384 202.5Q415 185 460 185ZM98 390Q98 315 126.5 249Q155 183 204 134Q253 85 319 56.5Q385 28 460 28Q535 28 601 56.5Q667 85 716 134Q765 183 793.5 249Q822 315 822 390Q822 465 793.5 531Q765 597 716 646Q667 695 601 723.5Q535 752 460 752Q385 752 319 723.5Q253 695 204 646Q155 597 126.5 531Q98 465 98 390ZM60 390Q60 473 91.5 546Q123 619 177 673Q231 727 304 758.5Q377 790 460 790Q543 790 616 758.5Q689 727 743 673Q797 619 828.5 546Q860 473 860 390Q860 307 828.5 234Q797 161 743 107Q689 53 616 21.5Q543 -10 460 -10Q377 -10 304 21.5Q231 53 177 107Q123 161 91.5 234Q60 307 60 390Z" glyph-name="copyright" horiz-adv-x="920" unicode="&#169;" /><glyph d="M415 410Q406 425 392.5 441Q379 457 361 470.5Q343 484 319 493Q295 502 265 502Q180 502 138.5 440.5Q97 379 97 275V255Q97 151 138.5 89.5Q180 28 265 28Q295 28 319 36.5Q343 45 361 58.5Q379 72 392.5 88.5Q406 105 415 120ZM260 540Q320 540 357 517.5Q394 495 415 464V800H455V150L460 0H430L420 75Q400 41 361.5 15.5Q323 -10 260 -10Q206 -10 167 11Q128 32 103 68Q78 104 66.5 152.5Q55 201 55 255V275Q55 329 66.5 377.5Q78 426 103 462Q128 498 167 519Q206 540 260 540Z" glyph-name="d" horiz-adv-x="525" unicode="d" /><glyph d="M20 640 160 635V605L20 600ZM360 600 220 605V635L360 640ZM210 800 205 650H175L170 800ZM175 590H205L210 465L205 340H175L170 465Z" glyph-name="dagger" horiz-adv-x="380" unicode="&#8224;" /><glyph d="M170 515 175 590H205L210 515ZM210 515 205 440H175L170 515ZM20 430 160 425V395L20 390ZM360 390 220 395V425L360 430ZM20 640 160 635V605L20 600ZM360 600 220 605V635L360 640ZM210 800 205 650H175L170 800ZM175 380H205L210 255L205 130H175L170 255Z" glyph-name="daggerdbl" horiz-adv-x="380" unicode="&#8225;" /><glyph d="M580 800 565 620H535V800ZM415 410Q406 425 392.5 441Q379 457 361 470.5Q343 484 319 493Q295 502 265 502Q180 502 138.5 440.5Q97 379 97 275V255Q97 151 138.5 89.5Q180 28 265 28Q295 28 319 36.5Q343 45 361 58.5Q379 72 392.5 88.5Q406 105 415 120ZM260 540Q320 540 357 517.5Q394 495 415 464V800H455V150L460 0H430L420 75Q400 41 361.5 15.5Q323 -10 260 -10Q206 -10 167 11Q128 32 103 68Q78 104 66.5 152.5Q55 201 55 255V275Q55 329 66.5 377.5Q78 426 103 462Q128 498 167 519Q206 540 260 540Z" glyph-name="dcaron" horiz-adv-x="525" unicode="&#271;" /><glyph d="M415 410Q406 425 392.5 441Q379 457 361 470.5Q343 484 319 493Q295 502 265 502Q180 502 138.5 440.5Q97 379 97 275V255Q97 151 138.5 89.5Q180 28 265 28Q295 28 319 36.5Q343 45 361 58.5Q379 72 392.5 88.5Q406 105 415 120ZM555 646H455V150L460 0H430L420 75Q400 41 361.5 15.5Q323 -10 260 -10Q206 -10 167 11Q128 32 103 68Q78 104 66.5 152.5Q55 201 55 255V275Q55 329 66.5 377.5Q78 426 103 462Q128 498 167 519Q206 540 260 540Q320 540 357 517.5Q394 495 415 464V646H275V684H415V800H455V684H555Z" glyph-name="dcroat" horiz-adv-x="525" unicode="&#273;" /><glyph d="M465 865H405V925H465ZM415 410Q406 425 392.5 441Q379 457 361 470.5Q343 484 319 493Q295 502 265 502Q180 502 138.5 440.5Q97 379 97 275V255Q97 151 138.5 89.5Q180 28 265 28Q295 28 319 36.5Q343 45 361 58.5Q379 72 392.5 88.5Q406 105 415 120ZM260 540Q320 540 357 517.5Q394 495 415 464V800H455V150L460 0H430L420 75Q400 41 361.5 15.5Q323 -10 260 -10Q206 -10 167 11Q128 32 103 68Q78 104 66.5 152.5Q55 201 55 255V275Q55 329 66.5 377.5Q78 426 103 462Q128 498 167 519Q206 540 260 540Z" glyph-name="ddotaccent" horiz-adv-x="525" unicode="&#7691;" /><glyph d="M350 638Q350 603 338.5 576Q327 549 307 529.5Q287 510 259.5 500Q232 490 200 490Q168 490 140.5 500Q113 510 93 529.5Q73 549 61.5 576Q50 603 50 638V642Q50 676 61.5 703.5Q73 731 93 750.5Q113 770 140.5 780Q168 790 200 790Q232 790 259.5 780Q287 770 307 750.5Q327 731 338.5 703.5Q350 676 350 642ZM312 644Q312 695 280 723.5Q248 752 203 752H197Q152 752 120 723.5Q88 695 88 644V636Q88 585 120 556.5Q152 528 197 528H203Q248 528 280 556.5Q312 585 312 636Z" glyph-name="degree" horiz-adv-x="400" unicode="&#176;" /><glyph d="M817 390Q764 348 712.5 300.5Q661 253 614 201.5Q567 150 525.5 96.5Q484 43 451 -10H449Q416 43 374.5 96.5Q333 150 286 201.5Q239 253 187.5 300.5Q136 348 83 390Q136 432 187.5 479.5Q239 527 286 578.5Q333 630 374.5 683.5Q416 737 449 790H451Q484 737 525.5 683.5Q567 630 614 578.5Q661 527 712.5 479.5Q764 432 817 390Z" glyph-name="diamond" horiz-adv-x="900" unicode="&#9830;" /><glyph d="M355 675H295V735H355ZM205 675H145V735H205Z" glyph-name="dieresis" horiz-adv-x="500" unicode="&#168;" /><glyph d="M355 865H295V925H355ZM205 865H145V925H205Z" glyph-name="dieresis.cap" horiz-adv-x="500" unicode="&#58409;" /><glyph d="M330 580H270V640H330ZM330 140H270V200H330ZM50 410H550V370H50Z" glyph-name="divide" horiz-adv-x="600" unicode="&#247;" /><glyph d="M120 553Q120 500 156.5 466.5Q193 433 282 420L346 685Q325 688 302 688H299Q262 688 229.5 679Q197 670 172.5 653.5Q148 637 134 613Q120 589 120 558ZM312 92Q393 92 440.5 129Q488 166 488 233V238Q488 305 444 335.5Q400 366 313 379L246 99Q273 92 309 92ZM392 713Q460 692 491.5 640.5Q523 589 523 515V498H483Q483 640 383 675L321 415Q431 401 480.5 359Q530 317 530 242V235Q530 194 514.5 160.5Q499 127 470.5 103.5Q442 80 401.5 67Q361 54 310 54Q272 54 237 62L208 -60H168L200 73Q136 99 103 150Q70 201 70 264V271H110Q110 214 136 173.5Q162 133 209 112L274 384Q220 391 182.5 406.5Q145 422 121.5 443.5Q98 465 88 491.5Q78 518 78 548V554Q78 593 94.5 624.5Q111 656 140.5 678.5Q170 701 210.5 713.5Q251 726 300 726Q314 726 328 725Q342 724 355 722L383 840H423Z" glyph-name="dollar" horiz-adv-x="600" unicode="$" /><glyph d="M280 675H220V735H280Z" glyph-name="dotaccent" horiz-adv-x="500" unicode="&#729;" /><glyph d="M280 865H220V925H280Z" glyph-name="dotaccent.cap" horiz-adv-x="500" unicode="&#58408;" /><glyph d="M280 -160H220V-100H280Z" glyph-name="dotbelow" horiz-adv-x="602" unicode="&#58389;" /><glyph d="M80 530H120V0H80Z" glyph-name="dotlessi" horiz-adv-x="200" unicode="&#305;" /><glyph d="M80 530H120V-65Q120 -104 109.5 -132Q99 -160 80 -177Q61 -194 35.5 -202Q10 -210 -20 -210Q-50 -210 -67.5 -206Q-85 -202 -90 -200V-163Q-83 -166 -65.5 -169Q-48 -172 -30 -172Q-3 -172 18 -167Q39 -162 52.5 -149.5Q66 -137 73 -115.5Q80 -94 80 -60Z" glyph-name="dotlessj" horiz-adv-x="200" unicode="&#567;" /><glyph d="M170 840H210V-120H170ZM70 840H110V-120H70Z" glyph-name="doublebar" horiz-adv-x="280" unicode="&#8214;" /><glyph d="M170 780H210V0H170ZM70 780H110V0H70Z" glyph-name="doublebar.cap" horiz-adv-x="280" unicode="&#58468;" /><glyph d="M236 780 326 620H284L194 780ZM126 780 216 620H174L84 780Z" glyph-name="doublegrave" horiz-adv-x="500" unicode="&#58386;" /><glyph d="M154 950 216 840H174L112 950ZM264 950 326 840H284L222 950Z" glyph-name="doublegrave.cap" horiz-adv-x="500" unicode="&#58412;" /><glyph d="M270 502Q226 502 194 486Q162 470 140.5 441.5Q119 413 108.5 373Q98 333 97 284H443Q442 333 431 373Q420 413 399 441.5Q378 470 345.5 486Q313 502 270 502ZM97 246Q98 197 108.5 157Q119 117 140.5 88.5Q162 60 195.5 44Q229 28 275 28Q321 28 353.5 41Q386 54 406 74.5Q426 95 435.5 120.5Q445 146 445 170H485V166Q485 137 473 106Q461 75 435.5 49.5Q410 24 370 7Q330 -10 275 -10Q217 -10 175.5 11Q134 32 107 68Q80 104 67.5 152.5Q55 201 55 255V275Q55 329 67.5 377.5Q80 426 106 462Q132 498 172.5 519Q213 540 270 540Q327 540 367.5 519Q408 498 434 462Q460 426 472.5 377.5Q485 329 485 275V246Z" glyph-name="e" horiz-adv-x="540" unicode="e" /><glyph d="M381 780 291 620H249L339 780ZM270 502Q226 502 194 486Q162 470 140.5 441.5Q119 413 108.5 373Q98 333 97 284H443Q442 333 431 373Q420 413 399 441.5Q378 470 345.5 486Q313 502 270 502ZM97 246Q98 197 108.5 157Q119 117 140.5 88.5Q162 60 195.5 44Q229 28 275 28Q321 28 353.5 41Q386 54 406 74.5Q426 95 435.5 120.5Q445 146 445 170H485V166Q485 137 473 106Q461 75 435.5 49.5Q410 24 370 7Q330 -10 275 -10Q217 -10 175.5 11Q134 32 107 68Q80 104 67.5 152.5Q55 201 55 255V275Q55 329 67.5 377.5Q80 426 106 462Q132 498 172.5 519Q213 540 270 540Q327 540 367.5 519Q408 498 434 462Q460 426 472.5 377.5Q485 329 485 275V246Z" glyph-name="eacute" horiz-adv-x="540" unicode="&#233;" /><glyph d="M270 610Q191 610 154.5 657.5Q118 705 118 780H154Q154 751 160 726Q166 701 180 682.5Q194 664 216 653.5Q238 643 270 643Q302 643 324 653.5Q346 664 360 682.5Q374 701 380 726Q386 751 386 780H422Q422 705 385.5 657.5Q349 610 270 610ZM270 502Q226 502 194 486Q162 470 140.5 441.5Q119 413 108.5 373Q98 333 97 284H443Q442 333 431 373Q420 413 399 441.5Q378 470 345.5 486Q313 502 270 502ZM97 246Q98 197 108.5 157Q119 117 140.5 88.5Q162 60 195.5 44Q229 28 275 28Q321 28 353.5 41Q386 54 406 74.5Q426 95 435.5 120.5Q445 146 445 170H485V166Q485 137 473 106Q461 75 435.5 49.5Q410 24 370 7Q330 -10 275 -10Q217 -10 175.5 11Q134 32 107 68Q80 104 67.5 152.5Q55 201 55 255V275Q55 329 67.5 377.5Q80 426 106 462Q132 498 172.5 519Q213 540 270 540Q327 540 367.5 519Q408 498 434 462Q460 426 472.5 377.5Q485 329 485 275V246Z" glyph-name="ebreve" horiz-adv-x="540" unicode="&#277;" /><glyph d="M170 780 270 656 370 780H415L285 620H255L125 780ZM270 502Q226 502 194 486Q162 470 140.5 441.5Q119 413 108.5 373Q98 333 97 284H443Q442 333 431 373Q420 413 399 441.5Q378 470 345.5 486Q313 502 270 502ZM97 246Q98 197 108.5 157Q119 117 140.5 88.5Q162 60 195.5 44Q229 28 275 28Q321 28 353.5 41Q386 54 406 74.5Q426 95 435.5 120.5Q445 146 445 170H485V166Q485 137 473 106Q461 75 435.5 49.5Q410 24 370 7Q330 -10 275 -10Q217 -10 175.5 11Q134 32 107 68Q80 104 67.5 152.5Q55 201 55 255V275Q55 329 67.5 377.5Q80 426 106 462Q132 498 172.5 519Q213 540 270 540Q327 540 367.5 519Q408 498 434 462Q460 426 472.5 377.5Q485 329 485 275V246Z" glyph-name="ecaron" horiz-adv-x="540" unicode="&#283;" /><glyph d="M125 620 255 780H285L415 620H370L270 744L170 620ZM270 502Q226 502 194 486Q162 470 140.5 441.5Q119 413 108.5 373Q98 333 97 284H443Q442 333 431 373Q420 413 399 441.5Q378 470 345.5 486Q313 502 270 502ZM97 246Q98 197 108.5 157Q119 117 140.5 88.5Q162 60 195.5 44Q229 28 275 28Q321 28 353.5 41Q386 54 406 74.5Q426 95 435.5 120.5Q445 146 445 170H485V166Q485 137 473 106Q461 75 435.5 49.5Q410 24 370 7Q330 -10 275 -10Q217 -10 175.5 11Q134 32 107 68Q80 104 67.5 152.5Q55 201 55 255V275Q55 329 67.5 377.5Q80 426 106 462Q132 498 172.5 519Q213 540 270 540Q327 540 367.5 519Q408 498 434 462Q460 426 472.5 377.5Q485 329 485 275V246Z" glyph-name="ecircumflex" horiz-adv-x="540" unicode="&#234;" /><glyph d="M375 675H315V735H375ZM225 675H165V735H225ZM270 502Q226 502 194 486Q162 470 140.5 441.5Q119 413 108.5 373Q98 333 97 284H443Q442 333 431 373Q420 413 399 441.5Q378 470 345.5 486Q313 502 270 502ZM97 246Q98 197 108.5 157Q119 117 140.5 88.5Q162 60 195.5 44Q229 28 275 28Q321 28 353.5 41Q386 54 406 74.5Q426 95 435.5 120.5Q445 146 445 170H485V166Q485 137 473 106Q461 75 435.5 49.5Q410 24 370 7Q330 -10 275 -10Q217 -10 175.5 11Q134 32 107 68Q80 104 67.5 152.5Q55 201 55 255V275Q55 329 67.5 377.5Q80 426 106 462Q132 498 172.5 519Q213 540 270 540Q327 540 367.5 519Q408 498 434 462Q460 426 472.5 377.5Q485 329 485 275V246Z" glyph-name="edieresis" horiz-adv-x="540" unicode="&#235;" /><glyph d="M300 675H240V735H300ZM270 502Q226 502 194 486Q162 470 140.5 441.5Q119 413 108.5 373Q98 333 97 284H443Q442 333 431 373Q420 413 399 441.5Q378 470 345.5 486Q313 502 270 502ZM97 246Q98 197 108.5 157Q119 117 140.5 88.5Q162 60 195.5 44Q229 28 275 28Q321 28 353.5 41Q386 54 406 74.5Q426 95 435.5 120.5Q445 146 445 170H485V166Q485 137 473 106Q461 75 435.5 49.5Q410 24 370 7Q330 -10 275 -10Q217 -10 175.5 11Q134 32 107 68Q80 104 67.5 152.5Q55 201 55 255V275Q55 329 67.5 377.5Q80 426 106 462Q132 498 172.5 519Q213 540 270 540Q327 540 367.5 519Q408 498 434 462Q460 426 472.5 377.5Q485 329 485 275V246Z" glyph-name="edotaccent" horiz-adv-x="540" unicode="&#279;" /><glyph d="M201 780 291 620H249L159 780ZM270 502Q226 502 194 486Q162 470 140.5 441.5Q119 413 108.5 373Q98 333 97 284H443Q442 333 431 373Q420 413 399 441.5Q378 470 345.5 486Q313 502 270 502ZM97 246Q98 197 108.5 157Q119 117 140.5 88.5Q162 60 195.5 44Q229 28 275 28Q321 28 353.5 41Q386 54 406 74.5Q426 95 435.5 120.5Q445 146 445 170H485V166Q485 137 473 106Q461 75 435.5 49.5Q410 24 370 7Q330 -10 275 -10Q217 -10 175.5 11Q134 32 107 68Q80 104 67.5 152.5Q55 201 55 255V275Q55 329 67.5 377.5Q80 426 106 462Q132 498 172.5 519Q213 540 270 540Q327 540 367.5 519Q408 498 434 462Q460 426 472.5 377.5Q485 329 485 275V246Z" glyph-name="egrave" horiz-adv-x="540" unicode="&#232;" /><glyph d="M295 752Q207 752 154.5 707Q102 662 102 583V576Q102 535 116.5 505Q131 475 156.5 455.5Q182 436 215.5 426.5Q249 417 288 417H312Q351 417 384.5 426.5Q418 436 443.5 455.5Q469 475 483.5 505Q498 535 498 576V583Q498 662 445.5 707Q393 752 305 752ZM283 379Q244 379 210.5 368Q177 357 151.5 335.5Q126 314 111.5 282Q97 250 97 207V192Q97 149 113.5 118Q130 87 157.5 67Q185 47 220.5 37.5Q256 28 295 28H305Q344 28 379.5 37.5Q415 47 442.5 67Q470 87 486.5 118Q503 149 503 192V207Q503 250 488.5 282Q474 314 448.5 335.5Q423 357 389.5 368Q356 379 317 379ZM300 -10Q250 -10 205.5 3Q161 16 127.5 42Q94 68 74.5 106Q55 144 55 194V209Q55 285 94.5 332.5Q134 380 200 398Q137 415 98.5 458.5Q60 502 60 574V588Q60 686 124.5 738Q189 790 300 790Q411 790 475.5 738Q540 686 540 588V574Q540 502 501 458.5Q462 415 399 398Q465 380 505 332.5Q545 285 545 209V194Q545 144 525.5 106Q506 68 472.5 42Q439 16 394.5 3Q350 -10 300 -10Z" glyph-name="eight" horiz-adv-x="600" unicode="8" /><glyph d="M147 163Q109 163 86 143.5Q63 124 63 89V85Q63 49 86.5 32Q110 15 145 15H155Q189 15 212.5 32Q236 49 236 85V89Q236 124 213 143.5Q190 163 152 163ZM143 -17Q108 -17 84.5 -36Q61 -55 61 -93V-100Q61 -138 87.5 -156Q114 -174 147 -174H152Q186 -174 212.5 -156Q239 -138 239 -100V-93Q239 -55 215.5 -36Q192 -17 157 -17ZM150 -206Q94 -206 59.5 -177Q25 -148 25 -101V-93Q25 -57 42.5 -34.5Q60 -12 88 -1Q61 8 44.5 29.5Q28 51 28 86V93Q28 139 59 167Q90 195 150 195Q210 195 241 167Q272 139 272 93V86Q272 51 255 29.5Q238 8 211 -1Q239 -12 256.5 -34.5Q274 -57 274 -93V-101Q274 -148 239.5 -177Q205 -206 150 -206Z" glyph-name="eight.inf" horiz-adv-x="300" unicode="&#58745;" /><glyph d="M835 0V32H937V343L845 281L827 309L950 392H973V32H1074V0ZM335 390V422H437V733L345 671L327 699L450 782H473V422H574V390ZM35 390V422H137V733L45 671L27 699L150 782H173V422H274V390ZM1253 213Q1223 213 1199.5 198Q1176 183 1163 158V130Q1163 81 1188.5 53.5Q1214 26 1250 26H1253Q1293 26 1317 49.5Q1341 73 1341 116V124Q1341 167 1317.5 190Q1294 213 1256 213ZM390 0 966 780H1010L434 0ZM1358 363Q1320 363 1279.5 347Q1239 331 1211 294Q1182 256 1171 209Q1187 225 1209 235Q1231 245 1259 245Q1310 245 1343 215Q1376 185 1376 122V117Q1376 55 1342 24.5Q1308 -6 1252 -6Q1198 -6 1162.5 29.5Q1127 65 1127 131V137Q1127 184 1139 228.5Q1151 273 1182 315Q1214 358 1262.5 376.5Q1311 395 1358 395Z" glyph-name="elevensixteenths" horiz-adv-x="1400" unicode="&#61984;" /><glyph d="M530 0H470V60H530ZM850 0H790V60H850ZM210 0H150V60H210Z" glyph-name="ellipsis" horiz-adv-x="1000" unicode="&#8230;" /><glyph d="M165 720H375V680H165ZM270 502Q226 502 194 486Q162 470 140.5 441.5Q119 413 108.5 373Q98 333 97 284H443Q442 333 431 373Q420 413 399 441.5Q378 470 345.5 486Q313 502 270 502ZM97 246Q98 197 108.5 157Q119 117 140.5 88.5Q162 60 195.5 44Q229 28 275 28Q321 28 353.5 41Q386 54 406 74.5Q426 95 435.5 120.5Q445 146 445 170H485V166Q485 137 473 106Q461 75 435.5 49.5Q410 24 370 7Q330 -10 275 -10Q217 -10 175.5 11Q134 32 107 68Q80 104 67.5 152.5Q55 201 55 255V275Q55 329 67.5 377.5Q80 426 106 462Q132 498 172.5 519Q213 540 270 540Q327 540 367.5 519Q408 498 434 462Q460 426 472.5 377.5Q485 329 485 275V246Z" glyph-name="emacron" horiz-adv-x="540" unicode="&#275;" /><glyph d="M40 369H960V331H40Z" glyph-name="emdash" horiz-adv-x="1000" unicode="&#8212;" /><glyph d="M40 409H960V371H40Z" glyph-name="emdash.cap" horiz-adv-x="1000" unicode="&#58502;" /><glyph glyph-name="emspace" horiz-adv-x="1000" unicode="&#8195;" /><glyph d="M40 369H460V331H40Z" glyph-name="endash" horiz-adv-x="500" unicode="&#8211;" /><glyph d="M40 409H460V371H40Z" glyph-name="endash.cap" horiz-adv-x="500" unicode="&#58500;" /><glyph d="M405 370Q405 406 395 431Q385 456 368 471.5Q351 487 327 494.5Q303 502 275 502Q239 502 212.5 493Q186 484 166.5 470.5Q147 457 133 441Q119 425 110 410V0H70V380L65 530H95L104 452Q115 469 131 485Q147 501 169.5 513Q192 525 220.5 532.5Q249 540 285 540Q360 540 402.5 495Q445 450 445 375V-65Q445 -104 434.5 -132Q424 -160 405 -177Q386 -194 360.5 -202Q335 -210 305 -210Q275 -210 257.5 -206Q240 -202 235 -200V-163Q242 -166 259.5 -169Q277 -172 295 -172Q322 -172 343 -167Q364 -162 377.5 -149.5Q391 -137 398 -115.5Q405 -94 405 -60Z" glyph-name="eng" horiz-adv-x="510" unicode="&#331;" /><glyph glyph-name="enspace" horiz-adv-x="500" unicode="&#8194;" /><glyph d="M270 502Q226 502 194 486Q162 470 140.5 441.5Q119 413 108.5 373Q98 333 97 284H443Q442 333 431 373Q420 413 399 441.5Q378 470 345.5 486Q313 502 270 502ZM256 -117Q256 -146 276 -161.5Q296 -177 330 -177Q346 -177 362 -173.5Q378 -170 391 -163L403 -191Q387 -201 366 -205.5Q345 -210 327 -210Q279 -210 251 -187.5Q223 -165 223 -117Q223 -82 238 -56Q253 -30 276 -10H275Q217 -10 175.5 11Q134 32 107 68Q80 104 67.5 152.5Q55 201 55 255V275Q55 329 67.5 377.5Q80 426 106 462Q132 498 172.5 519Q213 540 270 540Q327 540 367.5 519Q408 498 434 462Q460 426 472.5 377.5Q485 329 485 275V246H97Q98 197 108.5 157Q119 117 140.5 88.5Q162 60 195.5 44Q229 28 275 28Q321 28 353.5 41Q386 54 406 74.5Q426 95 435.5 120.5Q445 146 445 170H485V166Q485 143 477.5 118Q470 93 453.5 70.5Q437 48 411.5 29Q386 10 350 0Q334 -5 317.5 -15Q301 -25 287.5 -40Q274 -55 265 -74.5Q256 -94 256 -117Z" glyph-name="eogonek" horiz-adv-x="540" unicode="&#281;" /><glyph d="M50 310H550V270H50ZM50 510H550V470H50Z" glyph-name="equal" horiz-adv-x="600" unicode="=" /><glyph d="M24 -40H276V-73H24ZM24 62H276V29H24Z" glyph-name="equal.inf" horiz-adv-x="300" unicode="&#58749;" /><glyph d="M50 410H550V370H50ZM50 210H550V170H50ZM50 610H550V570H50Z" glyph-name="equivalence" horiz-adv-x="600" unicode="&#8801;" /><glyph d="M270 28Q315 28 347.5 44.5Q380 61 401 91Q422 121 432.5 162.5Q443 204 443 255V275Q443 326 432.5 367.5Q422 409 401 439Q380 469 347.5 485.5Q315 502 270 502Q225 502 192.5 485.5Q160 469 139 439Q118 409 107.5 367.5Q97 326 97 275V255Q97 204 107.5 162.5Q118 121 139 91Q160 61 192.5 44.5Q225 28 270 28ZM55 810Q113 805 166.5 789.5Q220 774 271 742L387 810V767L305 719Q336 695 366 664Q402 626 425 577Q448 528 461.5 475Q475 422 480 370Q485 318 485 275V255Q485 201 472.5 152.5Q460 104 434 68Q408 32 367.5 11Q327 -10 270 -10Q213 -10 172.5 11Q132 32 106 68Q80 104 67.5 152.5Q55 201 55 255V275Q55 329 67.5 377.5Q80 426 106 462Q132 498 172.5 519Q213 540 270 540Q326 540 364 519.5Q402 499 425 464Q411 512 389 557.5Q367 603 334 638Q299 673 266 696L97 597V640L230 718Q188 741 144.5 753.5Q101 766 55 772Z" glyph-name="eth" horiz-adv-x="540" unicode="&#240;" /><glyph d="M130 0H70V60H130ZM123 780 112 175H88L77 780Z" glyph-name="exclam" horiz-adv-x="200" unicode="!" /><glyph d="M70 530H130V470H70ZM77 -200 88 355H112L123 -200Z" glyph-name="exclamdown" horiz-adv-x="200" unicode="&#161;" /><glyph d="M70 780H130V720H70ZM77 0 88 605H112L123 0Z" glyph-name="exclamdown.cap" horiz-adv-x="200" unicode="&#58433;" /><glyph d="M160 530H320V492H160V0H120V492H35V530H120V665Q120 704 130.5 732Q141 760 160 777Q179 794 204.5 802Q230 810 260 810Q290 810 307.5 806Q325 802 330 800V763Q323 766 305.5 769Q288 772 270 772Q243 772 222 767Q201 762 187.5 749.5Q174 737 167 715.5Q160 694 160 660Z" glyph-name="f" horiz-adv-x="370" unicode="f" /><glyph d="M270 865H210V925H270ZM160 530H320V492H160V0H120V492H35V530H120V665Q120 704 130.5 732Q141 760 160 777Q179 794 204.5 802Q230 810 260 810Q290 810 307.5 806Q325 802 330 800V763Q323 766 305.5 769Q288 772 270 772Q243 772 222 767Q201 762 187.5 749.5Q174 737 167 715.5Q160 694 160 660Z" glyph-name="fdotaccent" horiz-adv-x="370" unicode="&#7711;" /><glyph d="M500 675H440V735H500ZM450 530H490V0H450ZM160 530H320V492H160V0H120V492H35V530H120V665Q120 704 130.5 732Q141 760 160 777Q179 794 204.5 802Q230 810 260 810Q290 810 307.5 806Q325 802 330 800V763Q323 766 305.5 769Q288 772 270 772Q243 772 222 767Q201 762 187.5 749.5Q174 737 167 715.5Q160 694 160 660Z" glyph-name="fi" horiz-adv-x="570" unicode="&#64257;" /><glyph d="M835 0V32H937V343L845 281L827 309L950 392H973V32H1074V0ZM35 390V422H137V733L45 671L27 699L150 782H173V422H274V390ZM1253 213Q1223 213 1199.5 198Q1176 183 1163 158V130Q1163 81 1188.5 53.5Q1214 26 1250 26H1253Q1293 26 1317 49.5Q1341 73 1341 116V124Q1341 167 1317.5 190Q1294 213 1256 213ZM390 0 966 780H1010L434 0ZM361 515Q361 464 383.5 440Q406 416 447 416H452Q486 416 512.5 437.5Q539 459 539 506V515Q539 539 531.5 556Q524 573 512 584Q500 595 484 600Q468 605 451 605H447Q420 605 394.5 591.5Q369 578 358 552L328 561L338 780H569V747H372L366 608Q382 622 403.5 629.5Q425 637 451 637Q504 637 539 605.5Q574 574 574 514V508Q574 447 539 415.5Q504 384 450 384Q386 384 355.5 417.5Q325 451 325 509V515ZM1358 363Q1320 363 1279.5 347Q1239 331 1211 294Q1182 256 1171 209Q1187 225 1209 235Q1231 245 1259 245Q1310 245 1343 215Q1376 185 1376 122V117Q1376 55 1342 24.5Q1308 -6 1252 -6Q1198 -6 1162.5 29.5Q1127 65 1127 131V137Q1127 184 1139 228.5Q1151 273 1182 315Q1214 358 1262.5 376.5Q1311 395 1358 395Z" glyph-name="fifteensixteenths" horiz-adv-x="1400" unicode="&#61986;" /><glyph d="M40 369H560V331H40Z" glyph-name="figuredash" horiz-adv-x="600" unicode="&#8210;" /><glyph d="M40 409H560V371H40Z" glyph-name="figuredash.cap" horiz-adv-x="600" unicode="&#58503;" /><glyph glyph-name="figurespace" horiz-adv-x="600" unicode="&#8199;" /><glyph d="M95 250Q95 136 147.5 82Q200 28 295 28H305Q344 28 379.5 39.5Q415 51 442.5 76Q470 101 486.5 139Q503 177 503 230V250Q503 303 486.5 341Q470 379 442.5 404Q415 429 379.5 440.5Q344 452 305 452H295Q264 452 233.5 444.5Q203 437 176 422Q149 407 127.5 384Q106 361 94 330L61 339L80 780H535V740H118L104 405Q136 446 186 468Q236 490 300 490Q350 490 394.5 474.5Q439 459 472.5 428.5Q506 398 525.5 352Q545 306 545 245V235Q545 174 525.5 128Q506 82 472.5 51.5Q439 21 394.5 5.5Q350 -10 300 -10Q237 -10 190.5 7.5Q144 25 114 58Q84 91 69.5 137Q55 183 55 240V250Z" glyph-name="five" horiz-adv-x="600" unicode="5" /><glyph d="M61 -75Q61 -126 83.5 -150Q106 -174 147 -174H152Q186 -174 212.5 -152.5Q239 -131 239 -84V-75Q239 -51 231.5 -34Q224 -17 212 -6Q200 5 184 10Q168 15 151 15H147Q120 15 94.5 1.5Q69 -12 58 -38L28 -29L38 190H269V157H72L66 18Q82 32 103.5 39.5Q125 47 151 47Q204 47 239 15.5Q274 -16 274 -76V-82Q274 -143 239 -174.5Q204 -206 150 -206Q86 -206 55.5 -172.5Q25 -139 25 -81V-75Z" glyph-name="five.inf" horiz-adv-x="300" unicode="&#58742;" /><glyph d="M535 0V32H637V343L545 281L527 309L650 392H673V32H774V0ZM953 213Q923 213 899.5 198Q876 183 863 158V130Q863 81 888.5 53.5Q914 26 950 26H953Q993 26 1017 49.5Q1041 73 1041 116V124Q1041 167 1017.5 190Q994 213 956 213ZM90 0 666 780H710L134 0ZM61 515Q61 464 83.5 440Q106 416 147 416H152Q186 416 212.5 437.5Q239 459 239 506V515Q239 539 231.5 556Q224 573 212 584Q200 595 184 600Q168 605 151 605H147Q120 605 94.5 591.5Q69 578 58 552L28 561L38 780H269V747H72L66 608Q82 622 103.5 629.5Q125 637 151 637Q204 637 239 605.5Q274 574 274 514V508Q274 447 239 415.5Q204 384 150 384Q86 384 55.5 417.5Q25 451 25 509V515ZM1058 363Q1020 363 979.5 347Q939 331 911 294Q882 256 871 209Q887 225 909 235Q931 245 959 245Q1010 245 1043 215Q1076 185 1076 122V117Q1076 55 1042 24.5Q1008 -6 952 -6Q898 -6 862.5 29.5Q827 65 827 131V137Q827 184 839 228.5Q851 273 882 315Q914 358 962.5 376.5Q1011 395 1058 395Z" glyph-name="fivesixteenths" horiz-adv-x="1100" unicode="&#61975;" /><glyph d="M450 800H490V0H450ZM160 530H320V492H160V0H120V492H35V530H120V665Q120 704 130.5 732Q141 760 160 777Q179 794 204.5 802Q230 810 260 810Q290 810 307.5 806Q325 802 330 800V763Q323 766 305.5 769Q288 772 270 772Q243 772 222 767Q201 762 187.5 749.5Q174 737 167 715.5Q160 694 160 660Z" glyph-name="fl" horiz-adv-x="570" unicode="&#64258;" /><glyph d="M92 259 190 260H380V590L381 708ZM380 0V220H35V245L380 780H420V260H565V220H420V0Z" glyph-name="four" horiz-adv-x="600" unicode="4" /><glyph d="M60 -65 103 -64H183V78L184 129ZM183 -200V-97H16V-73L184 190H219V-64H283V-97H219V-200Z" glyph-name="four.inf" horiz-adv-x="300" unicode="&#58741;" /><glyph glyph-name="fourperemspace" horiz-adv-x="250" unicode="&#8197;" /><glyph d="M-210 0 366 780H410L-166 0Z" glyph-name="fraction" horiz-adv-x="200" unicode="&#8260;" /><glyph d="M415 410Q406 425 392.5 441Q379 457 361 470.5Q343 484 319 493Q295 502 265 502Q223 502 191.5 487Q160 472 139 444.5Q118 417 107.5 379Q97 341 97 295V275Q97 229 107.5 191Q118 153 139 125.5Q160 98 191.5 83Q223 68 265 68Q295 68 319 76.5Q343 85 361 98.5Q379 112 392.5 128.5Q406 145 415 160ZM415 105Q394 74 356.5 52Q319 30 260 30Q206 30 167 50Q128 70 103 103.5Q78 137 66.5 181.5Q55 226 55 275V295Q55 344 66.5 388Q78 432 103 466Q128 500 167 520Q206 540 260 540Q323 540 361.5 514.5Q400 489 420 455L430 530H460L455 380V-10Q455 -51 445 -87.5Q435 -124 412 -151Q389 -178 351.5 -194Q314 -210 260 -210Q206 -210 168.5 -194Q131 -178 108 -151Q85 -124 75 -87.5Q65 -51 65 -10V0H105Q105 -88 140.5 -130Q176 -172 260 -172Q346 -172 380.5 -128Q415 -84 415 -5Z" glyph-name="g" horiz-adv-x="525" unicode="g" /><glyph d="M260 610Q181 610 144.5 657.5Q108 705 108 780H144Q144 751 150 726Q156 701 170 682.5Q184 664 206 653.5Q228 643 260 643Q292 643 314 653.5Q336 664 350 682.5Q364 701 370 726Q376 751 376 780H412Q412 705 375.5 657.5Q339 610 260 610ZM415 410Q406 425 392.5 441Q379 457 361 470.5Q343 484 319 493Q295 502 265 502Q223 502 191.5 487Q160 472 139 444.5Q118 417 107.5 379Q97 341 97 295V275Q97 229 107.5 191Q118 153 139 125.5Q160 98 191.5 83Q223 68 265 68Q295 68 319 76.5Q343 85 361 98.5Q379 112 392.5 128.5Q406 145 415 160ZM415 105Q394 74 356.5 52Q319 30 260 30Q206 30 167 50Q128 70 103 103.5Q78 137 66.5 181.5Q55 226 55 275V295Q55 344 66.5 388Q78 432 103 466Q128 500 167 520Q206 540 260 540Q323 540 361.5 514.5Q400 489 420 455L430 530H460L455 380V-10Q455 -51 445 -87.5Q435 -124 412 -151Q389 -178 351.5 -194Q314 -210 260 -210Q206 -210 168.5 -194Q131 -178 108 -151Q85 -124 75 -87.5Q65 -51 65 -10V0H105Q105 -88 140.5 -130Q176 -172 260 -172Q346 -172 380.5 -128Q415 -84 415 -5Z" glyph-name="gbreve" horiz-adv-x="525" unicode="&#287;" /><glyph d="M115 620 245 780H275L405 620H360L260 744L160 620ZM415 410Q406 425 392.5 441Q379 457 361 470.5Q343 484 319 493Q295 502 265 502Q223 502 191.5 487Q160 472 139 444.5Q118 417 107.5 379Q97 341 97 295V275Q97 229 107.5 191Q118 153 139 125.5Q160 98 191.5 83Q223 68 265 68Q295 68 319 76.5Q343 85 361 98.5Q379 112 392.5 128.5Q406 145 415 160ZM415 105Q394 74 356.5 52Q319 30 260 30Q206 30 167 50Q128 70 103 103.5Q78 137 66.5 181.5Q55 226 55 275V295Q55 344 66.5 388Q78 432 103 466Q128 500 167 520Q206 540 260 540Q323 540 361.5 514.5Q400 489 420 455L430 530H460L455 380V-10Q455 -51 445 -87.5Q435 -124 412 -151Q389 -178 351.5 -194Q314 -210 260 -210Q206 -210 168.5 -194Q131 -178 108 -151Q85 -124 75 -87.5Q65 -51 65 -10V0H105Q105 -88 140.5 -130Q176 -172 260 -172Q346 -172 380.5 -128Q415 -84 415 -5Z" glyph-name="gcircumflex" horiz-adv-x="525" unicode="&#285;" /><glyph d="M230 668Q230 790 320 790V760Q291 760 276.5 743.5Q262 727 260 680H290V620H230ZM415 410Q406 425 392.5 441Q379 457 361 470.5Q343 484 319 493Q295 502 265 502Q223 502 191.5 487Q160 472 139 444.5Q118 417 107.5 379Q97 341 97 295V275Q97 229 107.5 191Q118 153 139 125.5Q160 98 191.5 83Q223 68 265 68Q295 68 319 76.5Q343 85 361 98.5Q379 112 392.5 128.5Q406 145 415 160ZM415 105Q394 74 356.5 52Q319 30 260 30Q206 30 167 50Q128 70 103 103.5Q78 137 66.5 181.5Q55 226 55 275V295Q55 344 66.5 388Q78 432 103 466Q128 500 167 520Q206 540 260 540Q323 540 361.5 514.5Q400 489 420 455L430 530H460L455 380V-10Q455 -51 445 -87.5Q435 -124 412 -151Q389 -178 351.5 -194Q314 -210 260 -210Q206 -210 168.5 -194Q131 -178 108 -151Q85 -124 75 -87.5Q65 -51 65 -10V0H105Q105 -88 140.5 -130Q176 -172 260 -172Q346 -172 380.5 -128Q415 -84 415 -5Z" glyph-name="gcommaaccent" horiz-adv-x="525" unicode="&#291;" /><glyph d="M290 675H230V735H290ZM265 68Q295 68 319 76.5Q343 85 361 98.5Q379 112 392.5 128.5Q406 145 415 160V410Q406 425 392.5 441Q379 457 361 470.5Q343 484 319 493Q295 502 265 502Q223 502 191.5 487Q160 472 139 444.5Q118 417 107.5 379Q97 341 97 295V275Q97 229 107.5 191Q118 153 139 125.5Q160 98 191.5 83Q223 68 265 68ZM415 105Q394 74 356.5 52Q319 30 260 30Q206 30 167 50Q128 70 103 103.5Q78 137 66.5 181.5Q55 226 55 275V295Q55 344 66.5 388Q78 432 103 466Q128 500 167 520Q206 540 260 540Q323 540 361.5 514.5Q400 489 420 455L430 530H460L455 380V-10Q455 -51 445 -87.5Q435 -124 412 -151Q389 -178 351.5 -194Q314 -210 260 -210Q206 -210 168.5 -194Q131 -178 108 -151Q85 -124 75 -87.5Q65 -51 65 -10V0H105Q105 -88 140.5 -130Q176 -172 260 -172Q346 -172 380.5 -128Q415 -84 415 -5Z" glyph-name="gdotaccent" horiz-adv-x="525" unicode="&#289;" /><glyph d="M255 410Q297 433 326.5 455Q356 477 374.5 500.5Q393 524 401.5 550.5Q410 577 410 610Q410 681 374.5 725.5Q339 770 260 770Q181 770 145.5 725.5Q110 681 110 610V0H70V614Q70 658 81.5 694.5Q93 731 116.5 756.5Q140 782 175.5 796Q211 810 260 810Q309 810 344.5 796Q380 782 403.5 756.5Q427 731 438.5 694.5Q450 658 450 614V608Q450 545 417.5 495Q385 445 307 396L365 358Q402 333 431 311Q460 289 480 265.5Q500 242 510 217Q520 192 520 161V157Q520 129 513 99.5Q506 70 487.5 45.5Q469 21 435.5 5.5Q402 -10 350 -10Q297 -10 264 5.5Q231 21 212.5 45.5Q194 70 187 99.5Q180 129 180 156V160H220Q220 135 225.5 111.5Q231 88 245.5 69.5Q260 51 285.5 39.5Q311 28 350 28Q389 28 414.5 39.5Q440 51 454.5 69.5Q469 88 474.5 111.5Q480 135 480 160Q480 187 470 208.5Q460 230 440.5 250Q421 270 392.5 291Q364 312 326 336L255 382Z" glyph-name="germandbls" horiz-adv-x="550" unicode="&#223;" /><glyph d="M181 780 271 620H229L139 780Z" glyph-name="grave" horiz-adv-x="500" unicode="`" /><glyph d="M209 950 271 840H229L167 950Z" glyph-name="grave.cap" horiz-adv-x="500" unicode="&#58401;" /><glyph d="M550 370 50 124V166L509 390L50 614V656L550 410Z" glyph-name="greater" horiz-adv-x="600" unicode="&gt;" /><glyph d="M50 166 550 345V303L50 124ZM494 457 50 614V656L550 477V437L50 258V300Z" glyph-name="greaterequal" horiz-adv-x="600" unicode="&#8805;" /><glyph d="M450 465 287 340 450 215V170L250 325V355L450 510ZM250 465 87 340 250 215V170L50 325V355L250 510Z" glyph-name="guillemotleft" horiz-adv-x="500" unicode="&#171;" /><glyph d="M450 515 287 390 450 265V220L250 375V405L450 560ZM250 515 87 390 250 265V220L50 375V405L250 560Z" glyph-name="guillemotleft.cap" horiz-adv-x="500" unicode="&#58451;" /><glyph d="M50 510 250 355V325L50 170V215L213 340L50 465ZM250 510 450 355V325L250 170V215L413 340L250 465Z" glyph-name="guillemotright" horiz-adv-x="500" unicode="&#187;" /><glyph d="M50 560 250 405V375L50 220V265L213 390L50 515ZM250 560 450 405V375L250 220V265L413 390L250 515Z" glyph-name="guillemotright.cap" horiz-adv-x="500" unicode="&#58452;" /><glyph d="M250 465 87 340 250 215V170L50 325V355L250 510Z" glyph-name="guilsinglleft" horiz-adv-x="300" unicode="&#8249;" /><glyph d="M250 515 87 390 250 265V220L50 375V405L250 560Z" glyph-name="guilsinglleft.cap" horiz-adv-x="300" unicode="&#58449;" /><glyph d="M50 510 250 355V325L50 170V215L213 340L50 465Z" glyph-name="guilsinglright" horiz-adv-x="300" unicode="&#8250;" /><glyph d="M50 560 250 405V375L50 220V265L213 390L50 515Z" glyph-name="guilsinglright.cap" horiz-adv-x="300" unicode="&#58450;" /><glyph d="M110 460Q133 492 175.5 516Q218 540 285 540Q360 540 402.5 495Q445 450 445 375V0H405V370Q405 406 395 431Q385 456 368 471.5Q351 487 327 494.5Q303 502 275 502Q239 502 212.5 493Q186 484 166.5 470.5Q147 457 133 441Q119 425 110 410V0H70V800H110Z" glyph-name="h" horiz-adv-x="510" unicode="h" /><glyph glyph-name="hairspace" horiz-adv-x="50" unicode="&#8202;" /><glyph d="M110 684H250V646H110V460Q133 492 175.5 516Q218 540 285 540Q360 540 402.5 495Q445 450 445 375V0H405V370Q405 406 395 431Q385 456 368 471.5Q351 487 327 494.5Q303 502 275 502Q239 502 212.5 493Q186 484 166.5 470.5Q147 457 133 441Q119 425 110 410V0H70V646H-30V684H70V800H110Z" glyph-name="hbar" horiz-adv-x="510" unicode="&#295;" /><glyph d="M-25 840 75 950H105L205 840H160L90 917L20 840ZM110 460Q133 492 175.5 516Q218 540 285 540Q360 540 402.5 495Q445 450 445 375V0H405V370Q405 406 395 431Q385 456 368 471.5Q351 487 327 494.5Q303 502 275 502Q239 502 212.5 493Q186 484 166.5 470.5Q147 457 133 441Q119 425 110 410V0H70V800H110Z" glyph-name="hcircumflex" horiz-adv-x="510" unicode="&#293;" /><glyph d="M449 -10Q437 9 414 40Q391 71 360 110Q329 149 292.5 193.5Q256 238 216 283Q190 312 161 348Q132 384 108 423.5Q84 463 68 504Q52 545 52 584Q52 628 65 666Q78 704 103 731.5Q128 759 163.5 774.5Q199 790 243 790Q289 790 323 777Q357 764 381 742.5Q405 721 421 692.5Q437 664 448 633H452Q463 664 479 692.5Q495 721 519 742.5Q543 764 576.5 777Q610 790 657 790Q701 790 736.5 774.5Q772 759 796.5 731.5Q821 704 834.5 666Q848 628 848 584Q848 545 832 504Q816 463 792 423.5Q768 384 739 348Q710 312 684 283Q644 238 607.5 193.5Q571 149 540 110Q509 71 486 40Q463 9 451 -10Z" glyph-name="heart" horiz-adv-x="900" unicode="&#9829;" /><glyph d="M70 0V450L425 790L780 450V0Z" glyph-name="house" horiz-adv-x="850" unicode="&#8962;" /><glyph d="M306 780 216 620H174L264 780ZM416 780 326 620H284L374 780Z" glyph-name="hungarumlaut" horiz-adv-x="500" unicode="&#733;" /><glyph d="M388 950 326 840H284L346 950ZM278 950 216 840H174L236 950Z" glyph-name="hungarumlaut.cap" horiz-adv-x="500" unicode="&#58411;" /><glyph d="M40 369H280V331H40Z" glyph-name="hyphen" horiz-adv-x="320" unicode="-" /><glyph d="M40 409H280V371H40Z" glyph-name="hyphen.cap" horiz-adv-x="320" unicode="&#58498;" /><glyph d="M130 675H70V735H130ZM80 530H120V0H80Z" glyph-name="i" horiz-adv-x="200" unicode="i" /><glyph d="M211 780 121 620H79L169 780ZM80 530H120V0H80Z" glyph-name="iacute" horiz-adv-x="200" unicode="&#237;" /><glyph d="M100 610Q21 610 -15.5 657.5Q-52 705 -52 780H-16Q-16 751 -10 726Q-4 701 10 682.5Q24 664 46 653.5Q68 643 100 643Q132 643 154 653.5Q176 664 190 682.5Q204 701 210 726Q216 751 216 780H252Q252 705 215.5 657.5Q179 610 100 610ZM80 530H120V0H80Z" glyph-name="ibreve" horiz-adv-x="200" unicode="&#301;" /><glyph d="M-45 620 85 780H115L245 620H200L100 744L0 620ZM80 530H120V0H80Z" glyph-name="icircumflex" horiz-adv-x="200" unicode="&#238;" /><glyph d="M55 675H-5V735H55ZM205 675H145V735H205ZM80 530H120V0H80Z" glyph-name="idieresis" horiz-adv-x="200" unicode="&#239;" /><glyph d="M130 675H70V735H130ZM80 530H120V0H80Z" glyph-name="idotaccent" horiz-adv-x="200" unicode="&#59269;" /><glyph d="M31 780 121 620H79L-11 780ZM80 530H120V0H80Z" glyph-name="igrave" horiz-adv-x="200" unicode="&#236;" /><glyph d="M280 675H220V735H280ZM130 675H70V735H130ZM80 530H120V0H80ZM230 530H270V-65Q270 -104 259.5 -132Q249 -160 230 -177Q211 -194 185.5 -202Q160 -210 130 -210Q100 -210 82.5 -206Q65 -202 60 -200V-163Q67 -166 84.5 -169Q102 -172 120 -172Q147 -172 168 -167Q189 -162 202.5 -149.5Q216 -137 223 -115.5Q230 -94 230 -60Z" glyph-name="ij" horiz-adv-x="350" unicode="&#307;" /><glyph d="M-5 720H205V680H-5ZM80 530H120V0H80Z" glyph-name="imacron" horiz-adv-x="200" unicode="&#299;" /><glyph d="M250 0H190V60H250ZM366 575Q366 614 360 645Q354 676 340 699Q326 722 302 735Q278 748 242 751L234 302Q250 341 272.5 372Q295 403 316 433Q337 463 351.5 496.5Q366 530 366 575ZM408 580Q408 530 395.5 495Q383 460 363.5 432Q344 404 321.5 379.5Q299 355 279.5 326.5Q260 298 246.5 262Q233 226 232 175H208L197 750Q159 745 134 725Q109 705 94.5 672.5Q80 640 74 596Q68 552 68 500H28V510Q28 567 36 618Q44 669 66 707Q88 745 125.5 767.5Q163 790 223 790Q319 790 363.5 735.5Q408 681 408 580Z" glyph-name="interrobang" horiz-adv-x="440" unicode="&#8253;" /><glyph d="M190 530H250V470H190ZM74 -25Q74 -88 102.5 -127Q131 -166 197 -171L205 239Q190 202 167.5 173.5Q145 145 124.5 116Q104 87 89 53.5Q74 20 74 -25ZM32 -30Q32 20 44.5 55Q57 90 76.5 117.5Q96 145 118.5 168Q141 191 160.5 217Q180 243 193.5 276Q207 309 208 355H232L242 -170Q280 -166 305 -147.5Q330 -129 345 -99Q360 -69 366 -28.5Q372 12 372 60H412V50Q412 -3 404 -50Q396 -97 374 -132.5Q352 -168 314.5 -189Q277 -210 217 -210Q129 -210 80.5 -163Q32 -116 32 -30Z" glyph-name="interrobangdown" horiz-adv-x="440" unicode="&#59701;" /><glyph d="M190 780H250V720H190ZM74 205Q74 166 79.5 134.5Q85 103 99.5 80.5Q114 58 137.5 44.5Q161 31 197 28L205 478Q190 439 167.5 408Q145 377 124 347Q103 317 88.5 283.5Q74 250 74 205ZM32 200Q32 250 44.5 285Q57 320 76.5 348Q96 376 118.5 400.5Q141 425 160.5 453.5Q180 482 193.5 518Q207 554 208 605H232L242 29Q280 34 305 54.5Q330 75 345 107.5Q360 140 366 183.5Q372 227 372 280H412V270Q412 213 404 162Q396 111 374 73Q352 35 314.5 12.5Q277 -10 217 -10Q121 -10 76.5 44.5Q32 99 32 200Z" glyph-name="interrobangdown.cap" horiz-adv-x="440" unicode="&#59803;" /><glyph d="M250 790Q329 790 365.5 742.5Q402 695 402 620H366Q366 649 360 674Q354 699 340 717.5Q326 736 304 746.5Q282 757 250 757Q218 757 196 746.5Q174 736 160 717.5Q146 699 140 674Q134 649 134 620H98Q98 695 134.5 742.5Q171 790 250 790Z" glyph-name="invertedbreve" horiz-adv-x="500" unicode="&#58385;" /><glyph d="M250 960Q313 960 347.5 926.5Q382 893 382 840H346Q346 878 322.5 902.5Q299 927 250 927Q201 927 177.5 902.5Q154 878 154 840H118Q118 893 152.5 926.5Q187 960 250 960Z" glyph-name="invertedbreve.cap" horiz-adv-x="500" unicode="&#58407;" /><glyph d="M130 675H70V735H130ZM26 -117Q26 -146 46 -161.5Q66 -177 100 -177Q116 -177 132 -173.5Q148 -170 161 -163L173 -191Q157 -201 136 -205.5Q115 -210 97 -210Q49 -210 21 -187.5Q-7 -165 -7 -117Q-7 -69 18.5 -38Q44 -7 80 13V530H120V0Q103 -8 86 -18.5Q69 -29 55.5 -43Q42 -57 34 -75.5Q26 -94 26 -117Z" glyph-name="iogonek" horiz-adv-x="200" unicode="&#303;" /><glyph d="M240 737Q240 694 221 673.5Q202 653 170 653Q148 653 129.5 662.5Q111 672 94.5 683Q78 694 63 703.5Q48 713 32 713Q16 713 5.5 702Q-5 691 -5 663H-40Q-40 706 -21 726.5Q-2 747 30 747Q52 747 70 737.5Q88 728 104.5 717Q121 706 136.5 696.5Q152 687 168 687Q184 687 194.5 698Q205 709 205 737ZM80 530H120V0H80Z" glyph-name="itilde" horiz-adv-x="200" unicode="&#297;" /><glyph d="M130 675H70V735H130ZM80 530H120V-65Q120 -104 109.5 -132Q99 -160 80 -177Q61 -194 35.5 -202Q10 -210 -20 -210Q-50 -210 -67.5 -206Q-85 -202 -90 -200V-163Q-83 -166 -65.5 -169Q-48 -172 -30 -172Q-3 -172 18 -167Q39 -162 52.5 -149.5Q66 -137 73 -115.5Q80 -94 80 -60Z" glyph-name="j" horiz-adv-x="200" unicode="j" /><glyph d="M-45 620 85 780H115L245 620H200L100 744L0 620ZM80 530H120V-65Q120 -104 109.5 -132Q99 -160 80 -177Q61 -194 35.5 -202Q10 -210 -20 -210Q-50 -210 -67.5 -206Q-85 -202 -90 -200V-163Q-83 -166 -65.5 -169Q-48 -172 -30 -172Q-3 -172 18 -167Q39 -162 52.5 -149.5Q66 -137 73 -115.5Q80 -94 80 -60Z" glyph-name="jcircumflex" horiz-adv-x="200" unicode="&#309;" /><glyph d="M70 800H110V217L398 530H450L265 330L450 0H405L237 300L110 162V0H70Z" glyph-name="k" horiz-adv-x="480" unicode="k" /><glyph d="M275 -108Q275 -155 251 -182.5Q227 -210 185 -210V-180Q209 -180 226 -166Q243 -152 245 -120H215V-60H275ZM70 800H110V217L398 530H450L265 330L450 0H405L237 300L110 162V0H70Z" glyph-name="kcommaaccent" horiz-adv-x="480" unicode="&#311;" /><glyph d="M70 530H110V217L398 530H450L265 330L450 0H405L237 300L110 162V0H70Z" glyph-name="kgreenlandic" horiz-adv-x="480" unicode="&#312;" /><glyph d="M80 800H120V0H80Z" glyph-name="l" horiz-adv-x="200" unicode="l" /><glyph d="M183 950 121 840H79L141 950ZM80 800H120V0H80Z" glyph-name="lacute" horiz-adv-x="200" unicode="&#314;" /><glyph d="M245 800 230 620H200V800ZM80 800H120V0H80Z" glyph-name="lcaron" horiz-adv-x="200" unicode="&#318;" /><glyph d="M130 -108Q130 -155 106 -182.5Q82 -210 40 -210V-180Q64 -180 81 -166Q98 -152 100 -120H70V-60H130ZM80 800H120V0H80Z" glyph-name="lcommaaccent" horiz-adv-x="200" unicode="&#316;" /><glyph d="M280 320H220V380H280ZM80 800H120V0H80Z" glyph-name="ldot" horiz-adv-x="300" unicode="&#320;" /><glyph d="M550 656V614L90 390L550 166V124L50 370V410Z" glyph-name="less" horiz-adv-x="600" unicode="&lt;" /><glyph d="M550 124 50 303V345L550 166ZM105 457 550 300V258L50 437V477L550 656V614Z" glyph-name="lessequal" horiz-adv-x="600" unicode="&#8804;" /><glyph d="M50 550H550V220H510V510H50Z" glyph-name="logicalnot" horiz-adv-x="600" unicode="&#172;" /><glyph d="M50 38H270V0H50Z" glyph-name="lowline" horiz-adv-x="320" unicode="&#58641;" /><glyph d="M35 335 130 413V800H170V446L285 540V492L170 398V0H130V365L35 287Z" glyph-name="lslash" horiz-adv-x="310" unicode="&#322;" /><glyph d="M680 0V385Q680 421 671 443.5Q662 466 646.5 479Q631 492 610 497Q589 502 565 502Q533 502 509 493Q485 484 467.5 470.5Q450 457 437 441Q424 425 415 410V0H375V385Q375 421 366 443.5Q357 466 341.5 479Q326 492 305 497Q284 502 260 502Q228 502 204 493Q180 484 162.5 470.5Q145 457 132 441Q119 425 110 410V0H70V380L65 530H95L104 455Q125 489 165 514.5Q205 540 270 540Q322 540 357 518Q392 496 406 451Q416 468 431 484Q446 500 467 512.5Q488 525 515 532.5Q542 540 575 540Q643 540 681.5 502.5Q720 465 720 390V0Z" glyph-name="m" horiz-adv-x="785" unicode="m" /><glyph d="M145 720H355V680H145Z" glyph-name="macron" horiz-adv-x="500" unicode="&#175;" /><glyph d="M150 915H350V875H150Z" glyph-name="macron.cap" horiz-adv-x="500" unicode="&#58405;" /><glyph d="M425 675H365V735H425ZM680 0V385Q680 421 671 443.5Q662 466 646.5 479Q631 492 610 497Q589 502 565 502Q533 502 509 493Q485 484 467.5 470.5Q450 457 437 441Q424 425 415 410V0H375V385Q375 421 366 443.5Q357 466 341.5 479Q326 492 305 497Q284 502 260 502Q228 502 204 493Q180 484 162.5 470.5Q145 457 132 441Q119 425 110 410V0H70V380L65 530H95L104 455Q125 489 165 514.5Q205 540 270 540Q322 540 357 518Q392 496 406 451Q416 468 431 484Q446 500 467 512.5Q488 525 515 532.5Q542 540 575 540Q643 540 681.5 502.5Q720 465 720 390V0Z" glyph-name="mdotaccent" horiz-adv-x="785" unicode="&#7745;" /><glyph d="M60 265Q60 322 81.5 372Q103 422 140.5 459.5Q178 497 228 518.5Q278 540 335 540Q392 540 442 518.5Q492 497 529.5 459.5Q567 422 588.5 372Q610 322 610 265Q610 208 588.5 158Q567 108 529.5 70.5Q492 33 442 11.5Q392 -10 335 -10Q278 -10 228 11.5Q178 33 140.5 70.5Q103 108 81.5 158Q60 208 60 265Z" glyph-name="mediumblackcircle" horiz-adv-x="670" unicode="&#9899;" /><glyph d="M98 265Q98 216 116.5 173Q135 130 167.5 97.5Q200 65 243 46.5Q286 28 335 28Q384 28 427 46.5Q470 65 502.5 97.5Q535 130 553.5 173Q572 216 572 265Q572 314 553.5 357Q535 400 502.5 432.5Q470 465 427 483.5Q384 502 335 502Q286 502 243 483.5Q200 465 167.5 432.5Q135 400 116.5 357Q98 314 98 265ZM60 265Q60 322 81.5 372Q103 422 140.5 459.5Q178 497 228 518.5Q278 540 335 540Q392 540 442 518.5Q492 497 529.5 459.5Q567 422 588.5 372Q610 322 610 265Q610 208 588.5 158Q567 108 529.5 70.5Q492 33 442 11.5Q392 -10 335 -10Q278 -10 228 11.5Q178 33 140.5 70.5Q103 108 81.5 158Q60 208 60 265Z" glyph-name="mediumwhitecircle" horiz-adv-x="670" unicode="&#9898;" /><glyph d="M50 410H550V370H50Z" glyph-name="minus" horiz-adv-x="600" unicode="&#8722;" /><glyph d="M24 11H276V-22H24Z" glyph-name="minus.inf" horiz-adv-x="300" unicode="&#58748;" /><glyph d="M38 157 271 390 38 623 67 652 300 419 533 652 562 623 329 390 562 157 533 128 300 361 67 128Z" glyph-name="multiply" horiz-adv-x="600" unicode="&#215;" /><glyph d="M405 0V370Q405 406 395 431Q385 456 368 471.5Q351 487 327 494.5Q303 502 275 502Q239 502 212.5 493Q186 484 166.5 470.5Q147 457 133 441Q119 425 110 410V0H70V380L65 530H95L104 452Q115 469 131 485Q147 501 169.5 513Q192 525 220.5 532.5Q249 540 285 540Q360 540 402.5 495Q445 450 445 375V0Z" glyph-name="n" horiz-adv-x="510" unicode="n" /><glyph d="M369 780 279 620H237L327 780ZM405 0V370Q405 406 395 431Q385 456 368 471.5Q351 487 327 494.5Q303 502 275 502Q239 502 212.5 493Q186 484 166.5 470.5Q147 457 133 441Q119 425 110 410V0H70V380L65 530H95L104 452Q115 469 131 485Q147 501 169.5 513Q192 525 220.5 532.5Q249 540 285 540Q360 540 402.5 495Q445 450 445 375V0Z" glyph-name="nacute" horiz-adv-x="510" unicode="&#324;" /><glyph d="M158 780 258 656 358 780H403L273 620H243L113 780ZM405 0V370Q405 406 395 431Q385 456 368 471.5Q351 487 327 494.5Q303 502 275 502Q239 502 212.5 493Q186 484 166.5 470.5Q147 457 133 441Q119 425 110 410V0H70V380L65 530H95L104 452Q115 469 131 485Q147 501 169.5 513Q192 525 220.5 532.5Q249 540 285 540Q360 540 402.5 495Q445 450 445 375V0Z" glyph-name="ncaron" horiz-adv-x="510" unicode="&#328;" /><glyph d="M288 -108Q288 -155 264 -182.5Q240 -210 198 -210V-180Q222 -180 239 -166Q256 -152 258 -120H228V-60H288ZM405 0V370Q405 406 395 431Q385 456 368 471.5Q351 487 327 494.5Q303 502 275 502Q239 502 212.5 493Q186 484 166.5 470.5Q147 457 133 441Q119 425 110 410V0H70V380L65 530H95L104 452Q115 469 131 485Q147 501 169.5 513Q192 525 220.5 532.5Q249 540 285 540Q360 540 402.5 495Q445 450 445 375V0Z" glyph-name="ncommaaccent" horiz-adv-x="510" unicode="&#326;" /><glyph d="M293 330Q363 330 416.5 365Q470 400 497 456Q500 484 500 510V520Q500 574 484 616.5Q468 659 441 689Q414 719 377 734.5Q340 750 298 750H292Q198 750 145 697.5Q92 645 92 548V532Q92 435 144.5 382.5Q197 330 287 330ZM85 30Q122 30 164 38Q206 46 247 64Q288 82 326.5 110.5Q365 139 396 180Q432 228 453.5 280.5Q475 333 486 384Q454 341 404.5 315.5Q355 290 290 290Q239 290 195 304.5Q151 319 119 349.5Q87 380 68.5 426Q50 472 50 535V545Q50 608 68.5 654Q87 700 119.5 730.5Q152 761 197 775.5Q242 790 295 790Q346 790 390.5 772.5Q435 755 468 721Q501 687 520.5 636.5Q540 586 540 520V510Q540 417 516 327Q492 237 430 154Q398 111 356 80Q314 49 268.5 29Q223 9 175.5 -0.5Q128 -10 85 -10Z" glyph-name="nine" horiz-adv-x="600" unicode="9" /><glyph d="M147 -23Q176 -23 199.5 -8Q223 7 236 31Q237 37 237 43Q237 49 237 55V60Q237 108 211.5 135.5Q186 163 149 163H146Q106 163 82.5 139.5Q59 116 59 74V65Q59 22 82.5 -0.5Q106 -23 144 -23ZM41 -174Q80 -174 120 -158Q160 -142 189 -105Q204 -85 213.5 -63.5Q223 -42 228 -19Q212 -35 190 -45Q168 -55 140 -55Q89 -55 56 -25Q23 5 23 67V72Q23 134 57 164.5Q91 195 148 195Q202 195 237 159.5Q272 124 272 58V53Q272 6 260.5 -39Q249 -84 217 -126Q185 -169 136.5 -187.5Q88 -206 41 -206Z" glyph-name="nine.inf" horiz-adv-x="300" unicode="&#58746;" /><glyph d="M535 0V32H637V343L545 281L527 309L650 392H673V32H774V0ZM147 567Q176 567 199.5 582Q223 597 236 621Q237 627 237 633Q237 639 237 645V650Q237 698 211.5 725.5Q186 753 149 753H146Q106 753 82.5 729.5Q59 706 59 664V655Q59 612 82.5 589.5Q106 567 144 567ZM953 213Q923 213 899.5 198Q876 183 863 158V130Q863 81 888.5 53.5Q914 26 950 26H953Q993 26 1017 49.5Q1041 73 1041 116V124Q1041 167 1017.5 190Q994 213 956 213ZM90 0 666 780H710L134 0ZM41 416Q80 416 120 432Q160 448 189 485Q204 505 213.5 526.5Q223 548 228 571Q212 554 190 544.5Q168 535 140 535Q89 535 56 565Q23 595 23 657V662Q23 724 57 754.5Q91 785 148 785Q202 785 237 749.5Q272 714 272 648V643Q272 596 260.5 551Q249 506 217 464Q185 421 136.5 402.5Q88 384 41 384ZM1058 363Q1020 363 979.5 347Q939 331 911 294Q882 256 871 209Q887 225 909 235Q931 245 959 245Q1010 245 1043 215Q1076 185 1076 122V117Q1076 55 1042 24.5Q1008 -6 952 -6Q898 -6 862.5 29.5Q827 65 827 131V137Q827 184 839 228.5Q851 273 882 315Q914 358 962.5 376.5Q1011 395 1058 395Z" glyph-name="ninesixteenths" horiz-adv-x="1100" unicode="&#61977;" /><glyph glyph-name="nonbreakingspace" horiz-adv-x="200" unicode="&#160;" /><glyph d="M50 510H347L423 640H466L391 510H550V470H368L275 310H550V270H252L177 140H134L209 270H50V310H232L324 470H50Z" glyph-name="notequal" horiz-adv-x="600" unicode="&#8800;" /><glyph d="M398 737Q398 694 379 673.5Q360 653 328 653Q306 653 287.5 662.5Q269 672 252.5 683Q236 694 221 703.5Q206 713 190 713Q174 713 163.5 702Q153 691 153 663H118Q118 706 137 726.5Q156 747 188 747Q210 747 228 737.5Q246 728 262.5 717Q279 706 294.5 696.5Q310 687 326 687Q342 687 352.5 698Q363 709 363 737ZM405 0V370Q405 406 395 431Q385 456 368 471.5Q351 487 327 494.5Q303 502 275 502Q239 502 212.5 493Q186 484 166.5 470.5Q147 457 133 441Q119 425 110 410V0H70V380L65 530H95L104 452Q115 469 131 485Q147 501 169.5 513Q192 525 220.5 532.5Q249 540 285 540Q360 540 402.5 495Q445 450 445 375V0Z" glyph-name="ntilde" horiz-adv-x="510" unicode="&#241;" /><glyph d="M189 290H362L410 490H237ZM100 530H207L267 780H307L247 530H420L480 780H520L460 530H563V490H450L402 290H500V250H393L333 0H293L353 250H180L120 0H80L140 250H37V290H149L197 490H100Z" glyph-name="numbersign" horiz-adv-x="600" unicode="#" /><glyph d="M700 258H1010V223H700ZM732 577Q732 504 761.5 459.5Q791 415 855 415Q919 415 948.5 459.5Q978 504 978 577V593Q978 666 948.5 710.5Q919 755 855 755Q791 755 761.5 710.5Q732 666 732 593ZM570 0H525L115 720L118 530V0H80V780H125L535 60L532 250V780H570ZM1017 577Q1017 536 1007.5 500Q998 464 978.5 437.5Q959 411 928 395.5Q897 380 855 380Q813 380 782 395.5Q751 411 731.5 437.5Q712 464 702.5 500Q693 536 693 577V593Q693 634 702.5 670Q712 706 731.5 732.5Q751 759 782 774.5Q813 790 855 790Q897 790 928 774.5Q959 759 978.5 732.5Q998 706 1007.5 670Q1017 634 1017 593Z" glyph-name="numero" horiz-adv-x="1060" unicode="&#8470;" /><glyph d="M270 28Q315 28 347.5 44.5Q380 61 401 91Q422 121 432.5 162.5Q443 204 443 255V275Q443 326 432.5 367.5Q422 409 401 439Q380 469 347.5 485.5Q315 502 270 502Q225 502 192.5 485.5Q160 469 139 439Q118 409 107.5 367.5Q97 326 97 275V255Q97 204 107.5 162.5Q118 121 139 91Q160 61 192.5 44.5Q225 28 270 28ZM270 -10Q213 -10 172.5 11Q132 32 106 68Q80 104 67.5 152.5Q55 201 55 255V275Q55 329 67.5 377.5Q80 426 106 462Q132 498 172.5 519Q213 540 270 540Q327 540 367.5 519Q408 498 434 462Q460 426 472.5 377.5Q485 329 485 275V255Q485 201 472.5 152.5Q460 104 434 68Q408 32 367.5 11Q327 -10 270 -10Z" glyph-name="o" horiz-adv-x="540" unicode="o" /><glyph d="M381 780 291 620H249L339 780ZM270 28Q315 28 347.5 44.5Q380 61 401 91Q422 121 432.5 162.5Q443 204 443 255V275Q443 326 432.5 367.5Q422 409 401 439Q380 469 347.5 485.5Q315 502 270 502Q225 502 192.5 485.5Q160 469 139 439Q118 409 107.5 367.5Q97 326 97 275V255Q97 204 107.5 162.5Q118 121 139 91Q160 61 192.5 44.5Q225 28 270 28ZM270 -10Q213 -10 172.5 11Q132 32 106 68Q80 104 67.5 152.5Q55 201 55 255V275Q55 329 67.5 377.5Q80 426 106 462Q132 498 172.5 519Q213 540 270 540Q327 540 367.5 519Q408 498 434 462Q460 426 472.5 377.5Q485 329 485 275V255Q485 201 472.5 152.5Q460 104 434 68Q408 32 367.5 11Q327 -10 270 -10Z" glyph-name="oacute" horiz-adv-x="540" unicode="&#243;" /><glyph d="M270 610Q191 610 154.5 657.5Q118 705 118 780H154Q154 751 160 726Q166 701 180 682.5Q194 664 216 653.5Q238 643 270 643Q302 643 324 653.5Q346 664 360 682.5Q374 701 380 726Q386 751 386 780H422Q422 705 385.5 657.5Q349 610 270 610ZM270 28Q315 28 347.5 44.5Q380 61 401 91Q422 121 432.5 162.5Q443 204 443 255V275Q443 326 432.5 367.5Q422 409 401 439Q380 469 347.5 485.5Q315 502 270 502Q225 502 192.5 485.5Q160 469 139 439Q118 409 107.5 367.5Q97 326 97 275V255Q97 204 107.5 162.5Q118 121 139 91Q160 61 192.5 44.5Q225 28 270 28ZM270 -10Q213 -10 172.5 11Q132 32 106 68Q80 104 67.5 152.5Q55 201 55 255V275Q55 329 67.5 377.5Q80 426 106 462Q132 498 172.5 519Q213 540 270 540Q327 540 367.5 519Q408 498 434 462Q460 426 472.5 377.5Q485 329 485 275V255Q485 201 472.5 152.5Q460 104 434 68Q408 32 367.5 11Q327 -10 270 -10Z" glyph-name="obreve" horiz-adv-x="540" unicode="&#335;" /><glyph d="M125 620 255 780H285L415 620H370L270 744L170 620ZM270 28Q315 28 347.5 44.5Q380 61 401 91Q422 121 432.5 162.5Q443 204 443 255V275Q443 326 432.5 367.5Q422 409 401 439Q380 469 347.5 485.5Q315 502 270 502Q225 502 192.5 485.5Q160 469 139 439Q118 409 107.5 367.5Q97 326 97 275V255Q97 204 107.5 162.5Q118 121 139 91Q160 61 192.5 44.5Q225 28 270 28ZM270 -10Q213 -10 172.5 11Q132 32 106 68Q80 104 67.5 152.5Q55 201 55 255V275Q55 329 67.5 377.5Q80 426 106 462Q132 498 172.5 519Q213 540 270 540Q327 540 367.5 519Q408 498 434 462Q460 426 472.5 377.5Q485 329 485 275V255Q485 201 472.5 152.5Q460 104 434 68Q408 32 367.5 11Q327 -10 270 -10Z" glyph-name="ocircumflex" horiz-adv-x="540" unicode="&#244;" /><glyph d="M375 675H315V735H375ZM225 675H165V735H225ZM270 28Q315 28 347.5 44.5Q380 61 401 91Q422 121 432.5 162.5Q443 204 443 255V275Q443 326 432.5 367.5Q422 409 401 439Q380 469 347.5 485.5Q315 502 270 502Q225 502 192.5 485.5Q160 469 139 439Q118 409 107.5 367.5Q97 326 97 275V255Q97 204 107.5 162.5Q118 121 139 91Q160 61 192.5 44.5Q225 28 270 28ZM270 -10Q213 -10 172.5 11Q132 32 106 68Q80 104 67.5 152.5Q55 201 55 255V275Q55 329 67.5 377.5Q80 426 106 462Q132 498 172.5 519Q213 540 270 540Q327 540 367.5 519Q408 498 434 462Q460 426 472.5 377.5Q485 329 485 275V255Q485 201 472.5 152.5Q460 104 434 68Q408 32 367.5 11Q327 -10 270 -10Z" glyph-name="odieresis" horiz-adv-x="540" unicode="&#246;" /><glyph d="M658 502Q614 502 582 486Q550 470 528.5 441.5Q507 413 496.5 373Q486 333 485 284H831Q830 333 819 373Q808 413 787 441.5Q766 470 733.5 486Q701 502 658 502ZM97 255Q97 204 107.5 162.5Q118 121 139 91Q160 61 192.5 44.5Q225 28 270 28Q315 28 347.5 44.5Q380 61 401 91Q422 121 432.5 162.5Q443 204 443 255V275Q443 326 432.5 367.5Q422 409 401 439Q380 469 347.5 485.5Q315 502 270 502Q225 502 192.5 485.5Q160 469 139 439Q118 409 107.5 367.5Q97 326 97 275ZM485 246Q486 197 496.5 157Q507 117 528.5 88.5Q550 60 583.5 44Q617 28 663 28Q709 28 741.5 41Q774 54 794 74.5Q814 95 823.5 120.5Q833 146 833 170H873V166Q873 137 861 106Q849 75 823.5 49.5Q798 24 758 7Q718 -10 663 -10Q580 -10 532 31Q484 72 464 137Q444 72 397 31Q350 -10 270 -10Q213 -10 172.5 11Q132 32 106 68Q80 104 67.5 152.5Q55 201 55 255V275Q55 329 67.5 377.5Q80 426 106 462Q132 498 172.5 519Q213 540 270 540Q310 540 341.5 529Q373 518 397 498.5Q421 479 437.5 452Q454 425 464 393Q474 425 490.5 452Q507 479 531 498.5Q555 518 586.5 529Q618 540 658 540Q715 540 755.5 519Q796 498 822 462Q848 426 860.5 377.5Q873 329 873 275V246Z" glyph-name="oe" horiz-adv-x="928" unicode="&#339;" /><glyph d="M186 -117Q186 -146 206 -161.5Q226 -177 260 -177Q276 -177 292 -173.5Q308 -170 321 -163L333 -191Q317 -201 296 -205.5Q275 -210 257 -210Q209 -210 181 -187.5Q153 -165 153 -117Q153 -89 162.5 -67Q172 -45 188 -27Q204 -9 224.5 4Q245 17 267 27L280 0Q263 -8 246 -18.5Q229 -29 215.5 -43Q202 -57 194 -75.5Q186 -94 186 -117Z" glyph-name="ogonek" horiz-adv-x="602" unicode="&#731;" /><glyph d="M201 780 291 620H249L159 780ZM270 28Q315 28 347.5 44.5Q380 61 401 91Q422 121 432.5 162.5Q443 204 443 255V275Q443 326 432.5 367.5Q422 409 401 439Q380 469 347.5 485.5Q315 502 270 502Q225 502 192.5 485.5Q160 469 139 439Q118 409 107.5 367.5Q97 326 97 275V255Q97 204 107.5 162.5Q118 121 139 91Q160 61 192.5 44.5Q225 28 270 28ZM270 -10Q213 -10 172.5 11Q132 32 106 68Q80 104 67.5 152.5Q55 201 55 255V275Q55 329 67.5 377.5Q80 426 106 462Q132 498 172.5 519Q213 540 270 540Q327 540 367.5 519Q408 498 434 462Q460 426 472.5 377.5Q485 329 485 275V255Q485 201 472.5 152.5Q460 104 434 68Q408 32 367.5 11Q327 -10 270 -10Z" glyph-name="ograve" horiz-adv-x="540" unicode="&#242;" /><glyph d="M326 780 236 620H194L284 780ZM436 780 346 620H304L394 780ZM270 28Q315 28 347.5 44.5Q380 61 401 91Q422 121 432.5 162.5Q443 204 443 255V275Q443 326 432.5 367.5Q422 409 401 439Q380 469 347.5 485.5Q315 502 270 502Q225 502 192.5 485.5Q160 469 139 439Q118 409 107.5 367.5Q97 326 97 275V255Q97 204 107.5 162.5Q118 121 139 91Q160 61 192.5 44.5Q225 28 270 28ZM270 -10Q213 -10 172.5 11Q132 32 106 68Q80 104 67.5 152.5Q55 201 55 255V275Q55 329 67.5 377.5Q80 426 106 462Q132 498 172.5 519Q213 540 270 540Q327 540 367.5 519Q408 498 434 462Q460 426 472.5 377.5Q485 329 485 275V255Q485 201 472.5 152.5Q460 104 434 68Q408 32 367.5 11Q327 -10 270 -10Z" glyph-name="ohungarumlaut" horiz-adv-x="540" unicode="&#337;" /><glyph d="M165 720H375V680H165ZM270 28Q315 28 347.5 44.5Q380 61 401 91Q422 121 432.5 162.5Q443 204 443 255V275Q443 326 432.5 367.5Q422 409 401 439Q380 469 347.5 485.5Q315 502 270 502Q225 502 192.5 485.5Q160 469 139 439Q118 409 107.5 367.5Q97 326 97 275V255Q97 204 107.5 162.5Q118 121 139 91Q160 61 192.5 44.5Q225 28 270 28ZM270 -10Q213 -10 172.5 11Q132 32 106 68Q80 104 67.5 152.5Q55 201 55 255V275Q55 329 67.5 377.5Q80 426 106 462Q132 498 172.5 519Q213 540 270 540Q327 540 367.5 519Q408 498 434 462Q460 426 472.5 377.5Q485 329 485 275V255Q485 201 472.5 152.5Q460 104 434 68Q408 32 367.5 11Q327 -10 270 -10Z" glyph-name="omacron" horiz-adv-x="540" unicode="&#333;" /><glyph d="M75 0V40H290V723L86 585L65 619L310 785H330V40H545V0Z" glyph-name="one" horiz-adv-x="600" unicode="1" /><glyph d="M35 -200V-168H137V143L45 81L27 109L150 192H173V-168H274V-200Z" glyph-name="one.inf" horiz-adv-x="300" unicode="&#58738;" /><glyph d="M35 390V422H137V733L45 671L27 699L150 782H173V422H274V390ZM772 0H528V22L696 201Q719 224 727.5 241.5Q736 259 736 281V286Q736 322 712.5 342.5Q689 363 651 363H648Q606 363 584.5 339Q563 315 563 260H528V272Q528 331 557 363Q586 395 650 395Q710 395 741 366.5Q772 338 772 291V285Q772 255 762 234Q752 213 726 185L582 32H772ZM90 0 666 780H710L134 0Z" glyph-name="onehalf" horiz-adv-x="800" unicode="&#189;" /><glyph d="M560 135 603 136H683V278L684 329ZM35 390V422H137V733L45 671L27 699L150 782H173V422H274V390ZM90 0 666 780H710L134 0ZM683 0V103H516V127L684 390H719V136H783V103H719V0Z" glyph-name="onequarter" horiz-adv-x="800" unicode="&#188;" /><glyph d="M35 390V422H137V733L45 671L27 699L150 782H173V422H274V390ZM535 0V32H637V343L545 281L527 309L650 392H673V32H774V0ZM953 213Q923 213 899.5 198Q876 183 863 158V130Q863 81 888.5 53.5Q914 26 950 26H953Q993 26 1017 49.5Q1041 73 1041 116V124Q1041 167 1017.5 190Q994 213 956 213ZM90 0 666 780H710L134 0ZM1058 363Q1020 363 979.5 347Q939 331 911 294Q882 256 871 209Q887 225 909 235Q931 245 959 245Q1010 245 1043 215Q1076 185 1076 122V117Q1076 55 1042 24.5Q1008 -6 952 -6Q898 -6 862.5 29.5Q827 65 827 131V137Q827 184 839 228.5Q851 273 882 315Q914 358 962.5 376.5Q1011 395 1058 395Z" glyph-name="onesixteenth" horiz-adv-x="1100" unicode="&#61973;" /><glyph d="M35 390V422H137V733L45 671L27 699L150 782H173V422H274V390Z" glyph-name="onesuperior" horiz-adv-x="300" unicode="&#185;" /><glyph d="M40 331V369H293V331Z" glyph-name="onethirdemdash" horiz-adv-x="333" unicode="&#58481;" /><glyph d="M49 371V409H293V371Z" glyph-name="onethirdemdash.cap" horiz-adv-x="333" unicode="&#58499;" /><glyph d="M50 258H335V223H50ZM162 414Q192 414 214 421.5Q236 429 252 439.5Q268 450 277.5 462Q287 474 293 483V600L169 580Q128 572 104 551.5Q80 531 80 494V487Q80 458 99 436Q118 414 162 414ZM298 445Q278 419 243.5 399.5Q209 380 155 380Q103 380 72.5 408.5Q42 437 42 485V493Q42 525 53.5 546.5Q65 568 83 581Q101 594 123.5 601Q146 608 169 612L293 631V645Q293 699 272 727.5Q251 756 194 756Q163 756 143.5 748Q124 740 113 725.5Q102 711 98 692Q94 673 94 652H57V659Q57 680 62.5 703.5Q68 727 83 746Q98 765 125 777.5Q152 790 194 790Q233 790 259.5 779.5Q286 769 302 749.5Q318 730 324.5 703.5Q331 677 331 645V499L335 388H306Z" glyph-name="ordfeminine" horiz-adv-x="377" unicode="&#170;" /><glyph d="M50 258H360V223H50ZM82 577Q82 504 111.5 459.5Q141 415 205 415Q269 415 298.5 459.5Q328 504 328 577V593Q328 666 298.5 710.5Q269 755 205 755Q141 755 111.5 710.5Q82 666 82 593ZM367 577Q367 536 357.5 500Q348 464 328.5 437.5Q309 411 278 395.5Q247 380 205 380Q163 380 132 395.5Q101 411 81.5 437.5Q62 464 52.5 500Q43 536 43 577V593Q43 634 52.5 670Q62 706 81.5 732.5Q101 759 132 774.5Q163 790 205 790Q247 790 278 774.5Q309 759 328.5 732.5Q348 706 357.5 670Q367 634 367 593Z" glyph-name="ordmasculine" horiz-adv-x="410" unicode="&#186;" /><glyph d="M443 275Q443 320 434.5 358.5Q426 397 409 426L152 74Q195 28 270 28Q315 28 347.5 44.5Q380 61 401 91Q422 121 432.5 162.5Q443 204 443 255ZM97 255Q97 209 105 170.5Q113 132 130 103L387 456Q366 478 337 490Q308 502 270 502Q225 502 192.5 485.5Q160 469 139 439Q118 409 107.5 367.5Q97 326 97 275ZM434 461Q460 425 472.5 377Q485 329 485 275V255Q485 201 472.5 152.5Q460 104 434 68Q408 32 367.5 11Q327 -10 270 -10Q224 -10 189.5 3.5Q155 17 129 41L99 0H55L105 69Q79 105 67 153Q55 201 55 255V275Q55 329 67.5 377.5Q80 426 106 462Q132 498 172.5 519Q213 540 270 540Q315 540 350 526.5Q385 513 411 488L441 530H485Z" glyph-name="oslash" horiz-adv-x="540" unicode="&#248;" /><glyph d="M410 737Q410 694 391 673.5Q372 653 340 653Q318 653 299.5 662.5Q281 672 264.5 683Q248 694 233 703.5Q218 713 202 713Q186 713 175.5 702Q165 691 165 663H130Q130 706 149 726.5Q168 747 200 747Q222 747 240 737.5Q258 728 274.5 717Q291 706 306.5 696.5Q322 687 338 687Q354 687 364.5 698Q375 709 375 737ZM270 28Q315 28 347.5 44.5Q380 61 401 91Q422 121 432.5 162.5Q443 204 443 255V275Q443 326 432.5 367.5Q422 409 401 439Q380 469 347.5 485.5Q315 502 270 502Q225 502 192.5 485.5Q160 469 139 439Q118 409 107.5 367.5Q97 326 97 275V255Q97 204 107.5 162.5Q118 121 139 91Q160 61 192.5 44.5Q225 28 270 28ZM270 -10Q213 -10 172.5 11Q132 32 106 68Q80 104 67.5 152.5Q55 201 55 255V275Q55 329 67.5 377.5Q80 426 106 462Q132 498 172.5 519Q213 540 270 540Q327 540 367.5 519Q408 498 434 462Q460 426 472.5 377.5Q485 329 485 275V255Q485 201 472.5 152.5Q460 104 434 68Q408 32 367.5 11Q327 -10 270 -10Z" glyph-name="otilde" horiz-adv-x="540" unicode="&#245;" /><glyph d="M110 120Q119 105 132.5 88.5Q146 72 164 58.5Q182 45 206 36.5Q230 28 260 28Q345 28 386.5 89.5Q428 151 428 255V275Q428 379 386.5 440.5Q345 502 260 502Q230 502 206 493Q182 484 164 470.5Q146 457 132.5 441Q119 425 110 410ZM265 -10Q205 -10 167.5 12Q130 34 110 65V-200H70V380L65 530H95L104 455Q124 489 162.5 514.5Q201 540 265 540Q319 540 358 519Q397 498 422 462Q447 426 458.5 377.5Q470 329 470 275V255Q470 201 458.5 152.5Q447 104 422 68Q397 32 358 11Q319 -10 265 -10Z" glyph-name="p" horiz-adv-x="525" unicode="p" /><glyph d="M82 547Q82 490 100.5 455Q119 420 146.5 400.5Q174 381 206.5 374.5Q239 368 268 368H280V742H268Q239 742 206.5 735.5Q174 729 146.5 709.5Q119 690 100.5 655Q82 620 82 563ZM390 742H320V0H280V330H268Q228 330 187.5 339.5Q147 349 114 373.5Q81 398 60.5 439.5Q40 481 40 545V565Q40 629 60.5 670.5Q81 712 114 736.5Q147 761 187.5 770.5Q228 780 268 780H430V0H390Z" glyph-name="paragraph" horiz-adv-x="500" unicode="&#182;" /><glyph d="M55 370Q55 457 68 524.5Q81 592 103 647Q125 702 154 748.5Q183 795 215 840H260Q225 791 194.5 742.5Q164 694 142 638.5Q120 583 107.5 517.5Q95 452 95 370V350Q95 268 107.5 202.5Q120 137 142 81.5Q164 26 194.5 -22.5Q225 -71 260 -120H215Q183 -75 154 -28.5Q125 18 103 73Q81 128 68 195.5Q55 263 55 350Z" glyph-name="parenleft" horiz-adv-x="300" unicode="(" /><glyph d="M65 400Q65 511 100 606.5Q135 702 188 780H232Q205 742 182 697.5Q159 653 142 605Q125 557 115 505Q105 453 105 400V380Q105 327 115 275Q125 223 142 175Q159 127 182 82.5Q205 38 232 0H188Q135 78 100 173.5Q65 269 65 380Z" glyph-name="parenleft.cap" horiz-adv-x="300" unicode="&#58513;" /><glyph d="M30 0Q30 58 47.5 105.5Q65 153 91 190H128Q103 153 84 104Q65 55 65 0V-10Q65 -66 84 -115Q103 -164 128 -200H91Q65 -164 47.5 -116Q30 -68 30 -10Z" glyph-name="parenleft.inf" horiz-adv-x="158" unicode="&#58750;" /><glyph d="M245 350Q245 263 232 195.5Q219 128 197 73Q175 18 146 -28.5Q117 -75 85 -120H40Q75 -71 105.5 -22.5Q136 26 158 81.5Q180 137 192.5 202.5Q205 268 205 350V370Q205 452 192.5 517.5Q180 583 158 638.5Q136 694 105.5 742.5Q75 791 40 840H85Q117 795 146 748.5Q175 702 197 647Q219 592 232 524.5Q245 457 245 370Z" glyph-name="parenright" horiz-adv-x="300" unicode=")" /><glyph d="M235 380Q235 269 200 173.5Q165 78 112 0H68Q95 38 118 82.5Q141 127 158 175Q175 223 185 275Q195 327 195 380V400Q195 453 185 505Q175 557 158 605Q141 653 118 697.5Q95 742 68 780H112Q165 702 200 606.5Q235 511 235 400Z" glyph-name="parenright.cap" horiz-adv-x="300" unicode="&#58514;" /><glyph d="M128 -10Q128 -68 110.5 -116Q93 -164 67 -200H30Q55 -164 74 -115Q93 -66 93 -10V0Q93 55 74 104Q55 153 30 190H67Q93 153 110.5 105.5Q128 58 128 0Z" glyph-name="parenright.inf" horiz-adv-x="158" unicode="&#58751;" /><glyph d="M295 675H235V735H295ZM110 120Q119 105 132.5 88.5Q146 72 164 58.5Q182 45 206 36.5Q230 28 260 28Q345 28 386.5 89.5Q428 151 428 255V275Q428 379 386.5 440.5Q345 502 260 502Q230 502 206 493Q182 484 164 470.5Q146 457 132.5 441Q119 425 110 410ZM265 -10Q205 -10 167.5 12Q130 34 110 65V-200H70V380L65 530H95L104 455Q124 489 162.5 514.5Q201 540 265 540Q319 540 358 519Q397 498 422 462Q447 426 458.5 377.5Q470 329 470 275V255Q470 201 458.5 152.5Q447 104 422 68Q397 32 358 11Q319 -10 265 -10Z" glyph-name="pdotaccent" horiz-adv-x="525" unicode="&#7767;" /><glyph d="M324 629Q324 659 314.5 682Q305 705 288.5 720.5Q272 736 250.5 744Q229 752 205 752H199Q175 752 153.5 744Q132 736 115.5 720.5Q99 705 89.5 682Q80 659 80 629V611Q80 581 89.5 558Q99 535 115.5 519.5Q132 504 153.5 496Q175 488 199 488H205Q229 488 250.5 496Q272 504 288.5 519.5Q305 535 314.5 558Q324 581 324 611ZM576 151Q576 121 585.5 98Q595 75 611.5 59.5Q628 44 649.5 36Q671 28 695 28H701Q725 28 746.5 36Q768 44 784.5 59.5Q801 75 810.5 98Q820 121 820 151V169Q820 199 810.5 222Q801 245 784.5 260.5Q768 276 746.5 284Q725 292 701 292H695Q671 292 649.5 284Q628 276 611.5 260.5Q595 245 585.5 222Q576 199 576 169ZM538 165Q538 206 551 237Q564 268 585.5 288.5Q607 309 636 319.5Q665 330 698 330Q731 330 760 319.5Q789 309 810.5 288.5Q832 268 845 237Q858 206 858 165V155Q858 114 845 83Q832 52 810.5 31.5Q789 11 760 0.5Q731 -10 698 -10Q665 -10 636 0.5Q607 11 585.5 31.5Q564 52 551 83Q538 114 538 155ZM267 0 569 728Q551 723 531 719Q514 715 490.5 712.5Q467 710 440 710Q411 710 385.5 713Q360 716 337 721Q362 682 362 625V615Q362 574 349 543Q336 512 314.5 491.5Q293 471 264 460.5Q235 450 202 450Q169 450 140 460.5Q111 471 89.5 491.5Q68 512 55 543Q42 574 42 615V625Q42 666 55 697Q68 728 89.5 748.5Q111 769 140 779.5Q169 790 202 790Q236 790 263 780Q307 765 353 756.5Q399 748 440 748Q464 748 491 751.5Q518 755 543 759.5Q568 764 588 769.5Q608 775 617 780V743L309 0Z" glyph-name="percent" horiz-adv-x="900" unicode="%" /><glyph d="M130 0H70V60H130Z" glyph-name="period" horiz-adv-x="200" unicode="." /><glyph d="M180 0H120V60H180Z" glyph-name="period.T" horiz-adv-x="300" unicode="&#61826;" /><glyph d="M130 320H70V380H130Z" glyph-name="periodcentered" horiz-adv-x="200" unicode="&#183;" /><glyph d="M130 360H70V420H130Z" glyph-name="periodcentered.cap" horiz-adv-x="200" unicode="&#58497;" /><glyph d="M267 0 569 728Q551 723 531 719Q514 715 490.5 712.5Q467 710 440 710Q411 710 385.5 713Q360 716 337 721Q362 682 362 625V615Q362 574 349 543Q336 512 314.5 491.5Q293 471 264 460.5Q235 450 202 450Q169 450 140 460.5Q111 471 89.5 491.5Q68 512 55 543Q42 574 42 615V625Q42 666 55 697Q68 728 89.5 748.5Q111 769 140 779.5Q169 790 202 790Q236 790 263 780Q307 765 353 756.5Q399 748 440 748Q464 748 491 751.5Q518 755 543 759.5Q568 764 588 769.5Q608 775 617 780V743L309 0ZM324 629Q324 659 314.5 682Q305 705 288.5 720.5Q272 736 250.5 744Q229 752 205 752H199Q175 752 153.5 744Q132 736 115.5 720.5Q99 705 89.5 682Q80 659 80 629V611Q80 581 89.5 558Q99 535 115.5 519.5Q132 504 153.5 496Q175 488 199 488H205Q229 488 250.5 496Q272 504 288.5 519.5Q305 535 314.5 558Q324 581 324 611ZM956 151Q956 121 965.5 98Q975 75 991.5 59.5Q1008 44 1029.5 36Q1051 28 1075 28H1081Q1105 28 1126.5 36Q1148 44 1164.5 59.5Q1181 75 1190.5 98Q1200 121 1200 151V169Q1200 199 1190.5 222Q1181 245 1164.5 260.5Q1148 276 1126.5 284Q1105 292 1081 292H1075Q1051 292 1029.5 284Q1008 276 991.5 260.5Q975 245 965.5 222Q956 199 956 169ZM576 151Q576 121 585.5 98Q595 75 611.5 59.5Q628 44 649.5 36Q671 28 695 28H701Q725 28 746.5 36Q768 44 784.5 59.5Q801 75 810.5 98Q820 121 820 151V169Q820 199 810.5 222Q801 245 784.5 260.5Q768 276 746.5 284Q725 292 701 292H695Q671 292 649.5 284Q628 276 611.5 260.5Q595 245 585.5 222Q576 199 576 169ZM918 165Q918 206 931 237Q944 268 965.5 288.5Q987 309 1016 319.5Q1045 330 1078 330Q1111 330 1140 319.5Q1169 309 1190.5 288.5Q1212 268 1225 237Q1238 206 1238 165V155Q1238 114 1225 83Q1212 52 1190.5 31.5Q1169 11 1140 0.5Q1111 -10 1078 -10Q1045 -10 1016 0.5Q987 11 965.5 31.5Q944 52 931 83Q918 114 918 155ZM538 165Q538 206 551 237Q564 268 585.5 288.5Q607 309 636 319.5Q665 330 698 330Q731 330 760 319.5Q789 309 810.5 288.5Q832 268 845 237Q858 206 858 165V155Q858 114 845 83Q832 52 810.5 31.5Q789 11 760 0.5Q731 -10 698 -10Q665 -10 636 0.5Q607 11 585.5 31.5Q564 52 551 83Q538 114 538 155Z" glyph-name="perthousand" horiz-adv-x="1280" unicode="&#8240;" /><glyph d="M320 640V410H550V370H320V140H280V370H50V410H280V640Z" glyph-name="plus" horiz-adv-x="600" unicode="+" /><glyph d="M166 121V11H276V-22H166V-131H133V-22H24V11H133V121Z" glyph-name="plus.inf" horiz-adv-x="300" unicode="&#58747;" /><glyph d="M50 210H550V170H50ZM320 640V490H550V450H320V300H280V450H50V490H280V640Z" glyph-name="plusminus" horiz-adv-x="600" unicode="&#177;" /><glyph d="M471 391Q488 391 506 394.5Q524 398 539 408.5Q554 419 563.5 437.5Q573 456 573 486V494Q573 524 563.5 542.5Q554 561 539 571.5Q524 582 506 585.5Q488 589 471 589H351V391ZM351 155H311V625H471Q496 625 521.5 619.5Q547 614 567 599.5Q587 585 600 560Q613 535 613 496V484Q613 445 600 420Q587 395 567 380.5Q547 366 521.5 360.5Q496 355 471 355H351ZM98 390Q98 315 126.5 249Q155 183 204 134Q253 85 319 56.5Q385 28 460 28Q535 28 601 56.5Q667 85 716 134Q765 183 793.5 249Q822 315 822 390Q822 465 793.5 531Q765 597 716 646Q667 695 601 723.5Q535 752 460 752Q385 752 319 723.5Q253 695 204 646Q155 597 126.5 531Q98 465 98 390ZM60 390Q60 473 91.5 546Q123 619 177 673Q231 727 304 758.5Q377 790 460 790Q543 790 616 758.5Q689 727 743 673Q797 619 828.5 546Q860 473 860 390Q860 307 828.5 234Q797 161 743 107Q689 53 616 21.5Q543 -10 460 -10Q377 -10 304 21.5Q231 53 177 107Q123 161 91.5 234Q60 307 60 390Z" glyph-name="published" horiz-adv-x="920" unicode="&#8471;" /><glyph glyph-name="punctuationspace" horiz-adv-x="180" unicode="&#8200;" /><glyph d="M415 410Q406 425 392.5 441Q379 457 361 470.5Q343 484 319 493Q295 502 265 502Q180 502 138.5 440.5Q97 379 97 275V255Q97 151 138.5 89.5Q180 28 265 28Q295 28 319 36.5Q343 45 361 58.5Q379 72 392.5 88.5Q406 105 415 120ZM415 65Q394 34 356.5 12Q319 -10 260 -10Q206 -10 167 11Q128 32 103 68Q78 104 66.5 152.5Q55 201 55 255V275Q55 329 66.5 377.5Q78 426 103 462Q128 498 167 519Q206 540 260 540Q323 540 361.5 514.5Q400 489 420 455L430 530H460L455 380V-200H415Z" glyph-name="q" horiz-adv-x="525" unicode="q" /><glyph d="M250 0H190V60H250ZM223 752Q177 752 147 734Q117 716 99.5 683Q82 650 75 603.5Q68 557 68 500H28V510Q28 567 36 618Q44 669 66 707Q88 745 125.5 767.5Q163 790 223 790Q319 790 363.5 735.5Q408 681 408 580Q408 530 395.5 495Q383 460 363.5 432Q344 404 321.5 379.5Q299 355 279.5 326.5Q260 298 246.5 262Q233 226 232 175H208Q207 226 218 264.5Q229 303 246.5 334.5Q264 366 285 392.5Q306 419 324 446.5Q342 474 354 504.5Q366 535 366 575Q366 616 359.5 649Q353 682 336.5 705Q320 728 292.5 740Q265 752 223 752Z" glyph-name="question" horiz-adv-x="440" unicode="?" /><glyph d="M190 530H250V470H190ZM217 -172Q263 -172 293 -155.5Q323 -139 340.5 -108.5Q358 -78 365 -35.5Q372 7 372 60H412V50Q412 -3 404 -50Q396 -97 374 -132.5Q352 -168 314.5 -189Q277 -210 217 -210Q129 -210 80.5 -163Q32 -116 32 -30Q32 20 44.5 55Q57 90 76.5 117.5Q96 145 118.5 168Q141 191 160.5 217Q180 243 193.5 276Q207 309 208 355H232Q233 309 222 273.5Q211 238 193.5 209Q176 180 155 154.5Q134 129 116 102.5Q98 76 86 45Q74 14 74 -25Q74 -93 107 -132.5Q140 -172 217 -172Z" glyph-name="questiondown" horiz-adv-x="440" unicode="&#191;" /><glyph d="M190 780H250V720H190ZM217 28Q263 28 293 46Q323 64 340.5 97Q358 130 365 176.5Q372 223 372 280H412V270Q412 213 404 162Q396 111 374 73Q352 35 314.5 12.5Q277 -10 217 -10Q121 -10 76.5 44.5Q32 99 32 200Q32 250 44.5 285Q57 320 76.5 348Q96 376 118.5 400.5Q141 425 160.5 453.5Q180 482 193.5 518Q207 554 208 605H232Q233 554 222 515.5Q211 477 193.5 445.5Q176 414 155 387.5Q134 361 116 333.5Q98 306 86 275Q74 244 74 205Q74 164 80.5 131Q87 98 103.5 75Q120 52 147.5 40Q175 28 217 28Z" glyph-name="questiondown.cap" horiz-adv-x="440" unicode="&#58436;" /><glyph d="M223 780 212 530H188L177 780ZM123 780 112 530H88L77 780Z" glyph-name="quotedbl" horiz-adv-x="300" unicode="&quot;" /><glyph d="M130 12Q130 -110 40 -110V-80Q69 -80 83.5 -63.5Q98 -47 100 0H70V60H130ZM250 12Q250 -110 160 -110V-80Q189 -80 203.5 -63.5Q218 -47 220 0H190V60H250Z" glyph-name="quotedblbase" horiz-adv-x="320" unicode="&#8222;" /><glyph d="M160 668Q160 790 250 790V760Q221 760 206.5 743.5Q192 727 190 680H220V620H160ZM40 668Q40 790 130 790V760Q101 760 86.5 743.5Q72 727 70 680H100V620H40Z" glyph-name="quotedblleft" horiz-adv-x="320" unicode="&#8220;" /><glyph d="M130 732Q130 610 40 610V640Q69 640 83.5 656.5Q98 673 100 720H70V780H130ZM250 732Q250 610 160 610V640Q189 640 203.5 656.5Q218 673 220 720H190V780H250Z" glyph-name="quotedblright" horiz-adv-x="320" unicode="&#8221;" /><glyph d="M40 668Q40 790 130 790V760Q101 760 86.5 743.5Q72 727 70 680H100V620H40Z" glyph-name="quoteleft" horiz-adv-x="200" unicode="&#8216;" /><glyph d="M130 732Q130 610 40 610V640Q69 640 83.5 656.5Q98 673 100 720H70V780H130Z" glyph-name="quoteright" horiz-adv-x="200" unicode="&#8217;" /><glyph d="M130 12Q130 -110 40 -110V-80Q69 -80 83.5 -63.5Q98 -47 100 0H70V60H130Z" glyph-name="quotesinglbase" horiz-adv-x="200" unicode="&#8218;" /><glyph d="M123 780 112 530H88L77 780Z" glyph-name="quotesingle" horiz-adv-x="200" unicode="&apos;" /><glyph d="M255 540Q257 540 260 539.5Q263 539 265 539H270V502H260Q228 502 204 493Q180 484 162.5 470.5Q145 457 132 441Q119 425 110 410V0H70V380L65 530H95L104 455Q124 489 161 514.5Q198 540 255 540Z" glyph-name="r" horiz-adv-x="315" unicode="r" /><glyph d="M281 780 191 620H149L239 780ZM255 540Q257 540 260 539.5Q263 539 265 539H270V502H260Q228 502 204 493Q180 484 162.5 470.5Q145 457 132 441Q119 425 110 410V0H70V380L65 530H95L104 455Q124 489 161 514.5Q198 540 255 540Z" glyph-name="racute" horiz-adv-x="315" unicode="&#341;" /><glyph d="M70 780 170 656 270 780H315L185 620H155L25 780ZM255 540Q257 540 260 539.5Q263 539 265 539H270V502H260Q228 502 204 493Q180 484 162.5 470.5Q145 457 132 441Q119 425 110 410V0H70V380L65 530H95L104 455Q124 489 161 514.5Q198 540 255 540Z" glyph-name="rcaron" horiz-adv-x="315" unicode="&#345;" /><glyph d="M120 -108Q120 -155 96 -182.5Q72 -210 30 -210V-180Q54 -180 71 -166Q88 -152 90 -120H60V-60H120ZM255 540Q257 540 260 539.5Q263 539 265 539H270V502H260Q228 502 204 493Q180 484 162.5 470.5Q145 457 132 441Q119 425 110 410V0H70V380L65 530H95L104 455Q124 489 161 514.5Q198 540 255 540Z" glyph-name="rcommaaccent" horiz-adv-x="315" unicode="&#343;" /><glyph d="M197 700Q197 725 166 725H133V671H166Q197 671 197 696ZM225 694Q225 659 194 648L225 579H196L168 645H133V579H105V751H171Q195 751 210 738Q225 725 225 702ZM44 665Q44 640 53.5 618Q63 596 79.5 579.5Q96 563 118 553.5Q140 544 165 544Q190 544 212 553.5Q234 563 250.5 579.5Q267 596 276.5 618Q286 640 286 665Q286 690 276.5 712Q267 734 250.5 750.5Q234 767 212 776.5Q190 786 165 786Q140 786 118 776.5Q96 767 79.5 750.5Q63 734 53.5 712Q44 690 44 665ZM20 665Q20 695 31.5 721.5Q43 748 62.5 767.5Q82 787 108.5 798.5Q135 810 165 810Q195 810 221.5 798.5Q248 787 267.5 767.5Q287 748 298.5 721.5Q310 695 310 665Q310 635 298.5 608.5Q287 582 267.5 562.5Q248 543 221.5 531.5Q195 520 165 520Q135 520 108.5 531.5Q82 543 62.5 562.5Q43 582 31.5 608.5Q20 635 20 665Z" glyph-name="registered" horiz-adv-x="330" unicode="&#174;" /><glyph d="M471 391Q488 391 506 394.5Q524 398 539 408.5Q554 419 563.5 437.5Q573 456 573 486V494Q573 524 563.5 542.5Q554 561 539 571.5Q524 582 506 585.5Q488 589 471 589H351V391ZM351 155H311V625H471Q496 625 521.5 619.5Q547 614 567 599.5Q587 585 600 560Q613 535 613 496V484Q613 430 589 402Q565 374 532 363L613 155H570L492 356Q487 355 481.5 355Q476 355 471 355H351ZM98 390Q98 315 126.5 249Q155 183 204 134Q253 85 319 56.5Q385 28 460 28Q535 28 601 56.5Q667 85 716 134Q765 183 793.5 249Q822 315 822 390Q822 465 793.5 531Q765 597 716 646Q667 695 601 723.5Q535 752 460 752Q385 752 319 723.5Q253 695 204 646Q155 597 126.5 531Q98 465 98 390ZM60 390Q60 473 91.5 546Q123 619 177 673Q231 727 304 758.5Q377 790 460 790Q543 790 616 758.5Q689 727 743 673Q797 619 828.5 546Q860 473 860 390Q860 307 828.5 234Q797 161 743 107Q689 53 616 21.5Q543 -10 460 -10Q377 -10 304 21.5Q231 53 177 107Q123 161 91.5 234Q60 307 60 390Z" glyph-name="registered.cap" horiz-adv-x="920" unicode="&#59804;" /><glyph d="M100 780V720H70Q72 673 86.5 656.5Q101 640 130 640V610Q40 610 40 732V780ZM220 780V720H190Q192 673 206.5 656.5Q221 640 250 640V610Q160 610 160 732V780Z" glyph-name="reversequotedblleft" horiz-adv-x="320" unicode="&#8223;" /><glyph d="M100 780V720H70Q72 673 86.5 656.5Q101 640 130 640V610Q40 610 40 732V780Z" glyph-name="reversequoteleft" horiz-adv-x="200" unicode="&#8219;" /><glyph d="M192 700Q192 676 209 659Q226 642 250 642Q274 642 291 659Q308 676 308 700Q308 724 291 741Q274 758 250 758Q226 758 209 741Q192 724 192 700ZM160 700Q160 738 186 764Q212 790 250 790Q288 790 314 764Q340 738 340 700Q340 662 314 636Q288 610 250 610Q212 610 186 636Q160 662 160 700Z" glyph-name="ring" horiz-adv-x="500" unicode="&#730;" /><glyph d="M192 870Q192 846 209 829Q226 812 250 812Q274 812 291 829Q308 846 308 870Q308 894 291 911Q274 928 250 928Q226 928 209 911Q192 894 192 870ZM160 870Q160 908 186 934Q212 960 250 960Q288 960 314 934Q340 908 340 870Q340 832 314 806Q288 780 250 780Q212 780 186 806Q160 832 160 870Z" glyph-name="ring.cap" horiz-adv-x="500" unicode="&#58410;" /><glyph d="M322 368Q350 368 383 374.5Q416 381 443.5 400.5Q471 420 489.5 455Q508 490 508 547V563Q508 620 489.5 655Q471 690 443.5 709.5Q416 729 383 735.5Q350 742 322 742H160V368ZM160 228H375V190H160V0H120V190H25V228H120V330H25V368H120V780H322Q362 780 402.5 770.5Q443 761 476 736.5Q509 712 529.5 670.5Q550 629 550 565V545Q550 481 529.5 439.5Q509 398 476 373.5Q443 349 402.5 339.5Q362 330 322 330H160Z" glyph-name="ruble" horiz-adv-x="600" unicode="&#8381;" /><glyph d="M260 28Q334 28 373.5 58Q413 88 413 140Q413 172 403 192Q393 212 372.5 224.5Q352 237 320.5 243Q289 249 245 253Q192 258 158.5 270Q125 282 105.5 300Q86 318 78.5 341.5Q71 365 71 392V397Q71 427 83 453.5Q95 480 119 499Q143 518 178 529Q213 540 260 540Q313 540 349 526.5Q385 513 407.5 489.5Q430 466 440 433.5Q450 401 450 364V360H410Q410 393 403 419Q396 445 378.5 463.5Q361 482 332 492Q303 502 260 502Q191 502 152 474.5Q113 447 113 395Q113 371 119.5 352.5Q126 334 144 320.5Q162 307 193.5 298.5Q225 290 275 286Q325 282 359.5 272Q394 262 415 244.5Q436 227 445.5 201.5Q455 176 455 142V138Q455 74 404.5 32Q354 -10 260 -10Q204 -10 166.5 5.5Q129 21 106.5 45.5Q84 70 74.5 99.5Q65 129 65 156V160H105Q105 135 112 111.5Q119 88 136.5 69.5Q154 51 184 39.5Q214 28 260 28Z" glyph-name="s" horiz-adv-x="520" unicode="s" /><glyph d="M371 780 281 620H239L329 780ZM260 28Q334 28 373.5 58Q413 88 413 140Q413 172 403 192Q393 212 372.5 224.5Q352 237 320.5 243Q289 249 245 253Q192 258 158.5 270Q125 282 105.5 300Q86 318 78.5 341.5Q71 365 71 392V397Q71 427 83 453.5Q95 480 119 499Q143 518 178 529Q213 540 260 540Q313 540 349 526.5Q385 513 407.5 489.5Q430 466 440 433.5Q450 401 450 364V360H410Q410 393 403 419Q396 445 378.5 463.5Q361 482 332 492Q303 502 260 502Q191 502 152 474.5Q113 447 113 395Q113 371 119.5 352.5Q126 334 144 320.5Q162 307 193.5 298.5Q225 290 275 286Q325 282 359.5 272Q394 262 415 244.5Q436 227 445.5 201.5Q455 176 455 142V138Q455 74 404.5 32Q354 -10 260 -10Q204 -10 166.5 5.5Q129 21 106.5 45.5Q84 70 74.5 99.5Q65 129 65 156V160H105Q105 135 112 111.5Q119 88 136.5 69.5Q154 51 184 39.5Q214 28 260 28Z" glyph-name="sacute" horiz-adv-x="520" unicode="&#347;" /><glyph d="M160 780 260 656 360 780H405L275 620H245L115 780ZM260 28Q334 28 373.5 58Q413 88 413 140Q413 172 403 192Q393 212 372.5 224.5Q352 237 320.5 243Q289 249 245 253Q192 258 158.5 270Q125 282 105.5 300Q86 318 78.5 341.5Q71 365 71 392V397Q71 427 83 453.5Q95 480 119 499Q143 518 178 529Q213 540 260 540Q313 540 349 526.5Q385 513 407.5 489.5Q430 466 440 433.5Q450 401 450 364V360H410Q410 393 403 419Q396 445 378.5 463.5Q361 482 332 492Q303 502 260 502Q191 502 152 474.5Q113 447 113 395Q113 371 119.5 352.5Q126 334 144 320.5Q162 307 193.5 298.5Q225 290 275 286Q325 282 359.5 272Q394 262 415 244.5Q436 227 445.5 201.5Q455 176 455 142V138Q455 74 404.5 32Q354 -10 260 -10Q204 -10 166.5 5.5Q129 21 106.5 45.5Q84 70 74.5 99.5Q65 129 65 156V160H105Q105 135 112 111.5Q119 88 136.5 69.5Q154 51 184 39.5Q214 28 260 28Z" glyph-name="scaron" horiz-adv-x="520" unicode="&#353;" /><glyph d="M182 -158Q195 -166 213.5 -171.5Q232 -177 252 -177Q287 -177 304 -168Q321 -159 321 -136Q321 -114 302.5 -105.5Q284 -97 256 -97Q251 -97 246.5 -97.5Q242 -98 238 -98Q234 -99 230 -99L213 -83L240 -9Q190 -6 156.5 10.5Q123 27 102.5 50.5Q82 74 73.5 102Q65 130 65 156V160H105Q105 135 112 111.5Q119 88 136.5 69.5Q154 51 184 39.5Q214 28 260 28Q334 28 373.5 58Q413 88 413 140Q413 172 403 192Q393 212 372.5 224.5Q352 237 320.5 243Q289 249 245 253Q192 258 158.5 270Q125 282 105.5 300Q86 318 78.5 341.5Q71 365 71 392V397Q71 427 83 453.5Q95 480 119 499Q143 518 178 529Q213 540 260 540Q313 540 349 526.5Q385 513 407.5 489.5Q430 466 440 433.5Q450 401 450 364V360H410Q410 393 403 419Q396 445 378.5 463.5Q361 482 332 492Q303 502 260 502Q191 502 152 474.5Q113 447 113 395Q113 371 119.5 352.5Q126 334 144 320.5Q162 307 193.5 298.5Q225 290 275 286Q325 282 359.5 272Q394 262 415 244.5Q436 227 445.5 201.5Q455 176 455 142V138Q455 77 408.5 36Q362 -5 276 -9L256 -64H261Q277 -64 293.5 -67.5Q310 -71 323.5 -79Q337 -87 345.5 -100.5Q354 -114 354 -135Q354 -176 326 -193Q298 -210 257 -210Q232 -210 208 -204.5Q184 -199 169 -188Z" glyph-name="scedilla" horiz-adv-x="520" unicode="&#351;" /><glyph d="M115 620 245 780H275L405 620H360L260 744L160 620ZM260 28Q334 28 373.5 58Q413 88 413 140Q413 172 403 192Q393 212 372.5 224.5Q352 237 320.5 243Q289 249 245 253Q192 258 158.5 270Q125 282 105.5 300Q86 318 78.5 341.5Q71 365 71 392V397Q71 427 83 453.5Q95 480 119 499Q143 518 178 529Q213 540 260 540Q313 540 349 526.5Q385 513 407.5 489.5Q430 466 440 433.5Q450 401 450 364V360H410Q410 393 403 419Q396 445 378.5 463.5Q361 482 332 492Q303 502 260 502Q191 502 152 474.5Q113 447 113 395Q113 371 119.5 352.5Q126 334 144 320.5Q162 307 193.5 298.5Q225 290 275 286Q325 282 359.5 272Q394 262 415 244.5Q436 227 445.5 201.5Q455 176 455 142V138Q455 74 404.5 32Q354 -10 260 -10Q204 -10 166.5 5.5Q129 21 106.5 45.5Q84 70 74.5 99.5Q65 129 65 156V160H105Q105 135 112 111.5Q119 88 136.5 69.5Q154 51 184 39.5Q214 28 260 28Z" glyph-name="scircumflex" horiz-adv-x="520" unicode="&#349;" /><glyph d="M290 -108Q290 -155 266 -182.5Q242 -210 200 -210V-180Q224 -180 241 -166Q258 -152 260 -120H230V-60H290ZM260 28Q334 28 373.5 58Q413 88 413 140Q413 172 403 192Q393 212 372.5 224.5Q352 237 320.5 243Q289 249 245 253Q192 258 158.5 270Q125 282 105.5 300Q86 318 78.5 341.5Q71 365 71 392V397Q71 427 83 453.5Q95 480 119 499Q143 518 178 529Q213 540 260 540Q313 540 349 526.5Q385 513 407.5 489.5Q430 466 440 433.5Q450 401 450 364V360H410Q410 393 403 419Q396 445 378.5 463.5Q361 482 332 492Q303 502 260 502Q191 502 152 474.5Q113 447 113 395Q113 371 119.5 352.5Q126 334 144 320.5Q162 307 193.5 298.5Q225 290 275 286Q325 282 359.5 272Q394 262 415 244.5Q436 227 445.5 201.5Q455 176 455 142V138Q455 74 404.5 32Q354 -10 260 -10Q204 -10 166.5 5.5Q129 21 106.5 45.5Q84 70 74.5 99.5Q65 129 65 156V160H105Q105 135 112 111.5Q119 88 136.5 69.5Q154 51 184 39.5Q214 28 260 28Z" glyph-name="scommaaccent" horiz-adv-x="520" unicode="&#537;" /><glyph d="M413 390Q413 421 404 441Q395 461 375.5 473Q356 485 326.5 491.5Q297 498 256 502H240Q166 502 126.5 472Q87 442 87 390Q87 359 96 339Q105 319 124.5 307Q144 295 173 288.5Q202 282 243 278H260Q334 278 373.5 308Q413 338 413 390ZM455 388Q455 340 428.5 306Q402 272 350 256Q396 238 412.5 207Q429 176 429 138V133Q429 103 417 76.5Q405 50 381 31Q357 12 321.5 1Q286 -10 240 -10Q187 -10 151 3.5Q115 17 92.5 40.5Q70 64 60 96Q50 128 50 166V170H90Q90 137 97 111Q104 85 121.5 66.5Q139 48 167.5 38Q196 28 240 28Q309 28 348 55.5Q387 83 387 135Q387 159 380.5 177Q374 195 356 208.5Q338 222 306.5 231Q275 240 225 244Q175 248 140.5 258Q106 268 85 285.5Q64 303 54.5 328Q45 353 45 388V392Q45 439 71.5 473Q98 507 149 523Q103 542 87 572.5Q71 603 71 642V647Q71 677 83 703.5Q95 730 119 749Q143 768 178 779Q213 790 260 790Q313 790 349 776.5Q385 763 407.5 739.5Q430 716 440 683.5Q450 651 450 614V610H410Q410 643 403 669Q396 695 378.5 713.5Q361 732 332 742Q303 752 260 752Q191 752 152 724.5Q113 697 113 645Q113 621 119.5 602.5Q126 584 144 570.5Q162 557 193.5 548.5Q225 540 275 536Q325 532 359.5 522Q394 512 415 494.5Q436 477 445.5 451.5Q455 426 455 392Z" glyph-name="section" horiz-adv-x="500" unicode="&#167;" /><glyph d="M130 360H70V420H130ZM130 12Q130 -110 40 -110V-80Q69 -80 83.5 -63.5Q98 -47 100 0H70V60H130Z" glyph-name="semicolon" horiz-adv-x="200" unicode=";" /><glyph d="M180 360H120V420H180ZM180 12Q180 -110 90 -110V-80Q119 -80 133.5 -63.5Q148 -47 150 0H120V60H180Z" glyph-name="semicolon.T" horiz-adv-x="300" unicode="&#61829;" /><glyph d="M363 530H323L263 750L265 680V530H231V800H283L343 582L403 800H455V530H421V680L423 750ZM100 653Q55 659 39 677.5Q23 696 23 725V729Q23 764 45 784Q67 804 108 804Q156 804 173.5 782Q191 760 191 715V707H157Q157 742 147 757Q137 772 109 772H107Q57 772 57 732V729Q57 709 68 698.5Q79 688 114 683Q159 677 176.5 658.5Q194 640 194 608V604Q194 567 172.5 544.5Q151 522 108 522Q63 522 41.5 546.5Q20 571 20 616V620H54Q54 588 66 571Q78 554 107 554H109Q136 554 148 566Q160 578 160 601V603Q160 625 146.5 636.5Q133 648 100 653Z" glyph-name="servicemark" horiz-adv-x="510" unicode="&#8480;" /><glyph d="M65 780H545V755L238 0H195L496 741L379 740H105V500H65Z" glyph-name="seven" horiz-adv-x="600" unicode="7" /><glyph d="M29 190H275V168L125 -200H87L233 158L178 157H61V50H29Z" glyph-name="seven.inf" horiz-adv-x="300" unicode="&#58744;" /><glyph d="M535 0V32H637V343L545 281L527 309L650 392H673V32H774V0ZM29 780H275V758L125 390H87L233 748L178 747H61V640H29ZM953 213Q923 213 899.5 198Q876 183 863 158V130Q863 81 888.5 53.5Q914 26 950 26H953Q993 26 1017 49.5Q1041 73 1041 116V124Q1041 167 1017.5 190Q994 213 956 213ZM90 0 666 780H710L134 0ZM1058 363Q1020 363 979.5 347Q939 331 911 294Q882 256 871 209Q887 225 909 235Q931 245 959 245Q1010 245 1043 215Q1076 185 1076 122V117Q1076 55 1042 24.5Q1008 -6 952 -6Q898 -6 862.5 29.5Q827 65 827 131V137Q827 184 839 228.5Q851 273 882 315Q914 358 962.5 376.5Q1011 395 1058 395Z" glyph-name="sevensixteenths" horiz-adv-x="1100" unicode="&#61976;" /><glyph d="M307 450Q236 450 182.5 415Q129 380 102 323Q100 309 100 296Q100 283 100 270V260Q100 206 116 163.5Q132 121 159 91Q186 61 223 45.5Q260 30 302 30H308Q402 30 455 82.5Q508 135 508 232V248Q508 345 455.5 397.5Q403 450 313 450ZM515 750Q477 750 435.5 742Q394 734 352.5 716Q311 698 273 669.5Q235 641 204 600Q168 552 146 499.5Q124 447 113 395Q146 439 195.5 464.5Q245 490 310 490Q361 490 405 475.5Q449 461 481 430.5Q513 400 531.5 354Q550 308 550 245V235Q550 172 531.5 126Q513 80 480.5 49.5Q448 19 403 4.5Q358 -10 305 -10Q254 -10 209.5 7.5Q165 25 132 59Q99 93 79.5 143.5Q60 194 60 260V270Q60 363 84 453Q108 543 170 626Q202 669 244 700Q286 731 331.5 751Q377 771 424.5 780.5Q472 790 515 790Z" glyph-name="six" horiz-adv-x="600" unicode="6" /><glyph d="M153 13Q123 13 99.5 -2Q76 -17 63 -42V-70Q63 -119 88.5 -146.5Q114 -174 150 -174H153Q193 -174 217 -150.5Q241 -127 241 -84V-76Q241 -33 217.5 -10Q194 13 156 13ZM258 163Q220 163 179.5 147Q139 131 111 94Q82 56 71 9Q87 25 109 35Q131 45 159 45Q210 45 243 15Q276 -15 276 -78V-83Q276 -145 242 -175.5Q208 -206 152 -206Q98 -206 62.5 -170.5Q27 -135 27 -69V-63Q27 -16 39 28.5Q51 73 82 115Q114 158 162.5 176.5Q211 195 258 195Z" glyph-name="six.inf" horiz-adv-x="300" unicode="&#58743;" /><glyph glyph-name="sixperemspace" horiz-adv-x="167" unicode="&#8198;" /><glyph d="M55 -120H15L245 840H285Z" glyph-name="slash" horiz-adv-x="300" unicode="/" /><glyph d="M34 0 226 780H266L74 0Z" glyph-name="slash.cap" horiz-adv-x="300" unicode="&#58465;" /><glyph glyph-name="space" horiz-adv-x="200" unicode=" " /><glyph d="M451 790Q463 771 486 742.5Q509 714 540 682Q571 650 607.5 618Q644 586 684 560Q717 539 746.5 515.5Q776 492 798.5 464.5Q821 437 834.5 405Q848 373 848 334Q848 297 834.5 265.5Q821 234 797 210.5Q773 187 741 173.5Q709 160 672 160Q635 160 604 173.5Q573 187 548 209.5Q523 232 504 261Q485 290 472 321L469 320Q473 269 479.5 227Q486 185 495.5 147Q505 109 518.5 73Q532 37 551 0H349Q368 37 381.5 73Q395 109 404.5 147Q414 185 420.5 227Q427 269 431 320L428 321Q415 290 396 261Q377 232 352 209.5Q327 187 296 173.5Q265 160 228 160Q191 160 159 173.5Q127 187 103 210.5Q79 234 65.5 265.5Q52 297 52 334Q52 373 65.5 405Q79 437 101.5 464.5Q124 492 153.5 515.5Q183 539 216 560Q256 586 292.5 618Q329 650 360 682Q391 714 414 742.5Q437 771 449 790Z" glyph-name="spade" horiz-adv-x="900" unicode="&#9824;" /><glyph d="M198 157 431 390 198 623 227 652 460 419 693 652 722 623 489 390 722 157 693 128 460 361 227 128ZM108 742V38H812V742ZM70 0V780H850V0Z" glyph-name="squaremultiply" horiz-adv-x="920" unicode="&#8864;" /><glyph d="M330 752Q288 752 257.5 739Q227 726 206.5 702Q186 678 176.5 644.5Q167 611 167 570Q167 532 173.5 492Q180 452 191 410H400V370H201Q211 331 222 291Q233 251 242 210Q251 169 257 126Q263 83 264 40H540V0H60V40H229Q223 129 199.5 209.5Q176 290 155 370H60V410H145Q136 450 130.5 490.5Q125 531 125 575Q125 676 179.5 733Q234 790 330 790Q390 790 431 767.5Q472 745 497.5 707Q523 669 534 618Q545 567 545 510V500H505Q505 557 495 603.5Q485 650 463.5 683Q442 716 409 734Q376 752 330 752Z" glyph-name="sterling" horiz-adv-x="600" unicode="&#163;" /><glyph d="M340 530V492H160V140Q160 106 167 84.5Q174 63 187.5 50.5Q201 38 222 33Q243 28 270 28Q288 28 305.5 31Q323 34 330 37V0Q325 -2 307.5 -6Q290 -10 260 -10Q230 -10 204.5 -2Q179 6 160 23Q141 40 130.5 68Q120 96 120 135V492H35V530H120V680H160V530Z" glyph-name="t" horiz-adv-x="390" unicode="t" /><glyph d="M340 530V492H160V284H300V246H160V140Q160 106 167 84.5Q174 63 187.5 50.5Q201 38 222 33Q243 28 270 28Q288 28 305.5 31Q323 34 330 37V0Q325 -2 307.5 -6Q290 -10 260 -10Q230 -10 204.5 -2Q179 6 160 23Q141 40 130.5 68Q120 96 120 135V246H35V284H120V492H35V530H120V680H160V530Z" glyph-name="tbar" horiz-adv-x="390" unicode="&#359;" /><glyph d="M285 800 270 620H240V800ZM340 530V492H160V140Q160 106 167 84.5Q174 63 187.5 50.5Q201 38 222 33Q243 28 270 28Q288 28 305.5 31Q323 34 330 37V0Q325 -2 307.5 -6Q290 -10 260 -10Q230 -10 204.5 -2Q179 6 160 23Q141 40 130.5 68Q120 96 120 135V492H35V530H120V680H160V530Z" glyph-name="tcaron" horiz-adv-x="390" unicode="&#357;" /><glyph d="M260 -108Q260 -155 236 -182.5Q212 -210 170 -210V-180Q194 -180 211 -166Q228 -152 230 -120H200V-60H260ZM340 530V492H160V140Q160 106 167 84.5Q174 63 187.5 50.5Q201 38 222 33Q243 28 270 28Q288 28 305.5 31Q323 34 330 37V0Q325 -2 307.5 -6Q290 -10 260 -10Q230 -10 204.5 -2Q179 6 160 23Q141 40 130.5 68Q120 96 120 135V492H35V530H120V680H160V530Z" glyph-name="tcommaaccent" horiz-adv-x="390" unicode="&#355;" /><glyph d="M170 745H110V805H170ZM340 530V492H160V140Q160 106 167 84.5Q174 63 187.5 50.5Q201 38 222 33Q243 28 270 28Q288 28 305.5 31Q323 34 330 37V0Q325 -2 307.5 -6Q290 -10 260 -10Q230 -10 204.5 -2Q179 6 160 23Q141 40 130.5 68Q120 96 120 135V492H35V530H120V680H160V530Z" glyph-name="tdotaccent" horiz-adv-x="390" unicode="&#7787;" /><glyph glyph-name="thinspace" horiz-adv-x="150" unicode="&#8201;" /><glyph d="M835 0V32H937V343L845 281L827 309L950 392H973V32H1074V0ZM35 390V422H137V733L45 671L27 699L150 782H173V422H274V390ZM1253 213Q1223 213 1199.5 198Q1176 183 1163 158V130Q1163 81 1188.5 53.5Q1214 26 1250 26H1253Q1293 26 1317 49.5Q1341 73 1341 116V124Q1341 167 1317.5 190Q1294 213 1256 213ZM361 515Q361 464 383.5 440Q406 416 447 416H452Q486 416 512.5 434.5Q539 453 539 491V498Q539 536 515.5 554.5Q492 573 457 573H400V605H455Q489 605 512.5 621.5Q536 638 536 674V678Q536 713 513 733Q490 753 452 753H447Q405 753 384 729Q363 705 363 650H328V662Q328 721 357 753Q386 785 450 785Q510 785 541 756.5Q572 728 572 682V675Q572 640 555 619Q538 598 511 588Q539 578 556.5 556Q574 534 574 498V490Q574 443 539.5 413.5Q505 384 450 384Q386 384 355.5 417.5Q325 451 325 509V515ZM390 0 966 780H1010L434 0ZM1358 363Q1320 363 1279.5 347Q1239 331 1211 294Q1182 256 1171 209Q1187 225 1209 235Q1231 245 1259 245Q1310 245 1343 215Q1376 185 1376 122V117Q1376 55 1342 24.5Q1308 -6 1252 -6Q1198 -6 1162.5 29.5Q1127 65 1127 131V137Q1127 184 1139 228.5Q1151 273 1182 315Q1214 358 1262.5 376.5Q1311 395 1358 395Z" glyph-name="thirteensixteenths" horiz-adv-x="1400" unicode="&#61985;" /><glyph d="M110 120Q119 105 132.5 88.5Q146 72 164 58.5Q182 45 206 36.5Q230 28 260 28Q345 28 386.5 89.5Q428 151 428 255V275Q428 379 386.5 440.5Q345 502 260 502Q230 502 206 493Q182 484 164 470.5Q146 457 132.5 441Q119 425 110 410ZM110 800V464Q130 495 167.5 517.5Q205 540 265 540Q319 540 358 519Q397 498 422 462Q447 426 458.5 377.5Q470 329 470 275V255Q470 201 458.5 152.5Q447 104 422 68Q397 32 358 11Q319 -10 265 -10Q205 -10 167.5 12Q130 34 110 65V-200H70V800Z" glyph-name="thorn" horiz-adv-x="525" unicode="&#254;" /><glyph d="M95 250Q95 136 147.5 82Q200 28 295 28H305Q344 28 379.5 38Q415 48 442.5 68.5Q470 89 486.5 120.5Q503 152 503 195V210Q503 253 488.5 284.5Q474 316 448.5 337Q423 358 389.5 368.5Q356 379 317 379H200V417H312Q351 417 384.5 426Q418 435 443.5 454Q469 473 483.5 502.5Q498 532 498 573V580Q498 659 445.5 705.5Q393 752 305 752H295Q195 752 147.5 697.5Q100 643 100 520H60V545Q60 603 74 648.5Q88 694 117.5 725.5Q147 757 192 773.5Q237 790 300 790Q355 790 399.5 776Q444 762 475 736Q506 710 523 672Q540 634 540 585V571Q540 499 501.5 457Q463 415 400 398Q466 380 505.5 334Q545 288 545 212V197Q545 147 525.5 108.5Q506 70 472.5 43.5Q439 17 394.5 3.5Q350 -10 300 -10Q237 -10 190.5 7.5Q144 25 114 58Q84 91 69.5 137Q55 183 55 240V250Z" glyph-name="three" horiz-adv-x="600" unicode="3" /><glyph d="M61 -75Q61 -126 83.5 -150Q106 -174 147 -174H152Q186 -174 212.5 -155.5Q239 -137 239 -99V-92Q239 -54 215.5 -35.5Q192 -17 157 -17H100V15H155Q189 15 212.5 31.5Q236 48 236 84V88Q236 123 213 143Q190 163 152 163H147Q105 163 84 139Q63 115 63 60H28V72Q28 131 57 163Q86 195 150 195Q210 195 241 166.5Q272 138 272 92V85Q272 50 255 29Q238 8 211 -1Q239 -12 256.5 -34Q274 -56 274 -92V-100Q274 -147 239.5 -176.5Q205 -206 150 -206Q86 -206 55.5 -172.5Q25 -139 25 -81V-75Z" glyph-name="three.inf" horiz-adv-x="300" unicode="&#58740;" /><glyph glyph-name="threeperemspace" horiz-adv-x="333" unicode="&#8196;" /><glyph d="M40 369H710V331H40Z" glyph-name="threequarteremdash" horiz-adv-x="750" unicode="&#58482;" /><glyph d="M40 409H710V371H40Z" glyph-name="threequarteremdash.cap" horiz-adv-x="750" unicode="&#58501;" /><glyph d="M560 135 603 136H683V278L684 329ZM61 515Q61 464 83.5 440Q106 416 147 416H152Q186 416 212.5 434.5Q239 453 239 491V498Q239 536 215.5 554.5Q192 573 157 573H100V605H155Q189 605 212.5 621.5Q236 638 236 674V678Q236 713 213 733Q190 753 152 753H147Q105 753 84 729Q63 705 63 650H28V662Q28 721 57 753Q86 785 150 785Q210 785 241 756.5Q272 728 272 682V675Q272 640 255 619Q238 598 211 588Q239 578 256.5 556Q274 534 274 498V490Q274 443 239.5 413.5Q205 384 150 384Q86 384 55.5 417.5Q25 451 25 509V515ZM90 0 666 780H710L134 0ZM683 0V103H516V127L684 390H719V136H783V103H719V0Z" glyph-name="threequarters" horiz-adv-x="800" unicode="&#190;" /><glyph d="M535 0V32H637V343L545 281L527 309L650 392H673V32H774V0ZM953 213Q923 213 899.5 198Q876 183 863 158V130Q863 81 888.5 53.5Q914 26 950 26H953Q993 26 1017 49.5Q1041 73 1041 116V124Q1041 167 1017.5 190Q994 213 956 213ZM61 515Q61 464 83.5 440Q106 416 147 416H152Q186 416 212.5 434.5Q239 453 239 491V498Q239 536 215.5 554.5Q192 573 157 573H100V605H155Q189 605 212.5 621.5Q236 638 236 674V678Q236 713 213 733Q190 753 152 753H147Q105 753 84 729Q63 705 63 650H28V662Q28 721 57 753Q86 785 150 785Q210 785 241 756.5Q272 728 272 682V675Q272 640 255 619Q238 598 211 588Q239 578 256.5 556Q274 534 274 498V490Q274 443 239.5 413.5Q205 384 150 384Q86 384 55.5 417.5Q25 451 25 509V515ZM90 0 666 780H710L134 0ZM1058 363Q1020 363 979.5 347Q939 331 911 294Q882 256 871 209Q887 225 909 235Q931 245 959 245Q1010 245 1043 215Q1076 185 1076 122V117Q1076 55 1042 24.5Q1008 -6 952 -6Q898 -6 862.5 29.5Q827 65 827 131V137Q827 184 839 228.5Q851 273 882 315Q914 358 962.5 376.5Q1011 395 1058 395Z" glyph-name="threesixteenths" horiz-adv-x="1100" unicode="&#61974;" /><glyph d="M61 515Q61 464 83.5 440Q106 416 147 416H152Q186 416 212.5 434.5Q239 453 239 491V498Q239 536 215.5 554.5Q192 573 157 573H100V605H155Q189 605 212.5 621.5Q236 638 236 674V678Q236 713 213 733Q190 753 152 753H147Q105 753 84 729Q63 705 63 650H28V662Q28 721 57 753Q86 785 150 785Q210 785 241 756.5Q272 728 272 682V675Q272 640 255 619Q238 598 211 588Q239 578 256.5 556Q274 534 274 498V490Q274 443 239.5 413.5Q205 384 150 384Q86 384 55.5 417.5Q25 451 25 509V515Z" glyph-name="threesuperior" horiz-adv-x="300" unicode="&#179;" /><glyph d="M390 737Q390 694 371 673.5Q352 653 320 653Q298 653 279.5 662.5Q261 672 244.5 683Q228 694 213 703.5Q198 713 182 713Q166 713 155.5 702Q145 691 145 663H110Q110 706 129 726.5Q148 747 180 747Q202 747 220 737.5Q238 728 254.5 717Q271 706 286.5 696.5Q302 687 318 687Q334 687 344.5 698Q355 709 355 737Z" glyph-name="tilde" horiz-adv-x="500" unicode="&#732;" /><glyph d="M390 932Q390 889 370 868.5Q350 848 318 848Q296 848 278 857.5Q260 867 244.5 878.5Q229 890 214.5 899.5Q200 909 185 909Q146 909 146 858H110Q110 901 130 921.5Q150 942 182 942Q204 942 221.5 932.5Q239 923 255 911.5Q271 900 285.5 890.5Q300 881 315 881Q354 881 354 932Z" glyph-name="tilde.cap" horiz-adv-x="500" unicode="&#58404;" /><glyph d="M363 530H323L263 750L265 680V530H231V800H283L343 582L403 800H455V530H421V680L423 750ZM125 530H91V768H20V800H196V768H125Z" glyph-name="trademark" horiz-adv-x="510" unicode="&#8482;" /><glyph d="M65 780H107L465 34L823 780H865L485 -10H445Z" glyph-name="triagdn" horiz-adv-x="930" unicode="&#9660;" /><glyph d="M850 790V748L104 390L850 32V-10L60 370V410Z" glyph-name="triaglf" horiz-adv-x="930" unicode="&#9668;" /><glyph d="M870 370 80 -10V32L826 390L80 748V790L870 410Z" glyph-name="triagrt" horiz-adv-x="930" unicode="&#9658;" /><glyph d="M865 0H823L465 746L107 0H65L445 790H485Z" glyph-name="triagup" horiz-adv-x="930" unicode="&#9650;" /><glyph d="M223 780 212 530H188L177 780ZM323 780 312 530H288L277 780ZM123 780 112 530H88L77 780Z" glyph-name="tripleprime" horiz-adv-x="400" unicode="&#8244;" /><glyph d="M540 40V0H60V25L410 393Q435 420 452 442Q469 464 479.5 485Q490 506 494 526.5Q498 547 498 570V580Q498 619 484 651Q470 683 444.5 705.5Q419 728 383 740Q347 752 303 752H297Q197 752 148.5 697.5Q100 643 100 520H60V545Q60 603 74 648.5Q88 694 117.5 725.5Q147 757 192 773.5Q237 790 300 790Q355 790 399.5 776Q444 762 475 736Q506 710 523 672Q540 634 540 585V575Q540 546 536 522.5Q532 499 521.5 475.5Q511 452 493.5 428Q476 404 448 375L128 39L205 40Z" glyph-name="two" horiz-adv-x="600" unicode="2" /><glyph d="M272 -200H28V-178L196 1Q219 24 227.5 41.5Q236 59 236 81V86Q236 122 212.5 142.5Q189 163 151 163H148Q106 163 84.5 139Q63 115 63 60H28V72Q28 131 57 163Q86 195 150 195Q210 195 241 166.5Q272 138 272 91V85Q272 55 262 34Q252 13 226 -15L82 -168H272Z" glyph-name="two.inf" horiz-adv-x="300" unicode="&#58739;" /><glyph d="M272 390H28V412L196 591Q219 614 227.5 631.5Q236 649 236 671V676Q236 712 212.5 732.5Q189 753 151 753H148Q106 753 84.5 729Q63 705 63 650H28V662Q28 721 57 753Q86 785 150 785Q210 785 241 756.5Q272 728 272 681V675Q272 645 262 624Q252 603 226 575L82 422H272Z" glyph-name="twosuperior" horiz-adv-x="300" unicode="&#178;" /><glyph d="M105 530V160Q105 124 115 99Q125 74 142 58.5Q159 43 183 35.5Q207 28 235 28Q271 28 297.5 36.5Q324 45 343.5 58.5Q363 72 377 88.5Q391 105 400 120V530H440V150L445 0H415L405 77Q383 42 339.5 16Q296 -10 225 -10Q150 -10 107.5 35Q65 80 65 155V530Z" glyph-name="u" horiz-adv-x="510" unicode="u" /><glyph d="M363 780 273 620H231L321 780ZM105 530V160Q105 124 115 99Q125 74 142 58.5Q159 43 183 35.5Q207 28 235 28Q271 28 297.5 36.5Q324 45 343.5 58.5Q363 72 377 88.5Q391 105 400 120V530H440V150L445 0H415L405 77Q383 42 339.5 16Q296 -10 225 -10Q150 -10 107.5 35Q65 80 65 155V530Z" glyph-name="uacute" horiz-adv-x="510" unicode="&#250;" /><glyph d="M252 610Q173 610 136.5 657.5Q100 705 100 780H136Q136 751 142 726Q148 701 162 682.5Q176 664 198 653.5Q220 643 252 643Q284 643 306 653.5Q328 664 342 682.5Q356 701 362 726Q368 751 368 780H404Q404 705 367.5 657.5Q331 610 252 610ZM105 530V160Q105 124 115 99Q125 74 142 58.5Q159 43 183 35.5Q207 28 235 28Q271 28 297.5 36.5Q324 45 343.5 58.5Q363 72 377 88.5Q391 105 400 120V530H440V150L445 0H415L405 77Q383 42 339.5 16Q296 -10 225 -10Q150 -10 107.5 35Q65 80 65 155V530Z" glyph-name="ubreve" horiz-adv-x="510" unicode="&#365;" /><glyph d="M107 620 237 780H267L397 620H352L252 744L152 620ZM105 530V160Q105 124 115 99Q125 74 142 58.5Q159 43 183 35.5Q207 28 235 28Q271 28 297.5 36.5Q324 45 343.5 58.5Q363 72 377 88.5Q391 105 400 120V530H440V150L445 0H415L405 77Q383 42 339.5 16Q296 -10 225 -10Q150 -10 107.5 35Q65 80 65 155V530Z" glyph-name="ucircumflex" horiz-adv-x="510" unicode="&#251;" /><glyph d="M357 675H297V735H357ZM207 675H147V735H207ZM105 530V160Q105 124 115 99Q125 74 142 58.5Q159 43 183 35.5Q207 28 235 28Q271 28 297.5 36.5Q324 45 343.5 58.5Q363 72 377 88.5Q391 105 400 120V530H440V150L445 0H415L405 77Q383 42 339.5 16Q296 -10 225 -10Q150 -10 107.5 35Q65 80 65 155V530Z" glyph-name="udieresis" horiz-adv-x="510" unicode="&#252;" /><glyph d="M183 780 273 620H231L141 780ZM105 530V160Q105 124 115 99Q125 74 142 58.5Q159 43 183 35.5Q207 28 235 28Q271 28 297.5 36.5Q324 45 343.5 58.5Q363 72 377 88.5Q391 105 400 120V530H440V150L445 0H415L405 77Q383 42 339.5 16Q296 -10 225 -10Q150 -10 107.5 35Q65 80 65 155V530Z" glyph-name="ugrave" horiz-adv-x="510" unicode="&#249;" /><glyph d="M418 780 328 620H286L376 780ZM308 780 218 620H176L266 780ZM105 530V160Q105 124 115 99Q125 74 142 58.5Q159 43 183 35.5Q207 28 235 28Q271 28 297.5 36.5Q324 45 343.5 58.5Q363 72 377 88.5Q391 105 400 120V530H440V150L445 0H415L405 77Q383 42 339.5 16Q296 -10 225 -10Q150 -10 107.5 35Q65 80 65 155V530Z" glyph-name="uhungarumlaut" horiz-adv-x="510" unicode="&#369;" /><glyph d="M147 720H357V680H147ZM105 530V160Q105 124 115 99Q125 74 142 58.5Q159 43 183 35.5Q207 28 235 28Q271 28 297.5 36.5Q324 45 343.5 58.5Q363 72 377 88.5Q391 105 400 120V530H440V150L445 0H415L405 77Q383 42 339.5 16Q296 -10 225 -10Q150 -10 107.5 35Q65 80 65 155V530Z" glyph-name="umacron" horiz-adv-x="510" unicode="&#363;" /><glyph d="M50 -80H270V-118H50Z" glyph-name="underscore" horiz-adv-x="320" unicode="_" /><glyph d="M50 -80H550V-118H50Z" glyph-name="underscoremonospace" horiz-adv-x="600" unicode="&#65343;" /><glyph d="M40 369H280V331H40Z" glyph-name="uni00AD" horiz-adv-x="320" unicode="&#173;" /><glyph d="M40 369H1160V331H40Z" glyph-name="uni2015" horiz-adv-x="1200" unicode="&#8213;" /><glyph d="M40 409H1160V371H40Z" glyph-name="uni2015.cap" horiz-adv-x="1200" unicode="&#58504;" /><glyph d="M233 664Q233 705 215 729Q197 753 151 753H148Q102 753 84 729Q66 705 66 664V506Q66 465 84 440.5Q102 416 148 416H151Q197 416 215 440.5Q233 465 233 506ZM31 668Q31 718 58.5 751.5Q86 785 150 785Q214 785 241.5 751.5Q269 718 269 668V502Q269 451 241.5 417.5Q214 384 150 384Q86 384 58.5 417.5Q31 451 31 502Z" glyph-name="uni2070" horiz-adv-x="300" unicode="&#8304;" /><glyph d="M60 525 103 526H183V668L184 719ZM183 390V493H16V517L184 780H219V526H283V493H219V390Z" glyph-name="uni2074" horiz-adv-x="300" unicode="&#8308;" /><glyph d="M61 515Q61 464 83.5 440Q106 416 147 416H152Q186 416 212.5 437.5Q239 459 239 506V515Q239 539 231.5 556Q224 573 212 584Q200 595 184 600Q168 605 151 605H147Q120 605 94.5 591.5Q69 578 58 552L28 561L38 780H269V747H72L66 608Q82 622 103.5 629.5Q125 637 151 637Q204 637 239 605.5Q274 574 274 514V508Q274 447 239 415.5Q204 384 150 384Q86 384 55.5 417.5Q25 451 25 509V515Z" glyph-name="uni2075" horiz-adv-x="300" unicode="&#8309;" /><glyph d="M153 603Q123 603 99.5 588Q76 573 63 548V520Q63 471 88.5 443.5Q114 416 150 416H153Q193 416 217 439.5Q241 463 241 506V514Q241 557 217.5 580Q194 603 156 603ZM258 753Q220 753 179.5 737Q139 721 111 684Q82 646 71 599Q87 615 109 625Q131 635 159 635Q210 635 243 605Q276 575 276 512V507Q276 445 242 414.5Q208 384 152 384Q98 384 62.5 419.5Q27 455 27 521V527Q27 574 39 618.5Q51 663 82 705Q114 748 162.5 766.5Q211 785 258 785Z" glyph-name="uni2076" horiz-adv-x="300" unicode="&#8310;" /><glyph d="M29 780H275V758L125 390H87L233 748L178 747H61V640H29Z" glyph-name="uni2077" horiz-adv-x="300" unicode="&#8311;" /><glyph d="M147 753Q109 753 86 733.5Q63 714 63 679V675Q63 639 86.5 622Q110 605 145 605H155Q189 605 212.5 622Q236 639 236 675V679Q236 714 213 733.5Q190 753 152 753ZM143 573Q108 573 84.5 554Q61 535 61 497V490Q61 452 87.5 434Q114 416 147 416H152Q186 416 212.5 434Q239 452 239 490V497Q239 535 215.5 554Q192 573 157 573ZM150 384Q94 384 59.5 413Q25 442 25 489V497Q25 533 42.5 555.5Q60 578 88 588Q61 598 44.5 619.5Q28 641 28 676V683Q28 729 59 757Q90 785 150 785Q210 785 241 757Q272 729 272 683V676Q272 641 255 619.5Q238 598 211 588Q239 578 256.5 555.5Q274 533 274 497V489Q274 442 239.5 413Q205 384 150 384Z" glyph-name="uni2078" horiz-adv-x="300" unicode="&#8312;" /><glyph d="M147 567Q176 567 199.5 582Q223 597 236 621Q237 627 237 633Q237 639 237 645V650Q237 698 211.5 725.5Q186 753 149 753H146Q106 753 82.5 729.5Q59 706 59 664V655Q59 612 82.5 589.5Q106 567 144 567ZM41 416Q80 416 120 432Q160 448 189 485Q204 505 213.5 526.5Q223 548 228 571Q212 554 190 544.5Q168 535 140 535Q89 535 56 565Q23 595 23 657V662Q23 724 57 754.5Q91 785 148 785Q202 785 237 749.5Q272 714 272 648V643Q272 596 260.5 551Q249 506 217 464Q185 421 136.5 402.5Q88 384 41 384Z" glyph-name="uni2079" horiz-adv-x="300" unicode="&#8313;" /><glyph d="M166 711V601H276V568H166V459H133V568H24V601H133V711Z" glyph-name="uni207A" horiz-adv-x="300" unicode="&#8314;" /><glyph d="M24 601H276V568H24Z" glyph-name="uni207B" horiz-adv-x="300" unicode="&#8315;" /><glyph d="M24 550H276V517H24ZM24 652H276V619H24Z" glyph-name="uni207C" horiz-adv-x="300" unicode="&#8316;" /><glyph d="M30 590Q30 648 47.5 695.5Q65 743 91 780H128Q103 743 84 694Q65 645 65 590V580Q65 524 84 475Q103 426 128 390H91Q65 426 47.5 474Q30 522 30 580Z" glyph-name="uni207D" horiz-adv-x="158" unicode="&#8317;" /><glyph d="M128 580Q128 522 110.5 474Q93 426 67 390H30Q55 426 74 475Q93 524 93 580V590Q93 645 74 694Q55 743 30 780H67Q93 743 110.5 695.5Q128 648 128 590Z" glyph-name="uni207E" horiz-adv-x="158" unicode="&#8318;" /><glyph d="M233 274Q233 315 215 339Q197 363 151 363H148Q102 363 84 339Q66 315 66 274V116Q66 75 84 50.5Q102 26 148 26H151Q197 26 215 50.5Q233 75 233 116ZM31 278Q31 328 58.5 361.5Q86 395 150 395Q214 395 241.5 361.5Q269 328 269 278V112Q269 61 241.5 27.5Q214 -6 150 -6Q86 -6 58.5 27.5Q31 61 31 112Z" glyph-name="uni2080" horiz-adv-x="300" unicode="&#8320;" /><glyph d="M35 0V32H137V343L45 281L27 309L150 392H173V32H274V0Z" glyph-name="uni2081" horiz-adv-x="300" unicode="&#8321;" /><glyph d="M272 0H28V22L196 201Q219 224 227.5 241.5Q236 259 236 281V286Q236 322 212.5 342.5Q189 363 151 363H148Q106 363 84.5 339Q63 315 63 260H28V272Q28 331 57 363Q86 395 150 395Q210 395 241 366.5Q272 338 272 291V285Q272 255 262 234Q252 213 226 185L82 32H272Z" glyph-name="uni2082" horiz-adv-x="300" unicode="&#8322;" /><glyph d="M61 125Q61 74 83.5 50Q106 26 147 26H152Q186 26 212.5 44.5Q239 63 239 101V108Q239 146 215.5 164.5Q192 183 157 183H100V215H155Q189 215 212.5 231.5Q236 248 236 284V288Q236 323 213 343Q190 363 152 363H147Q105 363 84 339Q63 315 63 260H28V272Q28 331 57 363Q86 395 150 395Q210 395 241 366.5Q272 338 272 292V285Q272 250 255 229Q238 208 211 198Q239 188 256.5 166Q274 144 274 108V100Q274 53 239.5 23.5Q205 -6 150 -6Q86 -6 55.5 27.5Q25 61 25 119V125Z" glyph-name="uni2083" horiz-adv-x="300" unicode="&#8323;" /><glyph d="M60 135 103 136H183V278L184 329ZM183 0V103H16V127L184 390H219V136H283V103H219V0Z" glyph-name="uni2084" horiz-adv-x="300" unicode="&#8324;" /><glyph d="M61 125Q61 74 83.5 50Q106 26 147 26H152Q186 26 212.5 47.5Q239 69 239 116V125Q239 149 231.5 166Q224 183 212 194Q200 205 184 210Q168 215 151 215H147Q120 215 94.5 201.5Q69 188 58 162L28 171L38 390H269V357H72L66 218Q82 232 103.5 239.5Q125 247 151 247Q204 247 239 215.5Q274 184 274 124V118Q274 57 239 25.5Q204 -6 150 -6Q86 -6 55.5 27.5Q25 61 25 119V125Z" glyph-name="uni2085" horiz-adv-x="300" unicode="&#8325;" /><glyph d="M153 213Q123 213 99.5 198Q76 183 63 158V130Q63 81 88.5 53.5Q114 26 150 26H153Q193 26 217 49.5Q241 73 241 116V124Q241 167 217.5 190Q194 213 156 213ZM258 363Q220 363 179.5 347Q139 331 111 294Q82 256 71 209Q87 225 109 235Q131 245 159 245Q210 245 243 215Q276 185 276 122V117Q276 55 242 24.5Q208 -6 152 -6Q98 -6 62.5 29.5Q27 65 27 131V137Q27 184 39 228.5Q51 273 82 315Q114 358 162.5 376.5Q211 395 258 395Z" glyph-name="uni2086" horiz-adv-x="300" unicode="&#8326;" /><glyph d="M29 390H275V368L125 0H87L233 358L178 357H61V250H29Z" glyph-name="uni2087" horiz-adv-x="300" unicode="&#8327;" /><glyph d="M147 363Q109 363 86 343.5Q63 324 63 289V285Q63 249 86.5 232Q110 215 145 215H155Q189 215 212.5 232Q236 249 236 285V289Q236 324 213 343.5Q190 363 152 363ZM143 183Q108 183 84.5 164Q61 145 61 107V100Q61 62 87.5 44Q114 26 147 26H152Q186 26 212.5 44Q239 62 239 100V107Q239 145 215.5 164Q192 183 157 183ZM150 -6Q94 -6 59.5 23Q25 52 25 99V107Q25 143 42.5 165.5Q60 188 88 198Q61 208 44.5 229.5Q28 251 28 286V293Q28 339 59 367Q90 395 150 395Q210 395 241 367Q272 339 272 293V286Q272 251 255 229.5Q238 208 211 198Q239 188 256.5 165.5Q274 143 274 107V99Q274 52 239.5 23Q205 -6 150 -6Z" glyph-name="uni2088" horiz-adv-x="300" unicode="&#8328;" /><glyph d="M147 177Q176 177 199.5 192Q223 207 236 231Q237 237 237 243Q237 249 237 255V260Q237 308 211.5 335.5Q186 363 149 363H146Q106 363 82.5 339.5Q59 316 59 274V265Q59 222 82.5 199.5Q106 177 144 177ZM41 26Q80 26 120 42Q160 58 189 95Q204 115 213.5 136.5Q223 158 228 181Q212 164 190 154.5Q168 145 140 145Q89 145 56 175Q23 205 23 267V272Q23 334 57 364.5Q91 395 148 395Q202 395 237 359.5Q272 324 272 258V253Q272 206 260.5 161Q249 116 217 74Q185 31 136.5 12.5Q88 -6 41 -6Z" glyph-name="uni2089" horiz-adv-x="300" unicode="&#8329;" /><glyph d="M166 321V211H276V178H166V69H133V178H24V211H133V321Z" glyph-name="uni208A" horiz-adv-x="300" unicode="&#8330;" /><glyph d="M24 211H276V178H24Z" glyph-name="uni208B" horiz-adv-x="300" unicode="&#8331;" /><glyph d="M24 160H276V127H24ZM24 262H276V229H24Z" glyph-name="uni208C" horiz-adv-x="300" unicode="&#8332;" /><glyph d="M30 200Q30 258 47.5 305.5Q65 353 91 390H128Q103 353 84 304Q65 255 65 200V190Q65 134 84 85Q103 36 128 0H91Q65 36 47.5 84Q30 132 30 190Z" glyph-name="uni208D" horiz-adv-x="158" unicode="&#8333;" /><glyph d="M128 190Q128 132 110.5 84Q93 36 67 0H30Q55 36 74 85Q93 134 93 190V200Q93 255 74 304Q55 353 30 390H67Q93 353 110.5 305.5Q128 258 128 200Z" glyph-name="uni208E" horiz-adv-x="158" unicode="&#8334;" /><glyph d="M35 390V422H137V733L45 671L27 699L150 782H173V422H274V390ZM561 125Q561 74 583.5 50Q606 26 647 26H652Q686 26 712.5 44.5Q739 63 739 101V108Q739 146 715.5 164.5Q692 183 657 183H600V215H655Q689 215 712.5 231.5Q736 248 736 284V288Q736 323 713 343Q690 363 652 363H647Q605 363 584 339Q563 315 563 260H528V272Q528 331 557 363Q586 395 650 395Q710 395 741 366.5Q772 338 772 292V285Q772 250 755 229Q738 208 711 198Q739 188 756.5 166Q774 144 774 108V100Q774 53 739.5 23.5Q705 -6 650 -6Q586 -6 555.5 27.5Q525 61 525 119V125ZM90 0 666 780H710L134 0Z" glyph-name="uni2153" horiz-adv-x="800" unicode="&#8531;" /><glyph d="M272 390H28V412L196 591Q219 614 227.5 631.5Q236 649 236 671V676Q236 712 212.5 732.5Q189 753 151 753H148Q106 753 84.5 729Q63 705 63 650H28V662Q28 721 57 753Q86 785 150 785Q210 785 241 756.5Q272 728 272 681V675Q272 645 262 624Q252 603 226 575L82 422H272ZM561 125Q561 74 583.5 50Q606 26 647 26H652Q686 26 712.5 44.5Q739 63 739 101V108Q739 146 715.5 164.5Q692 183 657 183H600V215H655Q689 215 712.5 231.5Q736 248 736 284V288Q736 323 713 343Q690 363 652 363H647Q605 363 584 339Q563 315 563 260H528V272Q528 331 557 363Q586 395 650 395Q710 395 741 366.5Q772 338 772 292V285Q772 250 755 229Q738 208 711 198Q739 188 756.5 166Q774 144 774 108V100Q774 53 739.5 23.5Q705 -6 650 -6Q586 -6 555.5 27.5Q525 61 525 119V125ZM90 0 666 780H710L134 0Z" glyph-name="uni2154" horiz-adv-x="800" unicode="&#8532;" /><glyph d="M35 390V422H137V733L45 671L27 699L150 782H173V422H274V390ZM90 0 666 780H710L134 0ZM561 125Q561 74 583.5 50Q606 26 647 26H652Q686 26 712.5 47.5Q739 69 739 116V125Q739 149 731.5 166Q724 183 712 194Q700 205 684 210Q668 215 651 215H647Q620 215 594.5 201.5Q569 188 558 162L528 171L538 390H769V357H572L566 218Q582 232 603.5 239.5Q625 247 651 247Q704 247 739 215.5Q774 184 774 124V118Q774 57 739 25.5Q704 -6 650 -6Q586 -6 555.5 27.5Q525 61 525 119V125Z" glyph-name="uni2155" horiz-adv-x="800" unicode="&#8533;" /><glyph d="M272 390H28V412L196 591Q219 614 227.5 631.5Q236 649 236 671V676Q236 712 212.5 732.5Q189 753 151 753H148Q106 753 84.5 729Q63 705 63 650H28V662Q28 721 57 753Q86 785 150 785Q210 785 241 756.5Q272 728 272 681V675Q272 645 262 624Q252 603 226 575L82 422H272ZM90 0 666 780H710L134 0ZM561 125Q561 74 583.5 50Q606 26 647 26H652Q686 26 712.5 47.5Q739 69 739 116V125Q739 149 731.5 166Q724 183 712 194Q700 205 684 210Q668 215 651 215H647Q620 215 594.5 201.5Q569 188 558 162L528 171L538 390H769V357H572L566 218Q582 232 603.5 239.5Q625 247 651 247Q704 247 739 215.5Q774 184 774 124V118Q774 57 739 25.5Q704 -6 650 -6Q586 -6 555.5 27.5Q525 61 525 119V125Z" glyph-name="uni2156" horiz-adv-x="800" unicode="&#8534;" /><glyph d="M61 515Q61 464 83.5 440Q106 416 147 416H152Q186 416 212.5 434.5Q239 453 239 491V498Q239 536 215.5 554.5Q192 573 157 573H100V605H155Q189 605 212.5 621.5Q236 638 236 674V678Q236 713 213 733Q190 753 152 753H147Q105 753 84 729Q63 705 63 650H28V662Q28 721 57 753Q86 785 150 785Q210 785 241 756.5Q272 728 272 682V675Q272 640 255 619Q238 598 211 588Q239 578 256.5 556Q274 534 274 498V490Q274 443 239.5 413.5Q205 384 150 384Q86 384 55.5 417.5Q25 451 25 509V515ZM90 0 666 780H710L134 0ZM561 125Q561 74 583.5 50Q606 26 647 26H652Q686 26 712.5 47.5Q739 69 739 116V125Q739 149 731.5 166Q724 183 712 194Q700 205 684 210Q668 215 651 215H647Q620 215 594.5 201.5Q569 188 558 162L528 171L538 390H769V357H572L566 218Q582 232 603.5 239.5Q625 247 651 247Q704 247 739 215.5Q774 184 774 124V118Q774 57 739 25.5Q704 -6 650 -6Q586 -6 555.5 27.5Q525 61 525 119V125Z" glyph-name="uni2157" horiz-adv-x="800" unicode="&#8535;" /><glyph d="M60 525 103 526H183V668L184 719ZM90 0 666 780H710L134 0ZM561 125Q561 74 583.5 50Q606 26 647 26H652Q686 26 712.5 47.5Q739 69 739 116V125Q739 149 731.5 166Q724 183 712 194Q700 205 684 210Q668 215 651 215H647Q620 215 594.5 201.5Q569 188 558 162L528 171L538 390H769V357H572L566 218Q582 232 603.5 239.5Q625 247 651 247Q704 247 739 215.5Q774 184 774 124V118Q774 57 739 25.5Q704 -6 650 -6Q586 -6 555.5 27.5Q525 61 525 119V125ZM183 390V493H16V517L184 780H219V526H283V493H219V390Z" glyph-name="uni2158" horiz-adv-x="800" unicode="&#8536;" /><glyph d="M35 390V422H137V733L45 671L27 699L150 782H173V422H274V390ZM653 213Q623 213 599.5 198Q576 183 563 158V130Q563 81 588.5 53.5Q614 26 650 26H653Q693 26 717 49.5Q741 73 741 116V124Q741 167 717.5 190Q694 213 656 213ZM90 0 666 780H710L134 0ZM758 363Q720 363 679.5 347Q639 331 611 294Q582 256 571 209Q587 225 609 235Q631 245 659 245Q710 245 743 215Q776 185 776 122V117Q776 55 742 24.5Q708 -6 652 -6Q598 -6 562.5 29.5Q527 65 527 131V137Q527 184 539 228.5Q551 273 582 315Q614 358 662.5 376.5Q711 395 758 395Z" glyph-name="uni2159" horiz-adv-x="800" unicode="&#8537;" /><glyph d="M653 213Q623 213 599.5 198Q576 183 563 158V130Q563 81 588.5 53.5Q614 26 650 26H653Q693 26 717 49.5Q741 73 741 116V124Q741 167 717.5 190Q694 213 656 213ZM90 0 666 780H710L134 0ZM61 515Q61 464 83.5 440Q106 416 147 416H152Q186 416 212.5 437.5Q239 459 239 506V515Q239 539 231.5 556Q224 573 212 584Q200 595 184 600Q168 605 151 605H147Q120 605 94.5 591.5Q69 578 58 552L28 561L38 780H269V747H72L66 608Q82 622 103.5 629.5Q125 637 151 637Q204 637 239 605.5Q274 574 274 514V508Q274 447 239 415.5Q204 384 150 384Q86 384 55.5 417.5Q25 451 25 509V515ZM758 363Q720 363 679.5 347Q639 331 611 294Q582 256 571 209Q587 225 609 235Q631 245 659 245Q710 245 743 215Q776 185 776 122V117Q776 55 742 24.5Q708 -6 652 -6Q598 -6 562.5 29.5Q527 65 527 131V137Q527 184 539 228.5Q551 273 582 315Q614 358 662.5 376.5Q711 395 758 395Z" glyph-name="uni215A" horiz-adv-x="800" unicode="&#8538;" /><glyph d="M647 363Q609 363 586 343.5Q563 324 563 289V285Q563 249 586.5 232Q610 215 645 215H655Q689 215 712.5 232Q736 249 736 285V289Q736 324 713 343.5Q690 363 652 363ZM643 183Q608 183 584.5 164Q561 145 561 107V100Q561 62 587.5 44Q614 26 647 26H652Q686 26 712.5 44Q739 62 739 100V107Q739 145 715.5 164Q692 183 657 183ZM35 390V422H137V733L45 671L27 699L150 782H173V422H274V390ZM90 0 666 780H710L134 0ZM650 -6Q594 -6 559.5 23Q525 52 525 99V107Q525 143 542.5 165.5Q560 188 588 198Q561 208 544.5 229.5Q528 251 528 286V293Q528 339 559 367Q590 395 650 395Q710 395 741 367Q772 339 772 293V286Q772 251 755 229.5Q738 208 711 198Q739 188 756.5 165.5Q774 143 774 107V99Q774 52 739.5 23Q705 -6 650 -6Z" glyph-name="uni215B" horiz-adv-x="800" unicode="&#8539;" /><glyph d="M647 363Q609 363 586 343.5Q563 324 563 289V285Q563 249 586.5 232Q610 215 645 215H655Q689 215 712.5 232Q736 249 736 285V289Q736 324 713 343.5Q690 363 652 363ZM643 183Q608 183 584.5 164Q561 145 561 107V100Q561 62 587.5 44Q614 26 647 26H652Q686 26 712.5 44Q739 62 739 100V107Q739 145 715.5 164Q692 183 657 183ZM61 515Q61 464 83.5 440Q106 416 147 416H152Q186 416 212.5 434.5Q239 453 239 491V498Q239 536 215.5 554.5Q192 573 157 573H100V605H155Q189 605 212.5 621.5Q236 638 236 674V678Q236 713 213 733Q190 753 152 753H147Q105 753 84 729Q63 705 63 650H28V662Q28 721 57 753Q86 785 150 785Q210 785 241 756.5Q272 728 272 682V675Q272 640 255 619Q238 598 211 588Q239 578 256.5 556Q274 534 274 498V490Q274 443 239.5 413.5Q205 384 150 384Q86 384 55.5 417.5Q25 451 25 509V515ZM90 0 666 780H710L134 0ZM650 -6Q594 -6 559.5 23Q525 52 525 99V107Q525 143 542.5 165.5Q560 188 588 198Q561 208 544.5 229.5Q528 251 528 286V293Q528 339 559 367Q590 395 650 395Q710 395 741 367Q772 339 772 293V286Q772 251 755 229.5Q738 208 711 198Q739 188 756.5 165.5Q774 143 774 107V99Q774 52 739.5 23Q705 -6 650 -6Z" glyph-name="uni215C" horiz-adv-x="800" unicode="&#8540;" /><glyph d="M647 363Q609 363 586 343.5Q563 324 563 289V285Q563 249 586.5 232Q610 215 645 215H655Q689 215 712.5 232Q736 249 736 285V289Q736 324 713 343.5Q690 363 652 363ZM643 183Q608 183 584.5 164Q561 145 561 107V100Q561 62 587.5 44Q614 26 647 26H652Q686 26 712.5 44Q739 62 739 100V107Q739 145 715.5 164Q692 183 657 183ZM90 0 666 780H710L134 0ZM61 515Q61 464 83.5 440Q106 416 147 416H152Q186 416 212.5 437.5Q239 459 239 506V515Q239 539 231.5 556Q224 573 212 584Q200 595 184 600Q168 605 151 605H147Q120 605 94.5 591.5Q69 578 58 552L28 561L38 780H269V747H72L66 608Q82 622 103.5 629.5Q125 637 151 637Q204 637 239 605.5Q274 574 274 514V508Q274 447 239 415.5Q204 384 150 384Q86 384 55.5 417.5Q25 451 25 509V515ZM650 -6Q594 -6 559.5 23Q525 52 525 99V107Q525 143 542.5 165.5Q560 188 588 198Q561 208 544.5 229.5Q528 251 528 286V293Q528 339 559 367Q590 395 650 395Q710 395 741 367Q772 339 772 293V286Q772 251 755 229.5Q738 208 711 198Q739 188 756.5 165.5Q774 143 774 107V99Q774 52 739.5 23Q705 -6 650 -6Z" glyph-name="uni215D" horiz-adv-x="800" unicode="&#8541;" /><glyph d="M647 363Q609 363 586 343.5Q563 324 563 289V285Q563 249 586.5 232Q610 215 645 215H655Q689 215 712.5 232Q736 249 736 285V289Q736 324 713 343.5Q690 363 652 363ZM643 183Q608 183 584.5 164Q561 145 561 107V100Q561 62 587.5 44Q614 26 647 26H652Q686 26 712.5 44Q739 62 739 100V107Q739 145 715.5 164Q692 183 657 183ZM29 780H275V758L125 390H87L233 748L178 747H61V640H29ZM90 0 666 780H710L134 0ZM650 -6Q594 -6 559.5 23Q525 52 525 99V107Q525 143 542.5 165.5Q560 188 588 198Q561 208 544.5 229.5Q528 251 528 286V293Q528 339 559 367Q590 395 650 395Q710 395 741 367Q772 339 772 293V286Q772 251 755 229.5Q738 208 711 198Q739 188 756.5 165.5Q774 143 774 107V99Q774 52 739.5 23Q705 -6 650 -6Z" glyph-name="uni215E" horiz-adv-x="800" unicode="&#8542;" /><glyph d="M35 390V422H137V733L45 671L27 699L150 782H173V422H274V390ZM90 0 666 780H710L134 0Z" glyph-name="uni215F" horiz-adv-x="500" unicode="&#8543;" /><glyph d="M70 0V780H850V740H138L860 18L832 -10L110 712V0Z" glyph-name="uni2196" horiz-adv-x="920" unicode="&#8598;" /><glyph d="M810 0V712L88 -10L60 18L782 740H70V780H850V0Z" glyph-name="uni2197" horiz-adv-x="920" unicode="&#8599;" /><glyph d="M70 40H782L60 762L88 790L810 68V780H850V0H70Z" glyph-name="uni2198" horiz-adv-x="920" unicode="&#8600;" /><glyph d="M850 0H70V780H110V68L832 790L860 762L138 40H850Z" glyph-name="uni2199" horiz-adv-x="920" unicode="&#8601;" /><glyph d="M836 -14 9 275 39 305 819 30 545 811 575 841 864 14Z" glyph-name="uni25E2" horiz-adv-x="930" unicode="&#9698;" /><glyph d="M355 841 385 811 110 30 891 305 921 275 94 -14 66 14Z" glyph-name="uni25E3" horiz-adv-x="930" unicode="&#9699;" /><glyph d="M94 794 921 505 891 475 110 749 385 -31 355 -61 66 766Z" glyph-name="uni25E4" horiz-adv-x="930" unicode="&#9700;" /><glyph d="M575 -61 545 -31 819 749 39 475 9 505 836 794 864 766Z" glyph-name="uni25E5" horiz-adv-x="930" unicode="&#9701;" /><glyph d="M180 -10 279 297 19 486H341L440 792L539 486H861L601 297L700 -10L440 180Z" glyph-name="uni2605" horiz-adv-x="880" unicode="&#9733;" /><glyph d="M479 -11 437 191Q437 189 436.5 182.5Q436 176 433.5 166.5Q431 157 425 146Q419 135 408 125Q396 114 384 106Q372 98 362 90Q352 82 346 72Q340 62 340 47Q340 39 342 33Q344 27 346 22Q349 17 352 12Q329 19 317.5 36.5Q306 54 306 74Q306 104 327 125Q349 147 358.5 174.5Q368 202 368 220L196 107L309 279Q308 278 303 273.5Q298 269 290 264.5Q282 260 270 256.5Q258 253 243 253Q229 253 211.5 257Q194 261 181 261Q161 261 149 253.5Q137 246 131 237Q124 226 122 213Q114 227 114 241Q114 270 134.5 290Q155 310 185 310Q202 310 218.5 315Q235 320 248.5 326.5Q262 333 270.5 339.5Q279 346 281 348L79 390L281 432Q279 432 272.5 432.5Q266 433 256.5 435.5Q247 438 236 444Q225 450 215 461Q204 473 196 485Q188 497 180 507Q172 517 162 523Q152 529 137 529Q129 529 123 527Q117 525 112 523Q107 520 102 517Q109 540 126.5 551.5Q144 563 164 563Q194 563 215 542Q237 520 264.5 510.5Q292 501 310 501L197 673L369 560Q368 561 363.5 566Q359 571 354.5 579Q350 587 346.5 599Q343 611 343 626Q343 640 347 657.5Q351 675 351 688Q351 708 343.5 720Q336 732 327 738Q316 745 303 747Q317 755 331 755Q360 755 380 734.5Q400 714 400 684Q400 667 405 650.5Q410 634 416.5 620.5Q423 607 429.5 598Q436 589 438 588L480 790L522 588Q522 589 522.5 596Q523 603 525.5 612.5Q528 622 534 633Q540 644 551 654Q563 665 575 673Q587 681 597 689Q607 697 613 707Q619 717 619 732Q619 740 617 746Q615 752 613 757Q610 762 607 767Q630 760 641.5 742.5Q653 725 653 705Q653 675 632 654Q610 632 600.5 604.5Q591 577 591 559L763 672L650 500Q651 501 656 505.5Q661 510 669 514.5Q677 519 689 522.5Q701 526 716 526Q730 526 747.5 522Q765 518 778 518Q798 518 810 525.5Q822 533 828 542Q835 553 837 566Q845 552 845 538Q845 509 824.5 489Q804 469 774 469Q757 469 740.5 464Q724 459 710.5 452.5Q697 446 688 439.5Q679 433 678 431L880 389L678 347Q679 347 686 346.5Q693 346 702.5 343.5Q712 341 723 335Q734 329 744 318Q755 306 763 294Q771 282 779 272Q787 262 797 256Q807 250 822 250Q830 250 836 252Q842 254 847 256Q852 259 857 262Q850 239 832.5 227.5Q815 216 795 216Q765 216 744 237Q722 259 694.5 268.5Q667 278 649 278L762 106L590 219Q591 218 595.5 213Q600 208 604.5 200Q609 192 612.5 180Q616 168 616 153Q616 139 612 121.5Q608 104 608 91Q608 71 615.5 59Q623 47 632 41Q643 34 656 32Q642 24 628 24Q599 24 579 44.5Q559 65 559 95Q559 112 554 128.5Q549 145 542.5 158.5Q536 172 529.5 180.5Q523 189 521 191Z" glyph-name="uni263C" horiz-adv-x="960" unicode="&#9788;" /></font>
</defs>
</svg>
