<?xml version="1.0" standalone="no"?><!DOCTYPE svg PUBLIC "-//W3C//DTD SVG 1.1//EN" "http://www.w3.org/Graphics/SVG/1.1/DTD/svg11.dtd" ><svg version="1.1" xmlns="http://www.w3.org/2000/svg"><defs><font horiz-adv-x="0" id="font"><font-face ascent="750" bbox="-260 -210 1361 960" cap-height="780" descent="-250" font-family="Cooper Hewitt" font-stretch="normal" font-style="normal" font-weight="600" units-per-em="1000" x-height="530" /><missing-glyph d="M805 115V665L530 390ZM165 665V115L440 390ZM485 435 764 714H206ZM206 66H764L485 345ZM95 780H875V0H95Z" horiz-adv-x="970" /><glyph d="M136 249H433L351 750ZM385 790 517 0H475L439 211H120L31 0H-15L325 790Z" glyph-name="A" horiz-adv-x="600" unicode="A" /><glyph d="M148 259H399L391 742ZM833 780 828 742H430L436 417H735L730 379H436L443 38H736L731 0H403L399 221H129L18 0H-25L370 780Z" glyph-name="AE" horiz-adv-x="820" unicode="&#198;" /><glyph d="M136 249H433L351 750ZM385 790 517 0H475L439 211H120L31 0H-15L325 790ZM459 950 382 840H340L417 950Z" glyph-name="Aacute" horiz-adv-x="600" unicode="&#193;" /><glyph d="M136 249H433L351 750ZM385 790 517 0H475L439 211H120L31 0H-15L325 790ZM362 830Q299 830 267.5 863.5Q236 897 244 950H280Q275 912 295 887.5Q315 863 364 863Q413 863 440 887.5Q467 912 472 950H508Q500 897 462.5 863.5Q425 830 362 830Z" glyph-name="Abreve" horiz-adv-x="600" unicode="&#258;" /><glyph d="M136 249H433L351 750ZM385 790 517 0H475L439 211H120L31 0H-15L325 790ZM246 840 361 950H391L476 840H433L373 917L293 840Z" glyph-name="Acircumflex" horiz-adv-x="600" unicode="&#194;" /><glyph d="M136 249H433L351 750ZM385 790 517 0H475L439 211H120L31 0H-15L325 790ZM469 865H409L417 925H477ZM319 865H259L267 925H327Z" glyph-name="Adieresis" horiz-adv-x="600" unicode="&#196;" /><glyph d="M136 249H433L351 750ZM385 790 517 0H475L439 211H120L31 0H-15L325 790ZM335 950 382 840H340L293 950Z" glyph-name="Agrave" horiz-adv-x="600" unicode="&#192;" /><glyph d="M136 249H433L351 750ZM385 790 517 0H475L439 211H120L31 0H-15L325 790ZM271 915H471L466 875H266Z" glyph-name="Amacron" horiz-adv-x="600" unicode="&#256;" /><glyph d="M385 790 517 0H475L351 750L31 0H-15L325 790Z" glyph-name="Anocross" horiz-adv-x="600" unicode="&#59185;" /><glyph d="M136 249H433L351 750ZM385 790 517 0Q499 -8 479.5 -20Q460 -32 444 -47.5Q428 -63 417.5 -83Q407 -103 407 -127Q407 -152 424.5 -164.5Q442 -177 473 -177Q489 -177 505.5 -173.5Q522 -170 536 -163L544 -191Q527 -201 505.5 -205.5Q484 -210 466 -210Q423 -210 398 -190Q373 -170 373 -131Q373 -79 403 -44.5Q433 -10 473 11L439 211H120L31 0H-15L325 790Z" glyph-name="Aogonek" horiz-adv-x="600" unicode="&#260;" /><glyph d="M307 860Q307 840 321 826Q335 812 358 812Q383 812 403 829Q423 846 423 880Q423 900 409 914Q395 928 372 928Q347 928 327 911Q307 894 307 860ZM136 249H433L351 750ZM456 880Q456 845 437 819Q418 793 386 784L517 0H475L439 211H120L31 0H-15L323 786Q300 795 287 814.5Q274 834 274 860Q274 902 301.5 931Q329 960 372 960Q410 960 433 937Q456 914 456 880Z" glyph-name="Aring" horiz-adv-x="600" unicode="&#197;" /><glyph d="M136 249H433L351 750ZM385 790 517 0H475L439 211H120L31 0H-15L325 790ZM513 932Q508 889 485 868.5Q462 848 430 848Q408 848 391.5 857.5Q375 867 360.5 878.5Q346 890 333 899.5Q320 909 305 909Q266 909 259 858H223Q229 901 252 921.5Q275 942 307 942Q329 942 345.5 932.5Q362 923 376 911.5Q390 900 403 890.5Q416 881 431 881Q471 881 477 932Z" glyph-name="Atilde" horiz-adv-x="600" unicode="&#195;" /><glyph d="M168 742 126 420H280Q314 420 346.5 427Q379 434 405.5 451Q432 468 450 495.5Q468 523 473 564L476 588Q481 629 472 658Q463 687 442 706Q421 725 390 733.5Q359 742 320 742ZM121 382 76 38H238Q277 38 312 45Q347 52 374.5 69.5Q402 87 420.5 115.5Q439 144 444 187L447 211Q452 254 442.5 286Q433 318 412.5 339.5Q392 361 362 371.5Q332 382 298 382ZM320 780Q370 780 409.5 768Q449 756 475 732Q501 708 512.5 672Q524 636 518 588L515 564Q510 529 496 501Q482 473 461.5 452.5Q441 432 414.5 418.5Q388 405 360 401Q391 396 417 380.5Q443 365 460.5 340Q478 315 486 282.5Q494 250 489 211L486 187Q480 137 458.5 101.5Q437 66 404 43.5Q371 21 328 10.5Q285 0 235 0H31L133 780Z" glyph-name="B" horiz-adv-x="570" unicode="B" /><glyph d="M168 742 126 420H280Q314 420 346.5 427Q379 434 405.5 451Q432 468 450 495.5Q468 523 473 564L476 588Q481 629 472 658Q463 687 442 706Q421 725 390 733.5Q359 742 320 742ZM121 382 76 38H238Q277 38 312 45Q347 52 374.5 69.5Q402 87 420.5 115.5Q439 144 444 187L447 211Q452 254 442.5 286Q433 318 412.5 339.5Q392 361 362 371.5Q332 382 298 382ZM320 780Q370 780 409.5 768Q449 756 475 732Q501 708 512.5 672Q524 636 518 588L515 564Q510 529 496 501Q482 473 461.5 452.5Q441 432 414.5 418.5Q388 405 360 401Q391 396 417 380.5Q443 365 460.5 340Q478 315 486 282.5Q494 250 489 211L486 187Q480 137 458.5 101.5Q437 66 404 43.5Q371 21 328 10.5Q285 0 235 0H31L133 780ZM359 865H299L307 925H367Z" glyph-name="Bdotaccent" horiz-adv-x="570" unicode="&#7682;" /><glyph d="M105 378Q93 283 98 216.5Q103 150 124 108Q145 66 182.5 47Q220 28 273 28H279Q378 28 428.5 84.5Q479 141 493 250H535L534 241Q528 184 508.5 138Q489 92 457 59Q425 26 379.5 8Q334 -10 276 -10Q211 -10 165 11.5Q119 33 92 79.5Q65 126 57.5 199.5Q50 273 63 378L66 402Q79 504 103.5 577.5Q128 651 165.5 698Q203 745 253 767.5Q303 790 367 790Q492 790 541.5 718.5Q591 647 571 519L568 500H526Q544 635 507 693.5Q470 752 370 752H364Q311 752 268.5 732Q226 712 194.5 669.5Q163 627 141.5 561Q120 495 108 402Z" glyph-name="C" horiz-adv-x="607" unicode="C" /><glyph d="M105 378Q93 283 98 216.5Q103 150 124 108Q145 66 182.5 47Q220 28 273 28H279Q378 28 428.5 84.5Q479 141 493 250H535L534 241Q528 184 508.5 138Q489 92 457 59Q425 26 379.5 8Q334 -10 276 -10Q211 -10 165 11.5Q119 33 92 79.5Q65 126 57.5 199.5Q50 273 63 378L66 402Q79 504 103.5 577.5Q128 651 165.5 698Q203 745 253 767.5Q303 790 367 790Q492 790 541.5 718.5Q591 647 571 519L568 500H526Q544 635 507 693.5Q470 752 370 752H364Q311 752 268.5 732Q226 712 194.5 669.5Q163 627 141.5 561Q120 495 108 402ZM477 950 400 840H358L435 950Z" glyph-name="Cacute" horiz-adv-x="607" unicode="&#262;" /><glyph d="M105 378Q93 283 98 216.5Q103 150 124 108Q145 66 182.5 47Q220 28 273 28H279Q378 28 428.5 84.5Q479 141 493 250H535L534 241Q528 184 508.5 138Q489 92 457 59Q425 26 379.5 8Q334 -10 276 -10Q211 -10 165 11.5Q119 33 92 79.5Q65 126 57.5 199.5Q50 273 63 378L66 402Q79 504 103.5 577.5Q128 651 165.5 698Q203 745 253 767.5Q303 790 367 790Q492 790 541.5 718.5Q591 647 571 519L568 500H526Q544 635 507 693.5Q470 752 370 752H364Q311 752 268.5 732Q226 712 194.5 669.5Q163 627 141.5 561Q120 495 108 402ZM322 950 381 873 462 950H509L394 840H364L279 950Z" glyph-name="Ccaron" horiz-adv-x="607" unicode="&#268;" /><glyph d="M181 -155Q192 -163 211 -170Q230 -177 253 -177Q285 -177 302.5 -167Q320 -157 320 -134Q320 -111 302 -104Q284 -97 261 -97Q255 -97 250 -97.5Q245 -98 241 -98Q237 -99 233 -99L219 -83L256 -9Q197 -6 154.5 17Q112 40 87.5 87Q63 134 56.5 205.5Q50 277 63 378L66 402Q79 504 103.5 577.5Q128 651 165.5 698Q203 745 253 767.5Q303 790 367 790Q492 790 541.5 718.5Q591 647 571 519L568 500H526Q544 635 507 693.5Q470 752 370 752H364Q311 752 268.5 732Q226 712 194.5 669.5Q163 627 141.5 561Q120 495 108 402L105 378Q93 283 98 216.5Q103 150 124 108Q145 66 182.5 47Q220 28 273 28H279Q378 28 428.5 84.5Q479 141 493 250H535L534 241Q528 186 509.5 141Q491 96 461 63.5Q431 31 389 12Q347 -7 292 -10L264 -64H269Q284 -64 299 -67Q314 -70 326 -77.5Q338 -85 346 -98Q354 -111 354 -130Q354 -174 324 -192Q294 -210 253 -210Q228 -210 204 -202Q180 -194 166 -183Z" glyph-name="Ccedilla" horiz-adv-x="607" unicode="&#199;" /><glyph d="M105 378Q93 283 98 216.5Q103 150 124 108Q145 66 182.5 47Q220 28 273 28H279Q378 28 428.5 84.5Q479 141 493 250H535L534 241Q528 184 508.5 138Q489 92 457 59Q425 26 379.5 8Q334 -10 276 -10Q211 -10 165 11.5Q119 33 92 79.5Q65 126 57.5 199.5Q50 273 63 378L66 402Q79 504 103.5 577.5Q128 651 165.5 698Q203 745 253 767.5Q303 790 367 790Q492 790 541.5 718.5Q591 647 571 519L568 500H526Q544 635 507 693.5Q470 752 370 752H364Q311 752 268.5 732Q226 712 194.5 669.5Q163 627 141.5 561Q120 495 108 402ZM264 840 379 950H409L494 840H451L391 917L311 840Z" glyph-name="Ccircumflex" horiz-adv-x="607" unicode="&#264;" /><glyph d="M105 378Q93 283 98 216.5Q103 150 124 108Q145 66 182.5 47Q220 28 273 28H279Q378 28 428.5 84.5Q479 141 493 250H535L534 241Q528 184 508.5 138Q489 92 457 59Q425 26 379.5 8Q334 -10 276 -10Q211 -10 165 11.5Q119 33 92 79.5Q65 126 57.5 199.5Q50 273 63 378L66 402Q79 504 103.5 577.5Q128 651 165.5 698Q203 745 253 767.5Q303 790 367 790Q492 790 541.5 718.5Q591 647 571 519L568 500H526Q544 635 507 693.5Q470 752 370 752H364Q311 752 268.5 732Q226 712 194.5 669.5Q163 627 141.5 561Q120 495 108 402ZM412 865H352L360 925H420Z" glyph-name="Cdotaccent" horiz-adv-x="607" unicode="&#266;" /><glyph d="M221 38Q279 38 329.5 56.5Q380 75 419.5 116Q459 157 486 221.5Q513 286 525 378L528 402Q540 494 530 558.5Q520 623 492 664Q464 705 419.5 723.5Q375 742 317 742H168L76 38ZM567 378Q554 277 523 205Q492 133 447 87.5Q402 42 344.5 21Q287 0 221 0H31L133 780H320Q386 780 438 759Q490 738 523.5 692.5Q557 647 570 575Q583 503 570 402Z" glyph-name="D" horiz-adv-x="630" unicode="D" /><glyph d="M221 38Q279 38 329.5 56.5Q380 75 419.5 116Q459 157 486 221.5Q513 286 525 378L528 402Q540 494 530 558.5Q520 623 492 664Q464 705 419.5 723.5Q375 742 317 742H168L76 38ZM567 378Q554 277 523 205Q492 133 447 87.5Q402 42 344.5 21Q287 0 221 0H31L133 780H320Q386 780 438 759Q490 738 523.5 692.5Q557 647 570 575Q583 503 570 402ZM287 950 346 873 427 950H476L361 840H331L246 950Z" glyph-name="Dcaron" horiz-adv-x="630" unicode="&#270;" /><glyph d="M281 38Q339 38 389.5 56.5Q440 75 479.5 116Q519 157 546 221.5Q573 286 585 378L588 402Q600 494 590 558.5Q580 623 552 664Q524 705 479.5 723.5Q435 742 377 742H228L185 417H415L410 379H180L136 38ZM627 378Q614 277 583 205Q552 133 507 87.5Q462 42 404.5 21Q347 0 281 0H91L140 379H20L25 417H145L193 780H380Q446 780 498 759Q550 738 583.5 692.5Q617 647 630 575Q643 503 630 402Z" glyph-name="Dcroat" horiz-adv-x="690" unicode="&#272;" /><glyph d="M221 38Q279 38 329.5 56.5Q380 75 419.5 116Q459 157 486 221.5Q513 286 525 378L528 402Q540 494 530 558.5Q520 623 492 664Q464 705 419.5 723.5Q375 742 317 742H168L76 38ZM567 378Q554 277 523 205Q492 133 447 87.5Q402 42 344.5 21Q287 0 221 0H31L133 780H320Q386 780 438 759Q490 738 523.5 692.5Q557 647 570 575Q583 503 570 402ZM379 865H319L327 925H387Z" glyph-name="Ddotaccent" horiz-adv-x="630" unicode="&#7690;" /><glyph d="M553 780 548 742H168L125 417H455L450 379H120L76 38H456L451 0H31L133 780Z" glyph-name="E" horiz-adv-x="540" unicode="E" /><glyph d="M459 950 382 840H340L417 950ZM553 780 548 742H168L125 417H455L450 379H120L76 38H456L451 0H31L133 780Z" glyph-name="Eacute" horiz-adv-x="540" unicode="&#201;" /><glyph d="M362 830Q299 830 267.5 863.5Q236 897 244 950H280Q275 912 295 887.5Q315 863 364 863Q413 863 440 887.5Q467 912 472 950H508Q500 897 462.5 863.5Q425 830 362 830ZM553 780 548 742H168L125 417H455L450 379H120L76 38H456L451 0H31L133 780Z" glyph-name="Ebreve" horiz-adv-x="540" unicode="&#276;" /><glyph d="M306 950 365 873 446 950H491L376 840H346L261 950ZM553 780 548 742H168L125 417H455L450 379H120L76 38H456L451 0H31L133 780Z" glyph-name="Ecaron" horiz-adv-x="540" unicode="&#282;" /><glyph d="M246 840 361 950H391L476 840H433L373 917L293 840ZM553 780 548 742H168L125 417H455L450 379H120L76 38H456L451 0H31L133 780Z" glyph-name="Ecircumflex" horiz-adv-x="540" unicode="&#202;" /><glyph d="M319 865H259L267 925H327ZM469 865H409L417 925H477ZM553 780 548 742H168L125 417H455L450 379H120L76 38H456L451 0H31L133 780Z" glyph-name="Edieresis" horiz-adv-x="540" unicode="&#203;" /><glyph d="M394 865H334L342 925H402ZM553 780 548 742H168L125 417H455L450 379H120L76 38H456L451 0H31L133 780Z" glyph-name="Edotaccent" horiz-adv-x="540" unicode="&#278;" /><glyph d="M335 950 382 840H340L293 950ZM553 780 548 742H168L125 417H455L450 379H120L76 38H456L451 0H31L133 780Z" glyph-name="Egrave" horiz-adv-x="540" unicode="&#200;" /><glyph d="M271 915H471L466 875H266ZM553 780 548 742H168L125 417H455L450 379H120L76 38H456L451 0H31L133 780Z" glyph-name="Emacron" horiz-adv-x="540" unicode="&#274;" /><glyph d="M480 -6 161 720 139 530 70 0H31L133 780H177L492 60L514 250L584 780H623L512 -65Q501 -144 459.5 -177Q418 -210 353 -210Q323 -210 306.5 -206Q290 -202 285 -200L290 -163Q297 -166 314.5 -169Q332 -172 350 -172Q374 -172 395 -167Q416 -162 431.5 -149.5Q447 -137 457.5 -115.5Q468 -94 473 -60Z" glyph-name="Eng" horiz-adv-x="650" unicode="&#330;" /><glyph d="M553 780 548 742H168L125 417H455L450 379H120L76 38H456L451 0Q433 -8 413.5 -20Q394 -32 378 -47.5Q362 -63 351.5 -83Q341 -103 341 -127Q341 -152 358.5 -164.5Q376 -177 407 -177Q423 -177 439.5 -173.5Q456 -170 470 -163L478 -191Q461 -201 439.5 -205.5Q418 -210 400 -210Q357 -210 332 -190Q307 -170 307 -131Q307 -85 331 -53Q355 -21 388 0H31L133 780Z" glyph-name="Eogonek" horiz-adv-x="540" unicode="&#280;" /><glyph d="M522 727Q497 740 462 746Q427 752 390 752Q341 752 298.5 742.5Q256 733 223 708.5Q190 684 167.5 642Q145 600 136 535L66 0H26L97 540Q107 614 133.5 662Q160 710 198.5 738.5Q237 767 286 778.5Q335 790 390 790Q443 790 490 779.5Q537 769 567 749L563 721L362 437L471 423Q532 415 573.5 396Q615 377 639.5 348.5Q664 320 672.5 284Q681 248 676 206L674 190Q668 142 647.5 105Q627 68 594.5 42.5Q562 17 519 3.5Q476 -10 425 -10Q313 -10 262.5 50Q212 110 231 231L234 250H274Q261 190 267 148Q273 106 294 79.5Q315 53 347.5 40.5Q380 28 420 28H430Q511 28 566.5 69Q622 110 632 187L634 203Q644 282 600 327.5Q556 373 448 387L311 405L315 434Z" glyph-name="Eszett" horiz-adv-x="740" unicode="&#7838;" /><glyph d="M281 38Q339 38 389.5 56.5Q440 75 479.5 116Q519 157 546 221.5Q573 286 585 378L588 402Q600 494 590 558.5Q580 623 552 664Q524 705 479.5 723.5Q435 742 377 742H228L185 417H415L410 379H180L136 38ZM627 378Q614 277 583 205Q552 133 507 87.5Q462 42 404.5 21Q347 0 281 0H91L140 379H20L25 417H145L193 780H380Q446 780 498 759Q550 738 583.5 692.5Q617 647 630 575Q643 503 630 402Z" glyph-name="Eth" horiz-adv-x="690" unicode="&#208;" /><glyph d="M49 480H126Q157 644 225 717Q293 790 395 790Q453 790 491.5 771.5Q530 753 550.5 718Q571 683 575 633Q579 583 569 519L566 500H526Q544 635 515 693.5Q486 752 400 752H394Q354 752 319 736.5Q284 721 255 688Q226 655 203.5 603.5Q181 552 167 480H454L429 440H159Q155 423 153 405Q151 387 149 373Q147 356 146 340H385L361 300H143Q138 227 146.5 175.5Q155 124 175.5 91Q196 58 228.5 43Q261 28 303 28H309Q388 28 433.5 84.5Q479 141 493 250H533L532 241Q526 184 509 138Q492 92 464 59Q436 26 396.5 8Q357 -10 305 -10Q195 -10 142.5 63Q90 136 102 300H25L30 340H105Q106 356 108 373Q110 387 112 405Q114 423 118 440H43Z" glyph-name="Euro" horiz-adv-x="600" unicode="&#8364;" /><glyph d="M533 780 528 742H168L125 417H435L430 379H120L71 0H31L133 780Z" glyph-name="F" horiz-adv-x="500" unicode="F" /><glyph d="M394 865H334L342 925H402ZM533 780 528 742H168L125 417H435L430 379H120L71 0H31L133 780Z" glyph-name="Fdotaccent" horiz-adv-x="500" unicode="&#7710;" /><glyph d="M285 -10Q220 -10 172.5 11.5Q125 33 96 79.5Q67 126 58 199.5Q49 273 62 378L65 402Q90 606 166.5 698Q243 790 371 790Q496 790 548 718.5Q600 647 580 519L577 500H535Q553 635 513.5 693.5Q474 752 374 752H368Q261 752 195.5 669.5Q130 587 107 402L104 378Q92 283 98.5 216.5Q105 150 128 108Q151 66 190 47Q229 28 282 28H288Q359 28 409.5 50.5Q460 73 486 99L516 333H371L376 371H561L523 79Q507 63 485.5 47Q464 31 435 18.5Q406 6 369 -2Q332 -10 285 -10Z" glyph-name="G" horiz-adv-x="638" unicode="G" /><glyph d="M285 -10Q220 -10 172.5 11.5Q125 33 96 79.5Q67 126 58 199.5Q49 273 62 378L65 402Q90 606 166.5 698Q243 790 371 790Q496 790 548 718.5Q600 647 580 519L577 500H535Q553 635 513.5 693.5Q474 752 374 752H368Q261 752 195.5 669.5Q130 587 107 402L104 378Q92 283 98.5 216.5Q105 150 128 108Q151 66 190 47Q229 28 282 28H288Q359 28 409.5 50.5Q460 73 486 99L516 333H371L376 371H561L523 79Q507 63 485.5 47Q464 31 435 18.5Q406 6 369 -2Q332 -10 285 -10ZM386 830Q323 830 291.5 863.5Q260 897 268 950H304Q299 912 319 887.5Q339 863 388 863Q437 863 464 887.5Q491 912 496 950H532Q524 897 486.5 863.5Q449 830 386 830Z" glyph-name="Gbreve" horiz-adv-x="638" unicode="&#286;" /><glyph d="M285 -10Q220 -10 172.5 11.5Q125 33 96 79.5Q67 126 58 199.5Q49 273 62 378L65 402Q90 606 166.5 698Q243 790 371 790Q496 790 548 718.5Q600 647 580 519L577 500H535Q553 635 513.5 693.5Q474 752 374 752H368Q261 752 195.5 669.5Q130 587 107 402L104 378Q92 283 98.5 216.5Q105 150 128 108Q151 66 190 47Q229 28 282 28H288Q359 28 409.5 50.5Q460 73 486 99L516 333H371L376 371H561L523 79Q507 63 485.5 47Q464 31 435 18.5Q406 6 369 -2Q332 -10 285 -10ZM270 840 385 950H415L500 840H457L397 917L317 840Z" glyph-name="Gcircumflex" horiz-adv-x="638" unicode="&#284;" /><glyph d="M285 -10Q220 -10 172.5 11.5Q125 33 96 79.5Q67 126 58 199.5Q49 273 62 378L65 402Q90 606 166.5 698Q243 790 371 790Q496 790 548 718.5Q600 647 580 519L577 500H535Q553 635 513.5 693.5Q474 752 374 752H368Q261 752 195.5 669.5Q130 587 107 402L104 378Q92 283 98.5 216.5Q105 150 128 108Q151 66 190 47Q229 28 282 28H288Q359 28 409.5 50.5Q460 73 486 99L516 333H371L376 371H561L523 79Q507 63 485.5 47Q464 31 435 18.5Q406 6 369 -2Q332 -10 285 -10ZM300 -108Q294 -155 266.5 -182.5Q239 -210 197 -210L201 -180Q225 -180 243.5 -166Q262 -152 269 -120H239L247 -60H307Z" glyph-name="Gcommaaccent" horiz-adv-x="638" unicode="&#290;" /><glyph d="M285 -10Q220 -10 172.5 11.5Q125 33 96 79.5Q67 126 58 199.5Q49 273 62 378L65 402Q90 606 166.5 698Q243 790 371 790Q496 790 548 718.5Q600 647 580 519L577 500H535Q553 635 513.5 693.5Q474 752 374 752H368Q261 752 195.5 669.5Q130 587 107 402L104 378Q92 283 98.5 216.5Q105 150 128 108Q151 66 190 47Q229 28 282 28H288Q359 28 409.5 50.5Q460 73 486 99L516 333H371L376 371H561L523 79Q507 63 485.5 47Q464 31 435 18.5Q406 6 369 -2Q332 -10 285 -10ZM418 865H358L366 925H426Z" glyph-name="Gdotaccent" horiz-adv-x="638" unicode="&#288;" /><glyph d="M603 780 501 0H461L510 379H120L71 0H31L133 780H173L125 417H515L563 780Z" glyph-name="H" horiz-adv-x="630" unicode="H" /><glyph d="M515 417 537 581H147L125 417ZM603 780 501 0H461L510 379H120L71 0H31L133 780H173L152 619H542L563 780Z" glyph-name="Hbar" horiz-adv-x="630" unicode="&#294;" /><glyph d="M261 840 376 950H406L491 840H448L388 917L308 840ZM603 780 501 0H461L510 379H120L71 0H31L133 780H173L125 417H515L563 780Z" glyph-name="Hcircumflex" horiz-adv-x="630" unicode="&#292;" /><glyph d="M76 0H36L138 780H178Z" glyph-name="I" horiz-adv-x="210" unicode="I" /><glyph d="M76 0H36L138 780H178ZM398 780H438L353 128Q343 54 303 22Q263 -10 207 -10Q177 -10 159 -5.5Q141 -1 136 2L141 39Q149 35 168 31.5Q187 28 207 28Q251 28 278 51Q305 74 313 133Z" glyph-name="IJ" horiz-adv-x="460" unicode="&#306;" /><glyph d="M264 950 187 840H145L222 950ZM76 0H36L138 780H178Z" glyph-name="Iacute" horiz-adv-x="210" unicode="&#205;" /><glyph d="M167 830Q104 830 72.5 863.5Q41 897 49 950H85Q80 912 100 887.5Q120 863 169 863Q218 863 245 887.5Q272 912 277 950H313Q305 897 267.5 863.5Q230 830 167 830ZM76 0H36L138 780H178Z" glyph-name="Ibreve" horiz-adv-x="210" unicode="&#300;" /><glyph d="M51 840 166 950H196L281 840H238L178 917L98 840ZM76 0H36L138 780H178Z" glyph-name="Icircumflex" horiz-adv-x="210" unicode="&#206;" /><glyph d="M124 865H64L72 925H132ZM274 865H214L222 925H282ZM76 0H36L138 780H178Z" glyph-name="Idieresis" horiz-adv-x="210" unicode="&#207;" /><glyph d="M199 865H139L147 925H207ZM76 0H36L138 780H178Z" glyph-name="Idotaccent" horiz-adv-x="210" unicode="&#304;" /><glyph d="M140 950 187 840H145L98 950ZM76 0H36L138 780H178Z" glyph-name="Igrave" horiz-adv-x="210" unicode="&#204;" /><glyph d="M76 915H276L271 875H71ZM76 0H36L138 780H178Z" glyph-name="Imacron" horiz-adv-x="210" unicode="&#298;" /><glyph d="M76 0Q58 -8 38.5 -20Q19 -32 3 -47.5Q-13 -63 -23.5 -83Q-34 -103 -34 -127Q-34 -152 -16.5 -164.5Q1 -177 32 -177Q48 -177 64.5 -173.5Q81 -170 95 -163L103 -191Q86 -201 64.5 -205.5Q43 -210 25 -210Q-18 -210 -43 -190Q-68 -170 -68 -131Q-68 -104 -59 -82Q-50 -60 -35.5 -42Q-21 -24 -2 -10.5Q17 3 38 14L138 780H178Z" glyph-name="Iogonek" horiz-adv-x="210" unicode="&#302;" /><glyph d="M318 932Q313 889 290 868.5Q267 848 235 848Q213 848 196.5 857.5Q180 867 165.5 878.5Q151 890 138 899.5Q125 909 110 909Q71 909 64 858H28Q34 901 57 921.5Q80 942 112 942Q134 942 150.5 932.5Q167 923 181 911.5Q195 900 208 890.5Q221 881 236 881Q276 881 282 932ZM76 0H36L138 780H178Z" glyph-name="Itilde" horiz-adv-x="210" unicode="&#296;" /><glyph d="M458 780 387 240Q379 182 364 135.5Q349 89 323 57Q297 25 259.5 7.5Q222 -10 170 -10Q117 -10 83 7.5Q49 25 30.5 57.5Q12 90 8 137Q4 184 13 243L14 250H52Q35 132 63.5 80Q92 28 171 28Q250 28 291.5 80.5Q333 133 348 250L418 780Z" glyph-name="J" horiz-adv-x="480" unicode="J" /><glyph d="M331 840 446 950H476L561 840H518L458 917L378 840ZM458 780 387 240Q379 182 364 135.5Q349 89 323 57Q297 25 259.5 7.5Q222 -10 170 -10Q117 -10 83 7.5Q49 25 30.5 57.5Q12 90 8 137Q4 184 13 243L14 250H52Q35 132 63.5 80Q92 28 171 28Q250 28 291.5 80.5Q333 133 348 250L418 780Z" glyph-name="Jcircumflex" horiz-adv-x="480" unicode="&#308;" /><glyph d="M112 315 503 780H553L271 445L451 0H407L243 412L103 246L71 0H31L133 780H173Z" glyph-name="K" horiz-adv-x="540" unicode="K" /><glyph d="M112 315 503 780H553L271 445L451 0H407L243 412L103 246L71 0H31L133 780H173ZM231 -108Q225 -155 197.5 -182.5Q170 -210 128 -210L132 -180Q156 -180 174.5 -166Q193 -152 200 -120H170L178 -60H238Z" glyph-name="Kcommaaccent" horiz-adv-x="540" unicode="&#310;" /><glyph d="M31 0 133 780H173L76 38H421L416 0Z" glyph-name="L" horiz-adv-x="480" unicode="L" /><glyph d="M259 950 182 840H140L217 950ZM31 0 133 780H173L76 38H421L416 0Z" glyph-name="Lacute" horiz-adv-x="480" unicode="&#313;" /><glyph d="M379 800 340 620H310L334 800ZM31 0 133 780H173L76 38H421L416 0Z" glyph-name="Lcaron" horiz-adv-x="480" unicode="&#317;" /><glyph d="M241 -108Q235 -155 207.5 -182.5Q180 -210 138 -210L142 -180Q166 -180 184.5 -166Q203 -152 210 -120H180L188 -60H248ZM31 0 133 780H173L76 38H421L416 0Z" glyph-name="Lcommaaccent" horiz-adv-x="480" unicode="&#315;" /><glyph d="M361 368H301L309 428H369ZM31 0 133 780H173L76 38H421L416 0Z" glyph-name="Ldot" horiz-adv-x="480" unicode="&#319;" /><glyph d="M15 335 143 398 193 780H233L186 419L432 540L426 498L180 377L136 38H481L476 0H91L137 356L9 293Z" glyph-name="Lslash" horiz-adv-x="540" unicode="&#321;" /><glyph d="M356 0H326L161 710L140 530L71 0H31L133 780H184L348 68L700 780H753L651 0H611L680 530L707 710Z" glyph-name="M" horiz-adv-x="780" unicode="M" /><glyph d="M356 0H326L161 710L140 530L71 0H31L133 780H184L348 68L700 780H753L651 0H611L680 530L707 710ZM484 865H424L432 925H492Z" glyph-name="Mdotaccent" horiz-adv-x="780" unicode="&#7744;" /><glyph d="M521 0H477L161 720L139 530L70 0H31L133 780H177L492 60L514 250L584 780H623Z" glyph-name="N" horiz-adv-x="650" unicode="N" /><glyph d="M521 0H477L161 720L139 530L70 0H31L133 780H177L492 60L514 250L584 780H623ZM484 950 407 840H365L442 950Z" glyph-name="Nacute" horiz-adv-x="650" unicode="&#323;" /><glyph d="M521 0H477L161 720L139 530L70 0H31L133 780H177L492 60L514 250L584 780H623ZM331 950 390 873 471 950H516L401 840H371L286 950Z" glyph-name="Ncaron" horiz-adv-x="650" unicode="&#327;" /><glyph d="M521 0H477L161 720L139 530L70 0H31L133 780H177L492 60L514 250L584 780H623ZM291 -108Q285 -155 257.5 -182.5Q230 -210 188 -210L192 -180Q216 -180 234.5 -166Q253 -152 260 -120H230L238 -60H298Z" glyph-name="Ncommaaccent" horiz-adv-x="650" unicode="&#325;" /><glyph d="M521 0H477L161 720L139 530L70 0H31L133 780H177L492 60L514 250L584 780H623ZM538 932Q533 889 510 868.5Q487 848 455 848Q433 848 416.5 857.5Q400 867 385.5 878.5Q371 890 358 899.5Q345 909 330 909Q291 909 284 858H248Q254 901 277 921.5Q300 942 332 942Q354 942 370.5 932.5Q387 923 401 911.5Q415 900 428 890.5Q441 881 456 881Q496 881 502 932Z" glyph-name="Ntilde" horiz-adv-x="650" unicode="&#209;" /><glyph d="M538 402Q550 497 545 563.5Q540 630 519 672Q498 714 460.5 733Q423 752 370 752H364Q311 752 268.5 732Q226 712 194.5 669.5Q163 627 141.5 561Q120 495 108 402L105 378Q93 283 98 216.5Q103 150 124 108Q145 66 182.5 47Q220 28 273 28H279Q385 28 448.5 110.5Q512 193 535 378ZM577 378Q564 276 539.5 202.5Q515 129 477.5 82Q440 35 390 12.5Q340 -10 276 -10Q211 -10 165 11.5Q119 33 92 79.5Q65 126 57.5 199.5Q50 273 63 378L66 402Q79 504 103.5 577.5Q128 651 165.5 698Q203 745 253 767.5Q303 790 367 790Q431 790 477.5 768.5Q524 747 551 700.5Q578 654 585.5 580.5Q593 507 580 402Z" glyph-name="O" horiz-adv-x="640" unicode="O" /><glyph d="M412 742Q354 742 303.5 723.5Q253 705 213.5 664Q174 623 147 558.5Q120 494 108 402L105 378Q93 286 103 221.5Q113 157 141 116Q169 75 213.5 56.5Q258 38 316 38H436L528 742ZM66 402Q79 503 110 575Q141 647 186 692.5Q231 738 288.5 759Q346 780 412 780H953L948 742H568L525 417H855L850 379H520L476 38H856L851 0H313Q247 0 195 21Q143 42 109.5 87.5Q76 133 63 205Q50 277 63 378Z" glyph-name="OE" horiz-adv-x="940" unicode="&#338;" /><glyph d="M538 402Q550 497 545 563.5Q540 630 519 672Q498 714 460.5 733Q423 752 370 752H364Q311 752 268.5 732Q226 712 194.5 669.5Q163 627 141.5 561Q120 495 108 402L105 378Q93 283 98 216.5Q103 150 124 108Q145 66 182.5 47Q220 28 273 28H279Q385 28 448.5 110.5Q512 193 535 378ZM577 378Q564 276 539.5 202.5Q515 129 477.5 82Q440 35 390 12.5Q340 -10 276 -10Q211 -10 165 11.5Q119 33 92 79.5Q65 126 57.5 199.5Q50 273 63 378L66 402Q79 504 103.5 577.5Q128 651 165.5 698Q203 745 253 767.5Q303 790 367 790Q431 790 477.5 768.5Q524 747 551 700.5Q578 654 585.5 580.5Q593 507 580 402ZM479 950 402 840H360L437 950Z" glyph-name="Oacute" horiz-adv-x="640" unicode="&#211;" /><glyph d="M538 402Q550 497 545 563.5Q540 630 519 672Q498 714 460.5 733Q423 752 370 752H364Q311 752 268.5 732Q226 712 194.5 669.5Q163 627 141.5 561Q120 495 108 402L105 378Q93 283 98 216.5Q103 150 124 108Q145 66 182.5 47Q220 28 273 28H279Q385 28 448.5 110.5Q512 193 535 378ZM577 378Q564 276 539.5 202.5Q515 129 477.5 82Q440 35 390 12.5Q340 -10 276 -10Q211 -10 165 11.5Q119 33 92 79.5Q65 126 57.5 199.5Q50 273 63 378L66 402Q79 504 103.5 577.5Q128 651 165.5 698Q203 745 253 767.5Q303 790 367 790Q431 790 477.5 768.5Q524 747 551 700.5Q578 654 585.5 580.5Q593 507 580 402ZM382 830Q319 830 287.5 863.5Q256 897 264 950H300Q295 912 315 887.5Q335 863 384 863Q433 863 460 887.5Q487 912 492 950H528Q520 897 482.5 863.5Q445 830 382 830Z" glyph-name="Obreve" horiz-adv-x="640" unicode="&#334;" /><glyph d="M266 840 381 950H411L496 840H453L393 917L313 840ZM538 402Q550 497 545 563.5Q540 630 519 672Q498 714 460.5 733Q423 752 370 752H364Q311 752 268.5 732Q226 712 194.5 669.5Q163 627 141.5 561Q120 495 108 402L105 378Q93 283 98 216.5Q103 150 124 108Q145 66 182.5 47Q220 28 273 28H279Q385 28 448.5 110.5Q512 193 535 378ZM577 378Q564 276 539.5 202.5Q515 129 477.5 82Q440 35 390 12.5Q340 -10 276 -10Q211 -10 165 11.5Q119 33 92 79.5Q65 126 57.5 199.5Q50 273 63 378L66 402Q79 504 103.5 577.5Q128 651 165.5 698Q203 745 253 767.5Q303 790 367 790Q431 790 477.5 768.5Q524 747 551 700.5Q578 654 585.5 580.5Q593 507 580 402Z" glyph-name="Ocircumflex" horiz-adv-x="640" unicode="&#212;" /><glyph d="M538 402Q550 497 545 563.5Q540 630 519 672Q498 714 460.5 733Q423 752 370 752H364Q311 752 268.5 732Q226 712 194.5 669.5Q163 627 141.5 561Q120 495 108 402L105 378Q93 283 98 216.5Q103 150 124 108Q145 66 182.5 47Q220 28 273 28H279Q385 28 448.5 110.5Q512 193 535 378ZM577 378Q564 276 539.5 202.5Q515 129 477.5 82Q440 35 390 12.5Q340 -10 276 -10Q211 -10 165 11.5Q119 33 92 79.5Q65 126 57.5 199.5Q50 273 63 378L66 402Q79 504 103.5 577.5Q128 651 165.5 698Q203 745 253 767.5Q303 790 367 790Q431 790 477.5 768.5Q524 747 551 700.5Q578 654 585.5 580.5Q593 507 580 402ZM489 865H429L437 925H497ZM339 865H279L287 925H347Z" glyph-name="Odieresis" horiz-adv-x="640" unicode="&#214;" /><glyph d="M538 402Q550 497 545 563.5Q540 630 519 672Q498 714 460.5 733Q423 752 370 752H364Q311 752 268.5 732Q226 712 194.5 669.5Q163 627 141.5 561Q120 495 108 402L105 378Q93 283 98 216.5Q103 150 124 108Q145 66 182.5 47Q220 28 273 28H279Q385 28 448.5 110.5Q512 193 535 378ZM577 378Q564 276 539.5 202.5Q515 129 477.5 82Q440 35 390 12.5Q340 -10 276 -10Q211 -10 165 11.5Q119 33 92 79.5Q65 126 57.5 199.5Q50 273 63 378L66 402Q79 504 103.5 577.5Q128 651 165.5 698Q203 745 253 767.5Q303 790 367 790Q431 790 477.5 768.5Q524 747 551 700.5Q578 654 585.5 580.5Q593 507 580 402ZM355 950 402 840H360L313 950Z" glyph-name="Ograve" horiz-adv-x="640" unicode="&#210;" /><glyph d="M538 402Q550 497 545 563.5Q540 630 519 672Q498 714 460.5 733Q423 752 370 752H364Q311 752 268.5 732Q226 712 194.5 669.5Q163 627 141.5 561Q120 495 108 402L105 378Q93 283 98 216.5Q103 150 124 108Q145 66 182.5 47Q220 28 273 28H279Q385 28 448.5 110.5Q512 193 535 378ZM577 378Q564 276 539.5 202.5Q515 129 477.5 82Q440 35 390 12.5Q340 -10 276 -10Q211 -10 165 11.5Q119 33 92 79.5Q65 126 57.5 199.5Q50 273 63 378L66 402Q79 504 103.5 577.5Q128 651 165.5 698Q203 745 253 767.5Q303 790 367 790Q431 790 477.5 768.5Q524 747 551 700.5Q578 654 585.5 580.5Q593 507 580 402ZM534 950 457 840H415L492 950ZM424 950 347 840H305L382 950Z" glyph-name="Ohungarumlaut" horiz-adv-x="640" unicode="&#336;" /><glyph d="M538 402Q550 497 545 563.5Q540 630 519 672Q498 714 460.5 733Q423 752 370 752H364Q311 752 268.5 732Q226 712 194.5 669.5Q163 627 141.5 561Q120 495 108 402L105 378Q93 283 98 216.5Q103 150 124 108Q145 66 182.5 47Q220 28 273 28H279Q385 28 448.5 110.5Q512 193 535 378ZM577 378Q564 276 539.5 202.5Q515 129 477.5 82Q440 35 390 12.5Q340 -10 276 -10Q211 -10 165 11.5Q119 33 92 79.5Q65 126 57.5 199.5Q50 273 63 378L66 402Q79 504 103.5 577.5Q128 651 165.5 698Q203 745 253 767.5Q303 790 367 790Q431 790 477.5 768.5Q524 747 551 700.5Q578 654 585.5 580.5Q593 507 580 402ZM291 915H491L486 875H286Z" glyph-name="Omacron" horiz-adv-x="640" unicode="&#332;" /><glyph d="M538 402Q548 483 546 543Q544 603 530 645L130 96Q152 61 187.5 44.5Q223 28 273 28H279Q385 28 448.5 110.5Q512 193 535 378ZM105 378Q94 297 96.5 236.5Q99 176 113 134L512 683Q490 719 455 735.5Q420 752 370 752H364Q311 752 268.5 732Q226 712 194.5 669.5Q163 627 141.5 561Q120 495 108 402ZM577 378Q564 276 539.5 202.5Q515 129 477.5 82Q440 35 390 12.5Q340 -10 276 -10Q218 -10 175 7Q132 24 104 61L60 0H15L84 94Q61 142 56 211.5Q51 281 63 378L66 402Q79 504 103.5 577.5Q128 651 165.5 698Q203 745 253 767.5Q303 790 367 790Q425 790 467.5 773Q510 756 538 719L583 780H628L559 685Q581 638 586.5 568.5Q592 499 580 402Z" glyph-name="Oslash" horiz-adv-x="626" unicode="&#216;" /><glyph d="M538 402Q550 497 545 563.5Q540 630 519 672Q498 714 460.5 733Q423 752 370 752H364Q311 752 268.5 732Q226 712 194.5 669.5Q163 627 141.5 561Q120 495 108 402L105 378Q93 283 98 216.5Q103 150 124 108Q145 66 182.5 47Q220 28 273 28H279Q385 28 448.5 110.5Q512 193 535 378ZM577 378Q564 276 539.5 202.5Q515 129 477.5 82Q440 35 390 12.5Q340 -10 276 -10Q211 -10 165 11.5Q119 33 92 79.5Q65 126 57.5 199.5Q50 273 63 378L66 402Q79 504 103.5 577.5Q128 651 165.5 698Q203 745 253 767.5Q303 790 367 790Q431 790 477.5 768.5Q524 747 551 700.5Q578 654 585.5 580.5Q593 507 580 402ZM533 932Q528 889 505 868.5Q482 848 450 848Q428 848 411.5 857.5Q395 867 380.5 878.5Q366 890 353 899.5Q340 909 325 909Q286 909 279 858H243Q249 901 272 921.5Q295 942 327 942Q349 942 365.5 932.5Q382 923 396 911.5Q410 900 423 890.5Q436 881 451 881Q491 881 497 932Z" glyph-name="Otilde" horiz-adv-x="640" unicode="&#213;" /><glyph d="M286 368Q314 368 346.5 374Q379 380 408.5 398Q438 416 460 449.5Q482 483 489 537L492 561Q499 618 485 653Q471 688 445.5 708Q420 728 387.5 735Q355 742 327 742H168L119 368ZM71 0H31L133 780H330Q370 780 409.5 769.5Q449 759 479.5 734Q510 709 526 667Q542 625 534 561L531 537Q523 477 498.5 437Q474 397 439.5 373Q405 349 363.5 339.5Q322 330 281 330H114Z" glyph-name="P" horiz-adv-x="560" unicode="P" /><glyph d="M286 368Q314 368 346.5 374Q379 380 408.5 398Q438 416 460 449.5Q482 483 489 537L492 561Q499 618 485 653Q471 688 445.5 708Q420 728 387.5 735Q355 742 327 742H168L119 368ZM71 0H31L133 780H330Q370 780 409.5 769.5Q449 759 479.5 734Q510 709 526 667Q542 625 534 561L531 537Q523 477 498.5 437Q474 397 439.5 373Q405 349 363.5 339.5Q322 330 281 330H114ZM379 865H319L327 925H387Z" glyph-name="Pdotaccent" horiz-adv-x="560" unicode="&#7766;" /><glyph d="M320 213 363 43Q432 70 474 151Q516 232 535 378L538 402Q550 497 545 563.5Q540 630 519 672Q498 714 460.5 733Q423 752 370 752H364Q311 752 268.5 732Q226 712 194.5 669.5Q163 627 141.5 561Q120 495 108 402L105 378Q93 283 98 216.5Q103 150 124 108Q145 66 182.5 47Q220 28 273 28H279Q291 28 302 29Q313 30 325 32L280 213ZM577 378Q557 216 506 125Q455 34 372 5L399 -100H357L334 -5Q324 -7 307.5 -8.5Q291 -10 276 -10Q211 -10 165 11.5Q119 33 92 79.5Q65 126 57.5 199.5Q50 273 63 378L66 402Q79 504 103.5 577.5Q128 651 165.5 698Q203 745 253 767.5Q303 790 367 790Q431 790 477.5 768.5Q524 747 551 700.5Q578 654 585.5 580.5Q593 507 580 402Z" glyph-name="Q" horiz-adv-x="640" unicode="Q" /><glyph d="M286 368Q314 368 346.5 374Q379 380 408.5 398Q438 416 460 449.5Q482 483 489 537L492 561Q499 618 485 653Q471 688 445.5 708Q420 728 387.5 735Q355 742 327 742H168L119 368ZM71 0H31L133 780H330Q370 780 409.5 769.5Q449 759 479.5 734Q510 709 526 667Q542 625 534 561L531 537Q525 492 510 459Q495 426 473 402.5Q451 379 424 364Q397 349 367 341L461 0H417L328 333Q304 330 281 330H114Z" glyph-name="R" horiz-adv-x="570" unicode="R" /><glyph d="M424 950 347 840H305L382 950ZM286 368Q314 368 346.5 374Q379 380 408.5 398Q438 416 460 449.5Q482 483 489 537L492 561Q499 618 485 653Q471 688 445.5 708Q420 728 387.5 735Q355 742 327 742H168L119 368ZM71 0H31L133 780H330Q370 780 409.5 769.5Q449 759 479.5 734Q510 709 526 667Q542 625 534 561L531 537Q525 492 510 459Q495 426 473 402.5Q451 379 424 364Q397 349 367 341L461 0H417L328 333Q304 330 281 330H114Z" glyph-name="Racute" horiz-adv-x="570" unicode="&#340;" /><glyph d="M269 950 328 873 409 950H456L341 840H311L226 950ZM286 368Q314 368 346.5 374Q379 380 408.5 398Q438 416 460 449.5Q482 483 489 537L492 561Q499 618 485 653Q471 688 445.5 708Q420 728 387.5 735Q355 742 327 742H168L119 368ZM71 0H31L133 780H330Q370 780 409.5 769.5Q449 759 479.5 734Q510 709 526 667Q542 625 534 561L531 537Q525 492 510 459Q495 426 473 402.5Q451 379 424 364Q397 349 367 341L461 0H417L328 333Q304 330 281 330H114Z" glyph-name="Rcaron" horiz-adv-x="570" unicode="&#344;" /><glyph d="M241 -108Q235 -155 207.5 -182.5Q180 -210 138 -210L142 -180Q166 -180 184.5 -166Q203 -152 210 -120H180L188 -60H248ZM286 368Q314 368 346.5 374Q379 380 408.5 398Q438 416 460 449.5Q482 483 489 537L492 561Q499 618 485 653Q471 688 445.5 708Q420 728 387.5 735Q355 742 327 742H168L119 368ZM71 0H31L133 780H330Q370 780 409.5 769.5Q449 759 479.5 734Q510 709 526 667Q542 625 534 561L531 537Q525 492 510 459Q495 426 473 402.5Q451 379 424 364Q397 349 367 341L461 0H417L328 333Q304 330 281 330H114Z" glyph-name="Rcommaaccent" horiz-adv-x="570" unicode="&#342;" /><glyph d="M288 386Q226 398 185 418Q144 438 120.5 464.5Q97 491 89.5 522.5Q82 554 87 589L89 605Q95 653 116.5 688Q138 723 170.5 745.5Q203 768 245 779Q287 790 335 790Q399 790 444.5 772.5Q490 755 517 722.5Q544 690 552.5 643.5Q561 597 552 539L549 520H509Q527 643 482 697.5Q437 752 340 752H330Q290 752 255.5 743Q221 734 195 716Q169 698 152 671Q135 644 131 608L129 592Q124 557 131.5 530Q139 503 160.5 482Q182 461 219 446Q256 431 312 420Q373 408 415 389Q457 370 481.5 344Q506 318 514.5 284.5Q523 251 518 209L516 193Q503 92 431.5 41Q360 -10 250 -10Q130 -10 71.5 53.5Q13 117 31 231L34 250H74Q62 190 71 148Q80 106 104 79Q128 52 164.5 40Q201 28 245 28H255Q343 28 403 67.5Q463 107 474 190L476 206Q486 285 439.5 325.5Q393 366 288 386Z" glyph-name="S" horiz-adv-x="590" unicode="S" /><glyph d="M288 386Q226 398 185 418Q144 438 120.5 464.5Q97 491 89.5 522.5Q82 554 87 589L89 605Q95 653 116.5 688Q138 723 170.5 745.5Q203 768 245 779Q287 790 335 790Q399 790 444.5 772.5Q490 755 517 722.5Q544 690 552.5 643.5Q561 597 552 539L549 520H509Q527 643 482 697.5Q437 752 340 752H330Q290 752 255.5 743Q221 734 195 716Q169 698 152 671Q135 644 131 608L129 592Q124 557 131.5 530Q139 503 160.5 482Q182 461 219 446Q256 431 312 420Q373 408 415 389Q457 370 481.5 344Q506 318 514.5 284.5Q523 251 518 209L516 193Q503 92 431.5 41Q360 -10 250 -10Q130 -10 71.5 53.5Q13 117 31 231L34 250H74Q62 190 71 148Q80 106 104 79Q128 52 164.5 40Q201 28 245 28H255Q343 28 403 67.5Q463 107 474 190L476 206Q486 285 439.5 325.5Q393 366 288 386ZM454 950 377 840H335L412 950Z" glyph-name="Sacute" horiz-adv-x="590" unicode="&#346;" /><glyph d="M288 386Q226 398 185 418Q144 438 120.5 464.5Q97 491 89.5 522.5Q82 554 87 589L89 605Q95 653 116.5 688Q138 723 170.5 745.5Q203 768 245 779Q287 790 335 790Q399 790 444.5 772.5Q490 755 517 722.5Q544 690 552.5 643.5Q561 597 552 539L549 520H509Q527 643 482 697.5Q437 752 340 752H330Q290 752 255.5 743Q221 734 195 716Q169 698 152 671Q135 644 131 608L129 592Q124 557 131.5 530Q139 503 160.5 482Q182 461 219 446Q256 431 312 420Q373 408 415 389Q457 370 481.5 344Q506 318 514.5 284.5Q523 251 518 209L516 193Q503 92 431.5 41Q360 -10 250 -10Q130 -10 71.5 53.5Q13 117 31 231L34 250H74Q62 190 71 148Q80 106 104 79Q128 52 164.5 40Q201 28 245 28H255Q343 28 403 67.5Q463 107 474 190L476 206Q486 285 439.5 325.5Q393 366 288 386ZM299 950 358 873 439 950H486L371 840H341L256 950Z" glyph-name="Scaron" horiz-adv-x="590" unicode="&#352;" /><glyph d="M154 -155Q165 -163 184 -170Q203 -177 226 -177Q258 -177 275.5 -167Q293 -157 293 -134Q293 -111 275 -104Q257 -97 234 -97Q228 -97 223 -97.5Q218 -98 214 -98Q210 -99 206 -99L192 -83L229 -9Q119 -4 66.5 59Q14 122 31 231L34 250H74Q62 190 71 148Q80 106 104 79Q128 52 164.5 40Q201 28 245 28H255Q343 28 403 67.5Q463 107 474 190L476 206Q486 285 439.5 325.5Q393 366 288 386Q226 398 185 418Q144 438 120.5 464.5Q97 491 89.5 522.5Q82 554 87 589L89 605Q95 653 116.5 688Q138 723 170.5 745.5Q203 768 245 779Q287 790 335 790Q399 790 444.5 772.5Q490 755 517 722.5Q544 690 552.5 643.5Q561 597 552 539L549 520H509Q527 643 482 697.5Q437 752 340 752H330Q290 752 255.5 743Q221 734 195 716Q169 698 152 671Q135 644 131 608L129 592Q124 557 131.5 530Q139 503 160.5 482Q182 461 219 446Q256 431 312 420Q373 408 415 389Q457 370 481.5 344Q506 318 514.5 284.5Q523 251 518 209L516 193Q503 95 436 44.5Q369 -6 265 -10L237 -64H242Q257 -64 272 -67Q287 -70 299 -77.5Q311 -85 319 -98Q327 -111 327 -130Q327 -174 297 -192Q267 -210 226 -210Q201 -210 177 -202Q153 -194 139 -183Z" glyph-name="Scedilla" horiz-adv-x="590" unicode="&#350;" /><glyph d="M288 386Q226 398 185 418Q144 438 120.5 464.5Q97 491 89.5 522.5Q82 554 87 589L89 605Q95 653 116.5 688Q138 723 170.5 745.5Q203 768 245 779Q287 790 335 790Q399 790 444.5 772.5Q490 755 517 722.5Q544 690 552.5 643.5Q561 597 552 539L549 520H509Q527 643 482 697.5Q437 752 340 752H330Q290 752 255.5 743Q221 734 195 716Q169 698 152 671Q135 644 131 608L129 592Q124 557 131.5 530Q139 503 160.5 482Q182 461 219 446Q256 431 312 420Q373 408 415 389Q457 370 481.5 344Q506 318 514.5 284.5Q523 251 518 209L516 193Q503 92 431.5 41Q360 -10 250 -10Q130 -10 71.5 53.5Q13 117 31 231L34 250H74Q62 190 71 148Q80 106 104 79Q128 52 164.5 40Q201 28 245 28H255Q343 28 403 67.5Q463 107 474 190L476 206Q486 285 439.5 325.5Q393 366 288 386ZM241 840 356 950H386L471 840H428L368 917L288 840Z" glyph-name="Scircumflex" horiz-adv-x="590" unicode="&#348;" /><glyph d="M288 386Q226 398 185 418Q144 438 120.5 464.5Q97 491 89.5 522.5Q82 554 87 589L89 605Q95 653 116.5 688Q138 723 170.5 745.5Q203 768 245 779Q287 790 335 790Q399 790 444.5 772.5Q490 755 517 722.5Q544 690 552.5 643.5Q561 597 552 539L549 520H509Q527 643 482 697.5Q437 752 340 752H330Q290 752 255.5 743Q221 734 195 716Q169 698 152 671Q135 644 131 608L129 592Q124 557 131.5 530Q139 503 160.5 482Q182 461 219 446Q256 431 312 420Q373 408 415 389Q457 370 481.5 344Q506 318 514.5 284.5Q523 251 518 209L516 193Q503 92 431.5 41Q360 -10 250 -10Q130 -10 71.5 53.5Q13 117 31 231L34 250H74Q62 190 71 148Q80 106 104 79Q128 52 164.5 40Q201 28 245 28H255Q343 28 403 67.5Q463 107 474 190L476 206Q486 285 439.5 325.5Q393 366 288 386ZM261 -108Q255 -155 227.5 -182.5Q200 -210 158 -210L162 -180Q186 -180 204.5 -166Q223 -152 230 -120H200L208 -60H268Z" glyph-name="Scommaaccent" horiz-adv-x="590" unicode="&#536;" /><glyph d="M221 0H181L278 742H73L78 780H528L523 742H318Z" glyph-name="T" horiz-adv-x="500" unicode="T" /><glyph d="M275 417H405L400 379H270L221 0H181L230 379H100L105 417H235L278 742H73L78 780H528L523 742H318Z" glyph-name="Tbar" horiz-adv-x="500" unicode="&#358;" /><glyph d="M254 950 313 873 394 950H441L326 840H296L211 950ZM221 0H181L278 742H73L78 780H528L523 742H318Z" glyph-name="Tcaron" horiz-adv-x="500" unicode="&#356;" /><glyph d="M216 -108Q210 -155 182.5 -182.5Q155 -210 113 -210L117 -180Q141 -180 159.5 -166Q178 -152 185 -120H155L163 -60H223ZM221 0H181L278 742H73L78 780H528L523 742H318Z" glyph-name="Tcommaaccent" horiz-adv-x="500" unicode="&#354;" /><glyph d="M344 865H284L292 925H352ZM221 0H181L278 742H73L78 780H528L523 742H318Z" glyph-name="Tdotaccent" horiz-adv-x="500" unicode="&#7786;" /><glyph d="M264 203Q292 203 324.5 209Q357 215 386.5 233Q416 251 438 284.5Q460 318 467 372L470 396Q477 453 463 488Q449 523 423.5 543Q398 563 365.5 570Q333 577 305 577H146L97 203ZM71 0H31L133 780H173L151 615H308Q348 615 387.5 604.5Q427 594 457.5 569Q488 544 504 502Q520 460 512 396L509 372Q501 312 476.5 272Q452 232 417.5 208Q383 184 341.5 174.5Q300 165 259 165H92Z" glyph-name="Thorn" horiz-adv-x="560" unicode="&#222;" /><glyph d="M273 -10Q217 -10 172.5 2Q128 14 99.5 42.5Q71 71 59.5 119.5Q48 168 57 240L128 780H168L98 245Q90 182 98 140Q106 98 128.5 73.5Q151 49 187.5 38.5Q224 28 273 28Q322 28 360 38.5Q398 49 426 74Q454 99 472 140.5Q490 182 498 245L568 780H608L537 240Q528 169 506.5 121Q485 73 452 44Q419 15 374 2.5Q329 -10 273 -10Z" glyph-name="U" horiz-adv-x="630" unicode="U" /><glyph d="M273 -10Q217 -10 172.5 2Q128 14 99.5 42.5Q71 71 59.5 119.5Q48 168 57 240L128 780H168L98 245Q90 182 98 140Q106 98 128.5 73.5Q151 49 187.5 38.5Q224 28 273 28Q322 28 360 38.5Q398 49 426 74Q454 99 472 140.5Q490 182 498 245L568 780H608L537 240Q528 169 506.5 121Q485 73 452 44Q419 15 374 2.5Q329 -10 273 -10ZM474 950 397 840H355L432 950Z" glyph-name="Uacute" horiz-adv-x="630" unicode="&#218;" /><glyph d="M273 -10Q217 -10 172.5 2Q128 14 99.5 42.5Q71 71 59.5 119.5Q48 168 57 240L128 780H168L98 245Q90 182 98 140Q106 98 128.5 73.5Q151 49 187.5 38.5Q224 28 273 28Q322 28 360 38.5Q398 49 426 74Q454 99 472 140.5Q490 182 498 245L568 780H608L537 240Q528 169 506.5 121Q485 73 452 44Q419 15 374 2.5Q329 -10 273 -10ZM377 830Q314 830 282.5 863.5Q251 897 259 950H295Q290 912 310 887.5Q330 863 379 863Q428 863 455 887.5Q482 912 487 950H523Q515 897 477.5 863.5Q440 830 377 830Z" glyph-name="Ubreve" horiz-adv-x="630" unicode="&#364;" /><glyph d="M273 -10Q217 -10 172.5 2Q128 14 99.5 42.5Q71 71 59.5 119.5Q48 168 57 240L128 780H168L98 245Q90 182 98 140Q106 98 128.5 73.5Q151 49 187.5 38.5Q224 28 273 28Q322 28 360 38.5Q398 49 426 74Q454 99 472 140.5Q490 182 498 245L568 780H608L537 240Q528 169 506.5 121Q485 73 452 44Q419 15 374 2.5Q329 -10 273 -10ZM261 840 376 950H406L491 840H448L388 917L308 840Z" glyph-name="Ucircumflex" horiz-adv-x="630" unicode="&#219;" /><glyph d="M273 -10Q217 -10 172.5 2Q128 14 99.5 42.5Q71 71 59.5 119.5Q48 168 57 240L128 780H168L98 245Q90 182 98 140Q106 98 128.5 73.5Q151 49 187.5 38.5Q224 28 273 28Q322 28 360 38.5Q398 49 426 74Q454 99 472 140.5Q490 182 498 245L568 780H608L537 240Q528 169 506.5 121Q485 73 452 44Q419 15 374 2.5Q329 -10 273 -10ZM334 865H274L282 925H342ZM484 865H424L432 925H492Z" glyph-name="Udieresis" horiz-adv-x="630" unicode="&#220;" /><glyph d="M273 -10Q217 -10 172.5 2Q128 14 99.5 42.5Q71 71 59.5 119.5Q48 168 57 240L128 780H168L98 245Q90 182 98 140Q106 98 128.5 73.5Q151 49 187.5 38.5Q224 28 273 28Q322 28 360 38.5Q398 49 426 74Q454 99 472 140.5Q490 182 498 245L568 780H608L537 240Q528 169 506.5 121Q485 73 452 44Q419 15 374 2.5Q329 -10 273 -10ZM350 950 397 840H355L308 950Z" glyph-name="Ugrave" horiz-adv-x="630" unicode="&#217;" /><glyph d="M273 -10Q217 -10 172.5 2Q128 14 99.5 42.5Q71 71 59.5 119.5Q48 168 57 240L128 780H168L98 245Q90 182 98 140Q106 98 128.5 73.5Q151 49 187.5 38.5Q224 28 273 28Q322 28 360 38.5Q398 49 426 74Q454 99 472 140.5Q490 182 498 245L568 780H608L537 240Q528 169 506.5 121Q485 73 452 44Q419 15 374 2.5Q329 -10 273 -10ZM419 950 342 840H300L377 950ZM529 950 452 840H410L487 950Z" glyph-name="Uhungarumlaut" horiz-adv-x="630" unicode="&#368;" /><glyph d="M273 -10Q217 -10 172.5 2Q128 14 99.5 42.5Q71 71 59.5 119.5Q48 168 57 240L128 780H168L98 245Q90 182 98 140Q106 98 128.5 73.5Q151 49 187.5 38.5Q224 28 273 28Q322 28 360 38.5Q398 49 426 74Q454 99 472 140.5Q490 182 498 245L568 780H608L537 240Q528 169 506.5 121Q485 73 452 44Q419 15 374 2.5Q329 -10 273 -10ZM286 915H486L481 875H281Z" glyph-name="Umacron" horiz-adv-x="630" unicode="&#362;" /><glyph d="M273 -10Q217 -10 172.5 2Q128 14 99.5 42.5Q71 71 59.5 119.5Q48 168 57 240L128 780H168L98 245Q90 182 98 140Q106 98 128.5 73.5Q151 49 187.5 38.5Q224 28 273 28Q322 28 360 38.5Q398 49 426 74Q454 99 472 140.5Q490 182 498 245L568 780H608L537 240Q522 129 479 73.5Q436 18 365 0Q345 -5 325.5 -16.5Q306 -28 290.5 -44.5Q275 -61 265 -82Q255 -103 255 -127Q255 -152 272.5 -164.5Q290 -177 321 -177Q337 -177 353.5 -173.5Q370 -170 384 -163L392 -191Q375 -201 353.5 -205.5Q332 -210 314 -210Q271 -210 246 -190Q221 -170 221 -131Q221 -90 240 -60.5Q259 -31 288 -10Z" glyph-name="Uogonek" horiz-adv-x="630" unicode="&#370;" /><glyph d="M273 -10Q217 -10 172.5 2Q128 14 99.5 42.5Q71 71 59.5 119.5Q48 168 57 240L128 780H168L98 245Q90 182 98 140Q106 98 128.5 73.5Q151 49 187.5 38.5Q224 28 273 28Q322 28 360 38.5Q398 49 426 74Q454 99 472 140.5Q490 182 498 245L568 780H608L537 240Q528 169 506.5 121Q485 73 452 44Q419 15 374 2.5Q329 -10 273 -10ZM322 860Q322 840 336 826Q350 812 373 812Q398 812 418 829Q438 846 438 880Q438 900 424 914Q410 928 387 928Q362 928 342 911Q322 894 322 860ZM471 880Q471 838 443.5 809Q416 780 373 780Q335 780 312 803Q289 826 289 860Q289 902 316.5 931Q344 960 387 960Q425 960 448 937Q471 914 471 880Z" glyph-name="Uring" horiz-adv-x="630" unicode="&#366;" /><glyph d="M273 -10Q217 -10 172.5 2Q128 14 99.5 42.5Q71 71 59.5 119.5Q48 168 57 240L128 780H168L98 245Q90 182 98 140Q106 98 128.5 73.5Q151 49 187.5 38.5Q224 28 273 28Q322 28 360 38.5Q398 49 426 74Q454 99 472 140.5Q490 182 498 245L568 780H608L537 240Q528 169 506.5 121Q485 73 452 44Q419 15 374 2.5Q329 -10 273 -10ZM528 932Q523 889 500 868.5Q477 848 445 848Q423 848 406.5 857.5Q390 867 375.5 878.5Q361 890 348 899.5Q335 909 320 909Q281 909 274 858H238Q244 901 267 921.5Q290 942 322 942Q344 942 360.5 932.5Q377 923 391 911.5Q405 900 418 890.5Q431 881 446 881Q486 881 492 932Z" glyph-name="Utilde" horiz-adv-x="630" unicode="&#360;" /><glyph d="M219 -10 87 780H129L253 30L573 780H619L279 -10Z" glyph-name="V" horiz-adv-x="600" unicode="V" /><glyph d="M488 740 209 -10H149L102 780H144L184 32L462 780H522L604 32L840 780H884L629 -10H569Z" glyph-name="W" horiz-adv-x="880" unicode="W" /><glyph d="M488 740 209 -10H149L102 780H144L184 32L462 780H522L604 32L840 780H884L629 -10H569ZM599 950 522 840H480L557 950Z" glyph-name="Wacute" horiz-adv-x="880" unicode="&#7810;" /><glyph d="M488 740 209 -10H149L102 780H144L184 32L462 780H522L604 32L840 780H884L629 -10H569ZM386 840 501 950H531L616 840H573L513 917L433 840Z" glyph-name="Wcircumflex" horiz-adv-x="880" unicode="&#372;" /><glyph d="M488 740 209 -10H149L102 780H144L184 32L462 780H522L604 32L840 780H884L629 -10H569ZM459 865H399L407 925H467ZM609 865H549L557 925H617Z" glyph-name="Wdieresis" horiz-adv-x="880" unicode="&#7812;" /><glyph d="M488 740 209 -10H149L102 780H144L184 32L462 780H522L604 32L840 780H884L629 -10H569ZM475 950 522 840H480L433 950Z" glyph-name="Wgrave" horiz-adv-x="880" unicode="&#7808;" /><glyph d="M279 394 88 780H133L304 427L567 780H618L325 392L516 0H471L300 355L37 0H-14Z" glyph-name="X" horiz-adv-x="600" unicode="X" /><glyph d="M251 0H211L241 235L78 780H119L266 285L543 780H588L281 235Z" glyph-name="Y" horiz-adv-x="560" unicode="Y" /><glyph d="M251 0H211L241 235L78 780H119L266 285L543 780H588L281 235ZM439 950 362 840H320L397 950Z" glyph-name="Yacute" horiz-adv-x="560" unicode="&#221;" /><glyph d="M251 0H211L241 235L78 780H119L266 285L543 780H588L281 235ZM226 840 341 950H371L456 840H413L353 917L273 840Z" glyph-name="Ycircumflex" horiz-adv-x="560" unicode="&#374;" /><glyph d="M251 0H211L241 235L78 780H119L266 285L543 780H588L281 235ZM299 865H239L247 925H307ZM449 865H389L397 925H457Z" glyph-name="Ydieresis" horiz-adv-x="560" unicode="&#376;" /><glyph d="M251 0H211L241 235L78 780H119L266 285L543 780H588L281 235ZM315 950 362 840H320L273 950Z" glyph-name="Ygrave" horiz-adv-x="560" unicode="&#7922;" /><glyph d="M251 0H211L241 235L78 780H119L266 285L543 780H588L281 235ZM251 915H451L446 875H246Z" glyph-name="Ymacron" horiz-adv-x="560" unicode="&#562;" /><glyph d="M500 744 379 742H98L103 780H553L550 752L44 36L165 38H466L461 0H-9L-6 28Z" glyph-name="Z" horiz-adv-x="550" unicode="Z" /><glyph d="M500 744 379 742H98L103 780H553L550 752L44 36L165 38H466L461 0H-9L-6 28ZM431 950 354 840H312L389 950Z" glyph-name="Zacute" horiz-adv-x="550" unicode="&#377;" /><glyph d="M500 744 379 742H98L103 780H553L550 752L44 36L165 38H466L461 0H-9L-6 28ZM276 950 335 873 416 950H463L348 840H318L233 950Z" glyph-name="Zcaron" horiz-adv-x="550" unicode="&#381;" /><glyph d="M500 744 379 742H98L103 780H553L550 752L44 36L165 38H466L461 0H-9L-6 28ZM366 865H306L314 925H374Z" glyph-name="Zdotaccent" horiz-adv-x="550" unicode="&#379;" /><glyph d="M160 28Q204 28 237.5 39Q271 50 295 65.5Q319 81 334 98.5Q349 116 358 129L379 289L203 261Q141 251 105 226.5Q69 202 62 150L60 134Q57 114 62 95Q67 76 80 61Q93 46 113 37Q133 28 160 28ZM357 80Q342 63 322.5 46.5Q303 30 278.5 17.5Q254 5 224.5 -2.5Q195 -10 160 -10Q127 -10 99 0Q71 10 51.5 28.5Q32 47 23 73Q14 99 18 131L20 147Q25 190 43.5 217Q62 244 88 260.5Q114 277 145 285Q176 293 208 298L384 326L387 350Q397 429 371 465.5Q345 502 263 502Q220 502 191.5 490Q163 478 145.5 457.5Q128 437 119.5 410.5Q111 384 107 355H67L69 369Q73 397 84 427.5Q95 458 117 483Q139 508 174.5 524Q210 540 263 540Q318 540 352.5 526Q387 512 405.5 486.5Q424 461 428 425Q432 389 426 345L400 150L386 0H356Z" glyph-name="a" horiz-adv-x="500" unicode="a" /><glyph d="M160 28Q204 28 237.5 39Q271 50 295 65.5Q319 81 334 98.5Q349 116 358 129L379 289L203 261Q141 251 105 226.5Q69 202 62 150L60 134Q57 114 62 95Q67 76 80 61Q93 46 113 37Q133 28 160 28ZM357 80Q342 63 322.5 46.5Q303 30 278.5 17.5Q254 5 224.5 -2.5Q195 -10 160 -10Q127 -10 99 0Q71 10 51.5 28.5Q32 47 23 73Q14 99 18 131L20 147Q25 190 43.5 217Q62 244 88 260.5Q114 277 145 285Q176 293 208 298L384 326L387 350Q397 429 371 465.5Q345 502 263 502Q220 502 191.5 490Q163 478 145.5 457.5Q128 437 119.5 410.5Q111 384 107 355H67L69 369Q73 397 84 427.5Q95 458 117 483Q139 508 174.5 524Q210 540 263 540Q318 540 352.5 526Q387 512 405.5 486.5Q424 461 428 425Q432 389 426 345L400 150L386 0H356ZM414 780 303 620H261L372 780Z" glyph-name="aacute" horiz-adv-x="500" unicode="&#225;" /><glyph d="M160 28Q204 28 237.5 39Q271 50 295 65.5Q319 81 334 98.5Q349 116 358 129L379 289L203 261Q141 251 105 226.5Q69 202 62 150L60 134Q57 114 62 95Q67 76 80 61Q93 46 113 37Q133 28 160 28ZM357 80Q342 63 322.5 46.5Q303 30 278.5 17.5Q254 5 224.5 -2.5Q195 -10 160 -10Q127 -10 99 0Q71 10 51.5 28.5Q32 47 23 73Q14 99 18 131L20 147Q25 190 43.5 217Q62 244 88 260.5Q114 277 145 285Q176 293 208 298L384 326L387 350Q397 429 371 465.5Q345 502 263 502Q220 502 191.5 490Q163 478 145.5 457.5Q128 437 119.5 410.5Q111 384 107 355H67L69 369Q73 397 84 427.5Q95 458 117 483Q139 508 174.5 524Q210 540 263 540Q318 540 352.5 526Q387 512 405.5 486.5Q424 461 428 425Q432 389 426 345L400 150L386 0H356ZM283 610Q204 610 172.5 657.5Q141 705 151 780H187Q183 751 186 726Q189 701 200.5 682.5Q212 664 232.5 653.5Q253 643 285 643Q317 643 340.5 653.5Q364 664 380 682.5Q396 701 405.5 726Q415 751 419 780H455Q445 705 403.5 657.5Q362 610 283 610Z" glyph-name="abreve" horiz-adv-x="500" unicode="&#259;" /><glyph d="M160 28Q204 28 237.5 39Q271 50 295 65.5Q319 81 334 98.5Q349 116 358 129L379 289L203 261Q141 251 105 226.5Q69 202 62 150L60 134Q57 114 62 95Q67 76 80 61Q93 46 113 37Q133 28 160 28ZM357 80Q342 63 322.5 46.5Q303 30 278.5 17.5Q254 5 224.5 -2.5Q195 -10 160 -10Q127 -10 99 0Q71 10 51.5 28.5Q32 47 23 73Q14 99 18 131L20 147Q25 190 43.5 217Q62 244 88 260.5Q114 277 145 285Q176 293 208 298L384 326L387 350Q397 429 371 465.5Q345 502 263 502Q220 502 191.5 490Q163 478 145.5 457.5Q128 437 119.5 410.5Q111 384 107 355H67L69 369Q73 397 84 427.5Q95 458 117 483Q139 508 174.5 524Q210 540 263 540Q318 540 352.5 526Q387 512 405.5 486.5Q424 461 428 425Q432 389 426 345L400 150L386 0H356ZM137 620 288 780H318L427 620H384L300 744L184 620Z" glyph-name="acircumflex" horiz-adv-x="500" unicode="&#226;" /><glyph d="M414 780 303 620H261L372 780Z" glyph-name="acute" horiz-adv-x="500" unicode="&#180;" /><glyph d="M409 950 332 840H290L367 950Z" glyph-name="acute.cap" horiz-adv-x="500" unicode="&#58402;" /><glyph d="M160 28Q204 28 237.5 39Q271 50 295 65.5Q319 81 334 98.5Q349 116 358 129L379 289L203 261Q141 251 105 226.5Q69 202 62 150L60 134Q57 114 62 95Q67 76 80 61Q93 46 113 37Q133 28 160 28ZM357 80Q342 63 322.5 46.5Q303 30 278.5 17.5Q254 5 224.5 -2.5Q195 -10 160 -10Q127 -10 99 0Q71 10 51.5 28.5Q32 47 23 73Q14 99 18 131L20 147Q25 190 43.5 217Q62 244 88 260.5Q114 277 145 285Q176 293 208 298L384 326L387 350Q397 429 371 465.5Q345 502 263 502Q220 502 191.5 490Q163 478 145.5 457.5Q128 437 119.5 410.5Q111 384 107 355H67L69 369Q73 397 84 427.5Q95 458 117 483Q139 508 174.5 524Q210 540 263 540Q318 540 352.5 526Q387 512 405.5 486.5Q424 461 428 425Q432 389 426 345L400 150L386 0H356ZM394 675H334L342 735H402ZM244 675H184L192 735H252Z" glyph-name="adieresis" horiz-adv-x="500" unicode="&#228;" /><glyph d="M160 28Q202 28 235.5 38.5Q269 49 295 67Q321 85 340.5 107.5Q360 130 375 154Q367 203 375 259L379 289L203 261Q141 251 105 226.5Q69 202 62 150L60 134Q57 114 62 95Q67 76 80 61Q93 46 113 37Q133 28 160 28ZM624 502Q582 502 546.5 485.5Q511 469 485 440Q459 411 442.5 371Q426 331 420 284H768Q783 386 747.5 444Q712 502 624 502ZM416 246Q410 197 416 157Q422 117 441.5 88.5Q461 60 495 44Q529 28 580 28Q626 28 657.5 41Q689 54 709.5 74.5Q730 95 740.5 120.5Q751 146 754 170H794L793 163Q788 132 773.5 101Q759 70 733 45.5Q707 21 669 5.5Q631 -10 580 -10Q497 -10 450.5 23Q404 56 385 110Q343 51 285 20.5Q227 -10 160 -10Q127 -10 99 0Q71 10 51.5 28.5Q32 47 23 73Q14 99 18 131L20 147Q25 190 43.5 217Q62 244 88 260.5Q114 277 145 285Q176 293 208 298L384 326L387 350Q397 429 371 465.5Q345 502 263 502Q220 502 191.5 490Q163 478 145.5 457.5Q128 437 119.5 410.5Q111 384 107 355H67L69 369Q73 397 84 427.5Q95 458 117 483Q139 508 174.5 524Q210 540 263 540Q307 540 337 531Q367 522 386 504.5Q405 487 413.5 463Q422 439 423 409Q452 469 501 504.5Q550 540 624 540Q683 540 721.5 519Q760 498 781.5 462Q803 426 809 378.5Q815 331 808 278L804 246Z" glyph-name="ae" horiz-adv-x="875" unicode="&#230;" /><glyph d="M160 28Q204 28 237.5 39Q271 50 295 65.5Q319 81 334 98.5Q349 116 358 129L379 289L203 261Q141 251 105 226.5Q69 202 62 150L60 134Q57 114 62 95Q67 76 80 61Q93 46 113 37Q133 28 160 28ZM357 80Q342 63 322.5 46.5Q303 30 278.5 17.5Q254 5 224.5 -2.5Q195 -10 160 -10Q127 -10 99 0Q71 10 51.5 28.5Q32 47 23 73Q14 99 18 131L20 147Q25 190 43.5 217Q62 244 88 260.5Q114 277 145 285Q176 293 208 298L384 326L387 350Q397 429 371 465.5Q345 502 263 502Q220 502 191.5 490Q163 478 145.5 457.5Q128 437 119.5 410.5Q111 384 107 355H67L69 369Q73 397 84 427.5Q95 458 117 483Q139 508 174.5 524Q210 540 263 540Q318 540 352.5 526Q387 512 405.5 486.5Q424 461 428 425Q432 389 426 345L400 150L386 0H356ZM234 780 303 620H261L192 780Z" glyph-name="agrave" horiz-adv-x="500" unicode="&#224;" /><glyph d="M244 -136Q246 -114 229 -105.5Q212 -97 184 -97Q167 -97 150.5 -100Q134 -103 123 -107L127 -76Q138 -71 157.5 -67.5Q177 -64 197 -64Q211 -64 226 -67.5Q241 -71 253.5 -79Q266 -87 273 -100.5Q280 -114 277 -135Q271 -176 241 -193Q211 -210 170 -210Q145 -210 122 -204.5Q99 -199 85 -188L102 -158Q113 -166 131 -171.5Q149 -177 169 -177Q204 -177 222.5 -168Q241 -159 244 -136Z" glyph-name="altcedilla" horiz-adv-x="602" unicode="&#58390;" /><glyph d="M160 28Q204 28 237.5 39Q271 50 295 65.5Q319 81 334 98.5Q349 116 358 129L379 289L203 261Q141 251 105 226.5Q69 202 62 150L60 134Q57 114 62 95Q67 76 80 61Q93 46 113 37Q133 28 160 28ZM357 80Q342 63 322.5 46.5Q303 30 278.5 17.5Q254 5 224.5 -2.5Q195 -10 160 -10Q127 -10 99 0Q71 10 51.5 28.5Q32 47 23 73Q14 99 18 131L20 147Q25 190 43.5 217Q62 244 88 260.5Q114 277 145 285Q176 293 208 298L384 326L387 350Q397 429 371 465.5Q345 502 263 502Q220 502 191.5 490Q163 478 145.5 457.5Q128 437 119.5 410.5Q111 384 107 355H67L69 369Q73 397 84 427.5Q95 458 117 483Q139 508 174.5 524Q210 540 263 540Q318 540 352.5 526Q387 512 405.5 486.5Q424 461 428 425Q432 389 426 345L400 150L386 0H356ZM190 720H400L395 680H185Z" glyph-name="amacron" horiz-adv-x="500" unicode="&#257;" /><glyph d="M145 626Q142 600 147 577.5Q152 555 163 533Q174 511 190.5 489.5Q207 468 227 445Q260 465 291 485Q322 505 347.5 526.5Q373 548 390 572Q407 596 411 626L412 634Q415 658 409 679Q403 700 388 715.5Q373 731 349.5 740.5Q326 750 294 750H288Q253 750 227.5 740.5Q202 731 184.5 714.5Q167 698 158 677Q149 656 146 634ZM240 30Q292 30 340 50Q388 70 434 123L212 394Q185 376 161 358Q137 340 117.5 319Q98 298 85.5 273.5Q73 249 69 218L67 202Q62 165 70.5 133.5Q79 102 99.5 79Q120 56 153 43Q186 30 232 30ZM236 -10Q184 -10 142.5 4Q101 18 73 45Q45 72 33 111.5Q21 151 27 202L29 218Q33 255 48 284Q63 313 84.5 337.5Q106 362 133 382Q160 402 190 421Q144 477 120 525Q96 573 103 626L104 634Q108 668 121.5 696.5Q135 725 158 746Q181 767 214 778.5Q247 790 290 790Q333 790 365.5 778Q398 766 419 745Q440 724 449 695.5Q458 667 454 634L453 626Q448 591 429 562Q410 533 381.5 508.5Q353 484 318.5 461.5Q284 439 249 417L460 159Q487 200 507 255Q527 310 537 387L538 395H578Q566 306 542 241Q518 176 485 129L591 0H535L458 94Q409 40 353 15Q297 -10 236 -10Z" glyph-name="ampersand" horiz-adv-x="650" unicode="&amp;" /><glyph d="M94 356 192 -120H152L53 360L278 840H321Z" glyph-name="anglebracketleft" horiz-adv-x="300" unicode="&#12296;" /><glyph d="M140 0 57 390 242 780H284L98 387L180 0Z" glyph-name="anglebracketleft.cap" horiz-adv-x="300" unicode="&#58519;" /><glyph d="M202 364 104 840H144L243 360L18 -120H-25Z" glyph-name="anglebracketright" horiz-adv-x="300" unicode="&#12297;" /><glyph d="M164 780 247 390 62 0H20L206 393L124 780Z" glyph-name="anglebracketright.cap" horiz-adv-x="300" unicode="&#58520;" /><glyph d="M160 28Q204 28 237.5 39Q271 50 295 65.5Q319 81 334 98.5Q349 116 358 129L379 289L203 261Q141 251 105 226.5Q69 202 62 150L60 134Q57 114 62 95Q67 76 80 61Q93 46 113 37Q133 28 160 28ZM386 0Q368 -8 348.5 -20Q329 -32 313 -47.5Q297 -63 286.5 -83Q276 -103 276 -127Q276 -152 293.5 -164.5Q311 -177 342 -177Q358 -177 374.5 -173.5Q391 -170 405 -163L413 -191Q396 -201 374.5 -205.5Q353 -210 335 -210Q292 -210 267 -190Q242 -170 242 -131Q242 -103 251.5 -79.5Q261 -56 277 -38Q293 -20 313.5 -6Q334 8 356 18L357 80Q342 63 322.5 46.5Q303 30 278.5 17.5Q254 5 224.5 -2.5Q195 -10 160 -10Q127 -10 99 0Q71 10 51.5 28.5Q32 47 23 73Q14 99 18 131L20 147Q25 190 43.5 217Q62 244 88 260.5Q114 277 145 285Q176 293 208 298L384 326L387 350Q397 429 371 465.5Q345 502 263 502Q220 502 191.5 490Q163 478 145.5 457.5Q128 437 119.5 410.5Q111 384 107 355H67L69 369Q73 397 84 427.5Q95 458 117 483Q139 508 174.5 524Q210 540 263 540Q318 540 352.5 526Q387 512 405.5 486.5Q424 461 428 425Q432 389 426 345L400 150Z" glyph-name="aogonek" horiz-adv-x="500" unicode="&#261;" /><glyph d="M195 540Q235 540 265.5 528.5Q296 517 323 503.5Q350 490 377.5 478.5Q405 467 441 467Q458 467 474 473Q490 479 504.5 487.5Q519 496 531 506.5Q543 517 551 526L575 498Q566 488 552.5 476Q539 464 521 453.5Q503 443 480.5 436Q458 429 432 429Q391 429 361 440.5Q331 452 304 465.5Q277 479 249.5 490.5Q222 502 186 502Q169 502 153 496Q137 490 122.5 481.5Q108 473 96 462.5Q84 452 76 443L52 471Q61 481 74.5 493Q88 505 106 515.5Q124 526 146.5 533Q169 540 195 540ZM168 340Q208 340 238.5 328.5Q269 317 296.5 303.5Q324 290 351.5 278.5Q379 267 415 267Q432 267 448 273Q464 279 478 287.5Q492 296 504 306.5Q516 317 524 326L549 298Q540 288 526 276Q512 264 494 253.5Q476 243 454 236Q432 229 406 229Q365 229 335 240.5Q305 252 277.5 265.5Q250 279 222.5 290.5Q195 302 159 302Q142 302 126 296Q110 290 95.5 281.5Q81 273 69.5 262.5Q58 252 49 243L25 271Q34 281 48 293Q62 305 80 315.5Q98 326 120 333Q142 340 168 340Z" glyph-name="approxequal" horiz-adv-x="600" unicode="&#8776;" /><glyph d="M230 690Q230 670 244 656Q258 642 281 642Q306 642 326 659Q346 676 346 710Q346 730 332 744Q318 758 295 758Q270 758 250 741Q230 724 230 690ZM379 710Q379 668 351.5 639Q324 610 281 610Q243 610 220 633Q197 656 197 690Q197 732 224.5 761Q252 790 295 790Q333 790 356 767Q379 744 379 710ZM160 28Q204 28 237.5 39Q271 50 295 65.5Q319 81 334 98.5Q349 116 358 129L379 289L203 261Q141 251 105 226.5Q69 202 62 150L60 134Q57 114 62 95Q67 76 80 61Q93 46 113 37Q133 28 160 28ZM357 80Q342 63 322.5 46.5Q303 30 278.5 17.5Q254 5 224.5 -2.5Q195 -10 160 -10Q127 -10 99 0Q71 10 51.5 28.5Q32 47 23 73Q14 99 18 131L20 147Q25 190 43.5 217Q62 244 88 260.5Q114 277 145 285Q176 293 208 298L384 326L387 350Q397 429 371 465.5Q345 502 263 502Q220 502 191.5 490Q163 478 145.5 457.5Q128 437 119.5 410.5Q111 384 107 355H67L69 369Q73 397 84 427.5Q95 458 117 483Q139 508 174.5 524Q210 540 263 540Q318 540 352.5 526Q387 512 405.5 486.5Q424 461 428 425Q432 389 426 345L400 150L386 0H356Z" glyph-name="aring" horiz-adv-x="500" unicode="&#229;" /><glyph d="M70 436 440 66V780H480V66L850 436V380L460 -10L70 380Z" glyph-name="arrowdown" horiz-adv-x="920" unicode="&#8595;" /><glyph d="M506 780 136 410H850V370H136L506 0H450L60 390L450 780Z" glyph-name="arrowleft" horiz-adv-x="920" unicode="&#8592;" /><glyph d="M470 780 860 390 470 0H414L784 370H70V410H784L414 780Z" glyph-name="arrowright" horiz-adv-x="920" unicode="&#8594;" /><glyph d="M70 400 460 790 850 400V344L480 714V0H440V714L70 344Z" glyph-name="arrowup" horiz-adv-x="920" unicode="&#8593;" /><glyph d="M553 280H513L350 739L65 280H21L333 780H373Z" glyph-name="asciicircum" horiz-adv-x="600" unicode="^" /><glyph d="M180 440Q220 440 250.5 428.5Q281 417 308 403.5Q335 390 362.5 378.5Q390 367 426 367Q443 367 459 373Q475 379 489 387.5Q503 396 515 406.5Q527 417 536 426L563 398Q554 388 540.5 376Q527 364 509.5 353.5Q492 343 470 336Q448 329 422 329Q381 329 351 340.5Q321 352 294 365.5Q267 379 239.5 390.5Q212 402 176 402Q159 402 143 396Q127 390 113 381.5Q99 373 87 362.5Q75 352 67 343L39 371Q48 381 61.5 393Q75 405 92.5 415.5Q110 426 132 433Q154 440 180 440Z" glyph-name="asciitilde" horiz-adv-x="600" unicode="~" /><glyph d="M292 464 224 588 250 605 327 487ZM405 657 255 616 249 644 397 695ZM83 487 190 605 212 588 112 464ZM67 695 201 644 189 616 49 657ZM266 800 241 650H211L226 800Z" glyph-name="asterisk" horiz-adv-x="380" unicode="*" /><glyph d="M614 410Q607 425 595 441Q583 457 566.5 470.5Q550 484 527.5 493Q505 502 477 502Q435 502 402.5 487Q370 472 346.5 445.5Q323 419 308.5 383Q294 347 288 305L285 285Q279 243 283.5 207Q288 171 304.5 144.5Q321 118 350.5 103Q380 88 422 88Q450 88 474.5 96.5Q499 105 519.5 118.5Q540 132 556.5 148.5Q573 165 584 180ZM431 -172Q522 -172 608 -148Q694 -124 772 -68L791 -100Q747 -133 701.5 -154.5Q656 -176 610 -188Q564 -200 518 -205Q472 -210 428 -210Q320 -210 238 -177Q156 -144 103 -82.5Q50 -21 28.5 68Q7 157 21 270L26 310Q40 422 83.5 511.5Q127 601 194 662.5Q261 724 349 757Q437 790 540 790Q626 790 700.5 764.5Q775 739 827.5 688.5Q880 638 904.5 562Q929 486 916 385L912 355Q900 265 873 207.5Q846 150 806.5 117.5Q767 85 716.5 72.5Q666 60 608 60H583V136Q558 102 517 76Q476 50 414 50Q360 50 324 70Q288 90 267.5 123Q247 156 241.5 198.5Q236 241 243 285L246 305Q253 349 269 391.5Q285 434 313 467Q341 500 381 520Q421 540 475 540Q537 540 573 514Q609 488 625 453L645 530H675L651 380L613 97Q661 98 703 107Q745 116 778.5 143Q812 170 835.5 220.5Q859 271 870 355L874 385Q887 481 865 550Q843 619 796.5 664Q750 709 685 730.5Q620 752 546 752H540Q447 752 366.5 721.5Q286 691 223.5 634Q161 577 120 495Q79 413 66 310L61 270Q47 163 67.5 80.5Q88 -2 136.5 -58Q185 -114 258.5 -143Q332 -172 425 -172Z" glyph-name="at" horiz-adv-x="950" unicode="@" /><glyph d="M627 510Q620 525 608 541Q596 557 579.5 570.5Q563 584 540.5 593Q518 602 490 602Q448 602 415.5 587Q383 572 359.5 545.5Q336 519 321.5 483Q307 447 301 405L298 385Q292 343 296.5 307Q301 271 317.5 244.5Q334 218 363.5 203Q393 188 435 188Q463 188 487.5 196.5Q512 205 532.5 218.5Q553 232 569.5 248.5Q586 265 597 280ZM444 -72Q535 -72 621 -48Q707 -24 785 32L804 0Q760 -33 714.5 -54.5Q669 -76 623 -88Q577 -100 531 -105Q485 -110 441 -110Q333 -110 251 -77Q169 -44 116 17.5Q63 79 41.5 168Q20 257 34 370L39 410Q53 522 96.5 611.5Q140 701 207 762.5Q274 824 362 857Q450 890 553 890Q639 890 713.5 864.5Q788 839 840.5 788.5Q893 738 917.5 662Q942 586 929 485L925 455Q913 365 886 307.5Q859 250 819.5 217.5Q780 185 729.5 172.5Q679 160 621 160H596V236Q571 202 530 176Q489 150 427 150Q373 150 337 170Q301 190 280.5 223Q260 256 254.5 298.5Q249 341 256 385L259 405Q266 449 282 491.5Q298 534 326 567Q354 600 394 620Q434 640 488 640Q550 640 586 614Q622 588 638 553L658 630H688L664 480L626 197Q674 198 716 207Q758 216 791.5 243Q825 270 848.5 320.5Q872 371 883 455L887 485Q900 581 878 650Q856 719 809.5 764Q763 809 698 830.5Q633 852 559 852H553Q460 852 379.5 821.5Q299 791 236.5 734Q174 677 133 595Q92 513 79 410L74 370Q60 263 80.5 180.5Q101 98 149.5 42Q198 -14 271.5 -43Q345 -72 438 -72Z" glyph-name="at.cap" horiz-adv-x="950" unicode="&#58643;" /><glyph d="M160 28Q204 28 237.5 39Q271 50 295 65.5Q319 81 334 98.5Q349 116 358 129L379 289L203 261Q141 251 105 226.5Q69 202 62 150L60 134Q57 114 62 95Q67 76 80 61Q93 46 113 37Q133 28 160 28ZM357 80Q342 63 322.5 46.5Q303 30 278.5 17.5Q254 5 224.5 -2.5Q195 -10 160 -10Q127 -10 99 0Q71 10 51.5 28.5Q32 47 23 73Q14 99 18 131L20 147Q25 190 43.5 217Q62 244 88 260.5Q114 277 145 285Q176 293 208 298L384 326L387 350Q397 429 371 465.5Q345 502 263 502Q220 502 191.5 490Q163 478 145.5 457.5Q128 437 119.5 410.5Q111 384 107 355H67L69 369Q73 397 84 427.5Q95 458 117 483Q139 508 174.5 524Q210 540 263 540Q318 540 352.5 526Q387 512 405.5 486.5Q424 461 428 425Q432 389 426 345L400 150L386 0H356ZM438 737Q432 694 410 673.5Q388 653 356 653Q334 653 317 662.5Q300 672 285 683Q270 694 256 703.5Q242 713 226 713Q210 713 198.5 702Q187 691 183 663H148Q153 706 175 726.5Q197 747 229 747Q251 747 268 737.5Q285 728 300 717Q315 706 329 696.5Q343 687 359 687Q375 687 387 698Q399 709 403 737Z" glyph-name="atilde" horiz-adv-x="500" unicode="&#227;" /><glyph d="M77 126Q84 109 96 92Q108 75 125.5 60.5Q143 46 166 37Q189 28 218 28Q303 28 351.5 88Q400 148 413 252L415 268Q422 322 416.5 365Q411 408 393.5 438.5Q376 469 346 485.5Q316 502 274 502Q217 502 179 476.5Q141 451 115 416ZM123 470Q146 499 185 519.5Q224 540 274 540Q331 540 369 519Q407 498 429 461.5Q451 425 457.5 376Q464 327 457 271L455 255Q448 197 430.5 148.5Q413 100 384 64.5Q355 29 313.5 9.5Q272 -10 218 -10Q187 -10 161.5 -1Q136 8 116.5 21.5Q97 35 84 51Q71 67 65 81L46 0H16L40 150L126 800H166Z" glyph-name="b" horiz-adv-x="525" unicode="b" /><glyph d="M76 840H116L220 -120H180Z" glyph-name="backslash" horiz-adv-x="300" unicode="\" /><glyph d="M127 780 217 0H177L87 780Z" glyph-name="backslash.cap" horiz-adv-x="300" unicode="&#58466;" /><glyph d="M110 490V40H560V490ZM600 530V0H70V530ZM173 132 306 265 173 398 202 427 335 294 468 427 497 398 364 265 497 132 468 103 335 236 202 103Z" glyph-name="ballotboxwithx" horiz-adv-x="680" unicode="&#9746;" /><glyph d="M131 840H171L45 -120H5Z" glyph-name="bar" horiz-adv-x="180" unicode="|" /><glyph d="M123 780H163L61 0H21Z" glyph-name="bar.cap" horiz-adv-x="180" unicode="&#58467;" /><glyph d="M77 126Q84 109 96 92Q108 75 125.5 60.5Q143 46 166 37Q189 28 218 28Q303 28 351.5 88Q400 148 413 252L415 268Q422 322 416.5 365Q411 408 393.5 438.5Q376 469 346 485.5Q316 502 274 502Q217 502 179 476.5Q141 451 115 416ZM123 470Q146 499 185 519.5Q224 540 274 540Q331 540 369 519Q407 498 429 461.5Q451 425 457.5 376Q464 327 457 271L455 255Q448 197 430.5 148.5Q413 100 384 64.5Q355 29 313.5 9.5Q272 -10 218 -10Q187 -10 161.5 -1Q136 8 116.5 21.5Q97 35 84 51Q71 67 65 81L46 0H16L40 150L126 800H166ZM184 865H124L132 925H192Z" glyph-name="bdotaccent" horiz-adv-x="525" unicode="&#7683;" /><glyph d="M60 390Q60 473 91.5 546Q123 619 177 673Q231 727 304 758.5Q377 790 460 790Q543 790 616 758.5Q689 727 743 673Q797 619 828.5 546Q860 473 860 390Q860 307 828.5 234Q797 161 743 107Q689 53 616 21.5Q543 -10 460 -10Q377 -10 304 21.5Q231 53 177 107Q123 161 91.5 234Q60 307 60 390Z" glyph-name="blackcircle" horiz-adv-x="920" unicode="&#9679;" /><glyph d="M70 0V530H600V0Z" glyph-name="blacksmallsquare" horiz-adv-x="680" unicode="&#9642;" /><glyph d="M70 0V780H850V0Z" glyph-name="blacksquare" horiz-adv-x="920" unicode="&#9632;" /><glyph d="M311 800Q285 800 265.5 795.5Q246 791 232 779Q218 767 209 745.5Q200 724 196 690L166 458Q161 416 142.5 393.5Q124 371 100 360Q121 349 133 326Q145 303 140 262L109 30Q104 -6 106.5 -27.5Q109 -49 119.5 -61Q130 -73 148.5 -76.5Q167 -80 195 -80L190 -120H175Q154 -120 132.5 -114.5Q111 -109 94.5 -95Q78 -81 69.5 -57Q61 -33 66 5L98 250Q102 279 99 296.5Q96 314 86 324Q76 334 59 337Q42 340 20 340L26 380Q48 380 65.5 383Q83 386 95.5 396Q108 406 115.5 423.5Q123 441 127 470L160 715Q165 753 180 777.5Q195 802 215 816Q235 830 257.5 835Q280 840 301 840H316Z" glyph-name="braceleft" horiz-adv-x="300" unicode="{" /><glyph d="M303 740Q277 740 257.5 735.5Q238 731 224 719Q210 707 201 685.5Q192 664 188 630L170 488Q165 446 146.5 423.5Q128 401 104 390Q125 379 137 356Q149 333 144 292L125 150Q120 114 122.5 92.5Q125 71 135.5 59Q146 47 164.5 43.5Q183 40 211 40L206 0H191Q170 0 148.5 5.5Q127 11 110.5 25Q94 39 85.5 63Q77 87 82 125L102 280Q106 309 103 326.5Q100 344 90 354Q80 364 63 367Q46 370 24 370L30 410Q52 410 69.5 413Q87 416 99.5 426Q112 436 119.5 453.5Q127 471 131 500L152 655Q157 693 172 717.5Q187 742 207 756Q227 770 249.5 775Q272 780 293 780H308Z" glyph-name="braceleft.cap" horiz-adv-x="300" unicode="&#58517;" /><glyph d="M-15 -80Q11 -80 30.5 -76Q50 -72 64 -60Q78 -48 86.5 -26.5Q95 -5 100 30L130 262Q135 304 153.5 326.5Q172 349 196 360Q175 371 163 394Q151 417 156 458L187 690Q192 726 189.5 747.5Q187 769 176.5 781Q166 793 147.5 796.5Q129 800 101 800L106 840H121Q142 840 163.5 834.5Q185 829 201.5 815Q218 801 226.5 776.5Q235 752 230 715L198 470Q194 441 197 423.5Q200 406 210 396Q220 386 236.5 383Q253 380 276 380L270 340Q247 340 230 337Q213 334 200.5 324Q188 314 180.5 296.5Q173 279 169 250L136 5Q131 -33 116 -57.5Q101 -82 81 -96Q61 -110 38.5 -115Q16 -120 -5 -120H-20Z" glyph-name="braceright" horiz-adv-x="300" unicode="}" /><glyph d="M1 40Q27 40 46.5 44Q66 48 80 60Q94 72 102.5 93.5Q111 115 116 150L134 292Q139 334 157.5 356.5Q176 379 200 390Q179 401 167 424Q155 447 160 488L179 630Q184 666 181.5 687.5Q179 709 168.5 721Q158 733 139.5 736.5Q121 740 93 740L98 780H113Q134 780 155.5 774.5Q177 769 193.5 755Q210 741 218.5 716.5Q227 692 222 655L202 500Q198 471 201 453.5Q204 436 214 426Q224 416 240.5 413Q257 410 280 410L274 370Q251 370 234 367Q217 364 204.5 354Q192 344 184.5 326.5Q177 309 173 280L152 125Q147 87 132 62.5Q117 38 97 24Q77 10 54.5 5Q32 0 11 0H-4Z" glyph-name="braceright.cap" horiz-adv-x="300" unicode="&#58518;" /><glyph d="M316 840 311 800H166L50 -80H195L190 -120H5L131 840Z" glyph-name="bracketleft" horiz-adv-x="300" unicode="[" /><glyph d="M308 780 303 740H158L66 40H211L206 0H21L123 780Z" glyph-name="bracketleft.cap" horiz-adv-x="300" unicode="&#58515;" /><glyph d="M-20 -120 -15 -80H130L246 800H101L106 840H291L165 -120Z" glyph-name="bracketright" horiz-adv-x="300" unicode="]" /><glyph d="M-4 0 1 40H146L238 740H93L98 780H283L181 0Z" glyph-name="bracketright.cap" horiz-adv-x="300" unicode="&#58516;" /><glyph d="M283 610Q204 610 172.5 657.5Q141 705 151 780H187Q183 751 186 726Q189 701 200.5 682.5Q212 664 232.5 653.5Q253 643 285 643Q317 643 340.5 653.5Q364 664 380 682.5Q396 701 405.5 726Q415 751 419 780H455Q445 705 403.5 657.5Q362 610 283 610Z" glyph-name="breve" horiz-adv-x="500" unicode="&#728;" /><glyph d="M312 830Q249 830 217.5 863.5Q186 897 194 950H230Q225 912 245 887.5Q265 863 314 863Q363 863 390 887.5Q417 912 422 950H458Q450 897 412.5 863.5Q375 830 312 830Z" glyph-name="breve.cap" horiz-adv-x="500" unicode="&#58406;" /><glyph d="M63 320H103L45 -120H5ZM131 840H171L113 400H73Z" glyph-name="brokenbar" horiz-adv-x="180" unicode="&#166;" /><glyph d="M67 350H107L61 0H21ZM123 780H163L117 430H77Z" glyph-name="brokenbar.cap" horiz-adv-x="180" unicode="&#58469;" /><glyph d="M291 230H51L82 470H322Z" glyph-name="bullet" horiz-adv-x="380" unicode="&#8226;" /><glyph d="M296 270H56L88 510H328Z" glyph-name="bullet.cap" horiz-adv-x="380" unicode="&#58470;" /><glyph d="M81 262Q74 209 80.5 166Q87 123 106 92Q125 61 157 44.5Q189 28 234 28Q276 28 306 41Q336 54 355.5 75Q375 96 385 123.5Q395 151 399 180H439L437 166Q433 138 421 107Q409 76 385.5 50Q362 24 325 7Q288 -10 234 -10Q176 -10 135.5 11Q95 32 71 68.5Q47 105 39.5 154Q32 203 39 259L41 275Q48 333 65.5 381.5Q83 430 112 465.5Q141 501 182.5 520.5Q224 540 278 540Q338 540 376 521Q414 502 434 474.5Q454 447 460 414.5Q466 382 462 355L460 340H421Q425 374 419 403.5Q413 433 396 455Q379 477 349.5 489.5Q320 502 278 502Q193 502 144.5 442Q96 382 83 278Z" glyph-name="c" horiz-adv-x="520" unicode="c" /><glyph d="M81 262Q74 209 80.5 166Q87 123 106 92Q125 61 157 44.5Q189 28 234 28Q276 28 306 41Q336 54 355.5 75Q375 96 385 123.5Q395 151 399 180H439L437 166Q433 138 421 107Q409 76 385.5 50Q362 24 325 7Q288 -10 234 -10Q176 -10 135.5 11Q95 32 71 68.5Q47 105 39.5 154Q32 203 39 259L41 275Q48 333 65.5 381.5Q83 430 112 465.5Q141 501 182.5 520.5Q224 540 278 540Q338 540 376 521Q414 502 434 474.5Q454 447 460 414.5Q466 382 462 355L460 340H421Q425 374 419 403.5Q413 433 396 455Q379 477 349.5 489.5Q320 502 278 502Q193 502 144.5 442Q96 382 83 278ZM434 780 323 620H281L392 780Z" glyph-name="cacute" horiz-adv-x="520" unicode="&#263;" /><glyph d="M201 780 285 656 401 780H448L297 620H267L158 780Z" glyph-name="caron" horiz-adv-x="500" unicode="&#711;" /><glyph d="M254 950 313 873 394 950H441L326 840H296L211 950Z" glyph-name="caron.cap" horiz-adv-x="500" unicode="&#58413;" /><glyph d="M431 800 392 620H362L386 800Z" glyph-name="caronSlovak" horiz-adv-x="500" unicode="&#58387;" /><glyph d="M81 262Q74 209 80.5 166Q87 123 106 92Q125 61 157 44.5Q189 28 234 28Q276 28 306 41Q336 54 355.5 75Q375 96 385 123.5Q395 151 399 180H439L437 166Q433 138 421 107Q409 76 385.5 50Q362 24 325 7Q288 -10 234 -10Q176 -10 135.5 11Q95 32 71 68.5Q47 105 39.5 154Q32 203 39 259L41 275Q48 333 65.5 381.5Q83 430 112 465.5Q141 501 182.5 520.5Q224 540 278 540Q338 540 376 521Q414 502 434 474.5Q454 447 460 414.5Q466 382 462 355L460 340H421Q425 374 419 403.5Q413 433 396 455Q379 477 349.5 489.5Q320 502 278 502Q193 502 144.5 442Q96 382 83 278ZM221 780 305 656 421 780H468L317 620H287L178 780Z" glyph-name="ccaron" horiz-adv-x="520" unicode="&#269;" /><glyph d="M134 -155Q145 -163 164 -170Q183 -177 206 -177Q238 -177 255.5 -167Q273 -157 273 -134Q273 -111 255 -104Q237 -97 214 -97Q208 -97 203 -97.5Q198 -98 194 -98Q190 -99 186 -99L172 -83L209 -9Q158 -5 122.5 18Q87 41 66 77Q45 113 38.5 159.5Q32 206 39 259L41 275Q48 333 65.5 381.5Q83 430 112 465.5Q141 501 182.5 520.5Q224 540 278 540Q338 540 376 521Q414 502 434 474.5Q454 447 460 414.5Q466 382 462 355L460 340H421Q425 374 419 403.5Q413 433 396 455Q379 477 349.5 489.5Q320 502 278 502Q193 502 144.5 442Q96 382 83 278L81 262Q74 209 80.5 166Q87 123 106 92Q125 61 157 44.5Q189 28 234 28Q276 28 306 41Q336 54 355.5 75Q375 96 385 123.5Q395 151 399 180H439L437 166Q433 139 421.5 108.5Q410 78 388 52.5Q366 27 331 9.5Q296 -8 245 -10L217 -64H222Q237 -64 252 -67Q267 -70 279 -77.5Q291 -85 299 -98Q307 -111 307 -130Q307 -174 277 -192Q247 -210 206 -210Q181 -210 157 -202Q133 -194 119 -183Z" glyph-name="ccedilla" horiz-adv-x="520" unicode="&#231;" /><glyph d="M81 262Q74 209 80.5 166Q87 123 106 92Q125 61 157 44.5Q189 28 234 28Q276 28 306 41Q336 54 355.5 75Q375 96 385 123.5Q395 151 399 180H439L437 166Q433 138 421 107Q409 76 385.5 50Q362 24 325 7Q288 -10 234 -10Q176 -10 135.5 11Q95 32 71 68.5Q47 105 39.5 154Q32 203 39 259L41 275Q48 333 65.5 381.5Q83 430 112 465.5Q141 501 182.5 520.5Q224 540 278 540Q338 540 376 521Q414 502 434 474.5Q454 447 460 414.5Q466 382 462 355L460 340H421Q425 374 419 403.5Q413 433 396 455Q379 477 349.5 489.5Q320 502 278 502Q193 502 144.5 442Q96 382 83 278ZM157 620 308 780H338L447 620H404L320 744L204 620Z" glyph-name="ccircumflex" horiz-adv-x="520" unicode="&#265;" /><glyph d="M81 262Q74 209 80.5 166Q87 123 106 92Q125 61 157 44.5Q189 28 234 28Q276 28 306 41Q336 54 355.5 75Q375 96 385 123.5Q395 151 399 180H439L437 166Q433 138 421 107Q409 76 385.5 50Q362 24 325 7Q288 -10 234 -10Q176 -10 135.5 11Q95 32 71 68.5Q47 105 39.5 154Q32 203 39 259L41 275Q48 333 65.5 381.5Q83 430 112 465.5Q141 501 182.5 520.5Q224 540 278 540Q338 540 376 521Q414 502 434 474.5Q454 447 460 414.5Q466 382 462 355L460 340H421Q425 374 419 403.5Q413 433 396 455Q379 477 349.5 489.5Q320 502 278 502Q193 502 144.5 442Q96 382 83 278ZM339 675H279L287 735H347Z" glyph-name="cdotaccent" horiz-adv-x="520" unicode="&#267;" /><glyph d="M105 -155Q116 -163 135 -170Q154 -177 177 -177Q209 -177 226.5 -167Q244 -157 244 -134Q244 -111 226 -104Q208 -97 185 -97Q179 -97 174 -97.5Q169 -98 165 -98Q161 -99 157 -99L143 -83L185 0H221L188 -64H193Q208 -64 223 -67Q238 -70 250 -77.5Q262 -85 270 -98Q278 -111 278 -130Q278 -174 248 -192Q218 -210 177 -210Q152 -210 128 -202Q104 -194 90 -183Z" glyph-name="cedilla" horiz-adv-x="602" unicode="&#184;" /><glyph d="M113 384Q101 285 117 218Q133 151 178 122L387 684Q380 685 372 685.5Q364 686 356 686H350Q253 686 193 614.5Q133 543 115 400ZM438 715Q507 693 532 634Q557 575 546 496L544 481H503Q514 562 495.5 611Q477 660 424 677L211 105Q226 100 244 98Q262 96 280 96H284Q330 96 364 109Q398 122 421 146Q444 170 457.5 203.5Q471 237 476 278H517L515 264Q509 220 491.5 182.5Q474 145 445.5 116.5Q417 88 376 72Q335 56 282 56Q261 56 237.5 58.5Q214 61 197 66L151 -60H111L162 80Q102 113 79.5 190Q57 267 71 381L73 397Q83 475 106.5 536Q130 597 165.5 639.5Q201 682 248.5 704Q296 726 353 726Q370 726 381 725.5Q392 725 401 723L444 840H484Z" glyph-name="cent" horiz-adv-x="600" unicode="&#162;" /><glyph d="M137 620 288 780H318L427 620H384L300 744L184 620Z" glyph-name="circumflex" horiz-adv-x="500" unicode="&#710;" /><glyph d="M196 840 311 950H341L426 840H383L323 917L243 840Z" glyph-name="circumflex.cap" horiz-adv-x="500" unicode="&#58403;" /><glyph d="M349 0Q368 37 381.5 73Q395 109 404.5 147Q414 185 420.5 227Q427 269 431 320L428 321Q415 290 396 261Q377 232 352 209.5Q327 187 296 173.5Q265 160 228 160Q191 160 159 173.5Q127 187 103 210.5Q79 234 65.5 265.5Q52 297 52 334Q52 373 64.5 406Q77 439 100 463Q123 487 155 500.5Q187 514 226 514Q252 514 272.5 507Q293 500 310 491L312 493Q295 518 284.5 547.5Q274 577 274 610Q274 647 287.5 680Q301 713 324.5 737.5Q348 762 380 776Q412 790 450 790Q488 790 520 776Q552 762 575.5 737.5Q599 713 612.5 680Q626 647 626 610Q626 577 615.5 547.5Q605 518 588 493L590 491Q607 500 627.5 507Q648 514 674 514Q713 514 745 500.5Q777 487 800 463Q823 439 835.5 406Q848 373 848 334Q848 297 834.5 265.5Q821 234 797 210.5Q773 187 741 173.5Q709 160 672 160Q635 160 604 173.5Q573 187 548 209.5Q523 232 504 261Q485 290 472 321L469 320Q473 269 479.5 227Q486 185 495.5 147Q505 109 518.5 73Q532 37 551 0Z" glyph-name="club" horiz-adv-x="900" unicode="&#9827;" /><glyph d="M128 360H68L76 420H136ZM81 0H21L28 60H88Z" glyph-name="colon" horiz-adv-x="200" unicode=":" /><glyph d="M178 360H118L126 420H186ZM131 0H71L78 60H138Z" glyph-name="colon.T" horiz-adv-x="300" unicode="&#61828;" /><glyph d="M82 12Q66 -110 -24 -110L-20 -80Q9 -80 26 -63.5Q43 -47 51 0H21L28 60H88Z" glyph-name="comma" horiz-adv-x="200" unicode="," /><glyph d="M132 12Q116 -110 26 -110L30 -80Q59 -80 76 -63.5Q93 -47 101 0H71L78 60H138Z" glyph-name="comma.T" horiz-adv-x="300" unicode="&#61827;" /><glyph d="M216 -108Q210 -155 182.5 -182.5Q155 -210 113 -210L117 -180Q141 -180 159.5 -166Q178 -152 185 -120H155L163 -60H223Z" glyph-name="commaaccent" horiz-adv-x="602" unicode="&#58388;" /><glyph d="M287 888Q291 916 310.5 938Q330 960 372 960L368 930Q345 930 334.5 923.5Q324 917 319 900H349L341 840H281Z" glyph-name="commaaccent.cap" horiz-adv-x="500" unicode="&#58414;" /><glyph d="M100 390Q100 315 128.5 249.5Q157 184 205.5 135.5Q254 87 319.5 58.5Q385 30 460 30Q535 30 600.5 58.5Q666 87 714.5 135.5Q763 184 791.5 249.5Q820 315 820 390Q820 465 791.5 530.5Q763 596 714.5 644.5Q666 693 600.5 721.5Q535 750 460 750Q385 750 319.5 721.5Q254 693 205.5 644.5Q157 596 128.5 530.5Q100 465 100 390ZM60 390Q60 473 91.5 546Q123 619 177 673Q231 727 304 758.5Q377 790 460 790Q543 790 616 758.5Q689 727 743 673Q797 619 828.5 546Q860 473 860 390Q860 307 828.5 234Q797 161 743 107Q689 53 616 21.5Q543 -10 460 -10Q377 -10 304 21.5Q231 53 177 107Q123 161 91.5 234Q60 307 60 390ZM460 185Q503 185 531.5 197Q560 209 576 227Q592 245 598.5 266Q605 287 605 305H645V295Q645 276 636.5 250.5Q628 225 606.5 201.5Q585 178 549.5 161.5Q514 145 460 145Q403 145 364 167Q325 189 301 223.5Q277 258 266 299.5Q255 341 255 380V400Q255 439 266 480.5Q277 522 301 556.5Q325 591 364 613Q403 635 460 635Q514 635 549.5 618Q585 601 606.5 576.5Q628 552 636.5 525.5Q645 499 645 480V465H605Q605 487 598 510.5Q591 534 574.5 552.5Q558 571 530 583Q502 595 460 595Q415 595 384 577.5Q353 560 333.5 532.5Q314 505 305.5 470Q297 435 297 400V380Q297 345 305.5 310Q314 275 333.5 247.5Q353 220 384 202.5Q415 185 460 185Z" glyph-name="copyright" horiz-adv-x="920" unicode="&#169;" /><glyph d="M278 502Q193 502 144.5 442Q96 382 83 278L81 262Q74 208 79.5 165Q85 122 102.5 91.5Q120 61 150 44.5Q180 28 222 28Q250 28 274 36Q298 44 318 56Q338 68 354 83.5Q370 99 381 114L419 404Q412 420 400 437.5Q388 455 370.5 469.5Q353 484 330 493Q307 502 278 502ZM222 -10Q165 -10 127 11Q89 32 67 68.5Q45 105 38.5 154Q32 203 39 259L41 275Q48 333 65.5 381.5Q83 430 112 465.5Q141 501 182.5 520.5Q224 540 278 540Q309 540 333.5 531.5Q358 523 376.5 511Q395 499 407.5 485Q420 471 426 459L471 800H511L425 150L411 0H381L380 69Q356 34 314 12Q272 -10 222 -10Z" glyph-name="d" horiz-adv-x="525" unicode="d" /><glyph d="M55 640 194 635 190 605 49 600ZM389 600 250 605 254 635 395 640ZM266 800 241 650H211L226 800ZM203 590H233L222 465L200 340H170L182 465Z" glyph-name="dagger" horiz-adv-x="380" unicode="&#8224;" /><glyph d="M389 600 250 605 254 635 395 640ZM27 430 166 425 163 395 22 390ZM55 640 194 635 190 605 49 600ZM362 390 223 395 226 425 367 430ZM213 440H183L188 515L203 590H233L228 515ZM266 800 241 650H211L226 800ZM176 380H206L194 255L173 130H143L154 255Z" glyph-name="daggerdbl" horiz-adv-x="380" unicode="&#8225;" /><glyph d="M278 502Q193 502 144.5 442Q96 382 83 278L81 262Q74 208 79.5 165Q85 122 102.5 91.5Q120 61 150 44.5Q180 28 222 28Q250 28 274 36Q298 44 318 56Q338 68 354 83.5Q370 99 381 114L419 404Q412 420 400 437.5Q388 455 370.5 469.5Q353 484 330 493Q307 502 278 502ZM222 -10Q165 -10 127 11Q89 32 67 68.5Q45 105 38.5 154Q32 203 39 259L41 275Q48 333 65.5 381.5Q83 430 112 465.5Q141 501 182.5 520.5Q224 540 278 540Q309 540 333.5 531.5Q358 523 376.5 511Q395 499 407.5 485Q420 471 426 459L471 800H511L425 150L411 0H381L380 69Q356 34 314 12Q272 -10 222 -10ZM636 800 597 620H567L591 800Z" glyph-name="dcaron" horiz-adv-x="525" unicode="&#271;" /><glyph d="M278 502Q193 502 144.5 442Q96 382 83 278L81 262Q74 208 79.5 165Q85 122 102.5 91.5Q120 61 150 44.5Q180 28 222 28Q250 28 274 36Q298 44 318 56Q338 68 354 83.5Q370 99 381 114L419 404Q412 420 400 437.5Q388 455 370.5 469.5Q353 484 330 493Q307 502 278 502ZM222 -10Q165 -10 127 11Q89 32 67 68.5Q45 105 38.5 154Q32 203 39 259L41 275Q48 333 65.5 381.5Q83 430 112 465.5Q141 501 182.5 520.5Q224 540 278 540Q309 540 333.5 531.5Q358 523 376.5 511Q395 499 407.5 485Q420 471 426 459L450 646H311L316 684H455L471 800H511L495 684H596L591 646H490L425 150L411 0H381L380 69Q356 34 314 12Q272 -10 222 -10Z" glyph-name="dcroat" horiz-adv-x="525" unicode="&#273;" /><glyph d="M278 502Q193 502 144.5 442Q96 382 83 278L81 262Q74 208 79.5 165Q85 122 102.5 91.5Q120 61 150 44.5Q180 28 222 28Q250 28 274 36Q298 44 318 56Q338 68 354 83.5Q370 99 381 114L419 404Q412 420 400 437.5Q388 455 370.5 469.5Q353 484 330 493Q307 502 278 502ZM222 -10Q165 -10 127 11Q89 32 67 68.5Q45 105 38.5 154Q32 203 39 259L41 275Q48 333 65.5 381.5Q83 430 112 465.5Q141 501 182.5 520.5Q224 540 278 540Q309 540 333.5 531.5Q358 523 376.5 511Q395 499 407.5 485Q420 471 426 459L471 800H511L425 150L411 0H381L380 69Q356 34 314 12Q272 -10 222 -10ZM529 865H469L477 925H537Z" glyph-name="ddotaccent" horiz-adv-x="525" unicode="&#7691;" /><glyph d="M248 790Q317 790 355.5 752.5Q394 715 385 644L384 636Q375 564 331 527Q287 490 221 490Q152 490 113.5 527.5Q75 565 84 636L85 644Q94 716 138 753Q182 790 248 790ZM224 528Q272 528 305.5 554Q339 580 346 636L347 644Q353 692 328 722Q303 752 251 752H245Q197 752 163.5 726Q130 700 123 644L122 636Q116 588 141 558Q166 528 218 528Z" glyph-name="degree" horiz-adv-x="400" unicode="&#176;" /><glyph d="M817 390Q764 348 712.5 300.5Q661 253 614 201.5Q567 150 525.5 96.5Q484 43 451 -10H449Q416 43 374.5 96.5Q333 150 286 201.5Q239 253 187.5 300.5Q136 348 83 390Q136 432 187.5 479.5Q239 527 286 578.5Q333 630 374.5 683.5Q416 737 449 790H451Q484 737 525.5 683.5Q567 630 614 578.5Q661 527 712.5 479.5Q764 432 817 390Z" glyph-name="diamond" horiz-adv-x="900" unicode="&#9830;" /><glyph d="M394 675H334L342 735H402ZM244 675H184L192 735H252Z" glyph-name="dieresis" horiz-adv-x="500" unicode="&#168;" /><glyph d="M419 865H359L367 925H427ZM269 865H209L217 925H277Z" glyph-name="dieresis.cap" horiz-adv-x="500" unicode="&#58409;" /><glyph d="M356 580H296L304 640H364ZM298 140H238L246 200H306ZM53 410H553L548 370H48Z" glyph-name="divide" horiz-adv-x="600" unicode="&#247;" /><glyph d="M143 551Q136 494 170 462.5Q204 431 288 420L386 684Q375 686 363 687Q351 688 337 688H327Q253 688 202.5 657Q152 626 144 559ZM209 98Q239 92 277 92H283Q364 92 412.5 127.5Q461 163 469 230L470 238Q478 303 438 335.5Q398 368 313 379ZM436 710Q464 700 485.5 683Q507 666 521.5 641.5Q536 617 541 585Q546 553 541 513L539 498H499Q503 525 502 552Q501 579 493 602Q485 625 467.5 644Q450 663 422 674L326 415Q434 401 477.5 356Q521 311 512 238L511 230Q500 147 441 100.5Q382 54 280 54Q257 54 236 55.5Q215 57 196 62L151 -60H111L160 72Q100 94 72.5 140Q45 186 54 256L56 271H96Q87 202 107.5 163.5Q128 125 173 108L275 384Q174 398 133.5 440.5Q93 483 101 551L102 559Q107 601 126.5 632Q146 663 176 684Q206 705 246 715.5Q286 726 332 726Q367 726 399 720L444 840H484Z" glyph-name="dollar" horiz-adv-x="600" unicode="$" /><glyph d="M319 675H259L267 735H327Z" glyph-name="dotaccent" horiz-adv-x="500" unicode="&#729;" /><glyph d="M344 865H284L292 925H352Z" glyph-name="dotaccent.cap" horiz-adv-x="500" unicode="&#58408;" /><glyph d="M209 -160H149L157 -100H217Z" glyph-name="dotbelow" horiz-adv-x="602" unicode="&#58389;" /><glyph d="M100 530H140L71 0H31Z" glyph-name="dotlessi" horiz-adv-x="200" unicode="&#305;" /><glyph d="M100 530H140L60 -79Q50 -150 9 -180Q-32 -210 -97 -210Q-123 -210 -141.5 -205.5Q-160 -201 -165 -199L-160 -163Q-153 -166 -134 -169Q-115 -172 -97 -172Q-72 -172 -52 -167Q-32 -162 -17 -150Q-2 -138 8 -118Q18 -98 22 -67Z" glyph-name="dotlessj" horiz-adv-x="200" unicode="&#567;" /><glyph d="M231 840H271L145 -120H105ZM131 840H171L45 -120H5Z" glyph-name="doublebar" horiz-adv-x="280" unicode="&#8214;" /><glyph d="M223 780H263L161 0H121ZM123 780H163L61 0H21Z" glyph-name="doublebar.cap" horiz-adv-x="280" unicode="&#58468;" /><glyph d="M289 780 358 620H316L247 780ZM179 780 248 620H206L137 780Z" glyph-name="doublegrave" horiz-adv-x="500" unicode="&#58386;" /><glyph d="M230 950 277 840H235L188 950ZM340 950 387 840H345L298 950Z" glyph-name="doublegrave.cap" horiz-adv-x="500" unicode="&#58412;" /><glyph d="M288 502Q246 502 210.5 485.5Q175 469 149 440Q123 411 106.5 371Q90 331 84 284H432Q447 386 411.5 444Q376 502 288 502ZM80 246Q74 197 80 157Q86 117 105.5 88.5Q125 60 159 44Q193 28 244 28Q290 28 321.5 41Q353 54 373.5 74.5Q394 95 404.5 120.5Q415 146 418 170H458L457 163Q452 132 437.5 101Q423 70 397 45.5Q371 21 333 5.5Q295 -10 244 -10Q178 -10 135.5 11.5Q93 33 69 69.5Q45 106 38.5 155Q32 204 39 259L41 275Q48 333 67 381.5Q86 430 117 465.5Q148 501 191 520.5Q234 540 288 540Q347 540 385.5 519Q424 498 445.5 462Q467 426 473 378.5Q479 331 472 278L468 246Z" glyph-name="e" horiz-adv-x="540" unicode="e" /><glyph d="M288 502Q246 502 210.5 485.5Q175 469 149 440Q123 411 106.5 371Q90 331 84 284H432Q447 386 411.5 444Q376 502 288 502ZM80 246Q74 197 80 157Q86 117 105.5 88.5Q125 60 159 44Q193 28 244 28Q290 28 321.5 41Q353 54 373.5 74.5Q394 95 404.5 120.5Q415 146 418 170H458L457 163Q452 132 437.5 101Q423 70 397 45.5Q371 21 333 5.5Q295 -10 244 -10Q178 -10 135.5 11.5Q93 33 69 69.5Q45 106 38.5 155Q32 204 39 259L41 275Q48 333 67 381.5Q86 430 117 465.5Q148 501 191 520.5Q234 540 288 540Q347 540 385.5 519Q424 498 445.5 462Q467 426 473 378.5Q479 331 472 278L468 246ZM434 780 323 620H281L392 780Z" glyph-name="eacute" horiz-adv-x="540" unicode="&#233;" /><glyph d="M288 502Q246 502 210.5 485.5Q175 469 149 440Q123 411 106.5 371Q90 331 84 284H432Q447 386 411.5 444Q376 502 288 502ZM80 246Q74 197 80 157Q86 117 105.5 88.5Q125 60 159 44Q193 28 244 28Q290 28 321.5 41Q353 54 373.5 74.5Q394 95 404.5 120.5Q415 146 418 170H458L457 163Q452 132 437.5 101Q423 70 397 45.5Q371 21 333 5.5Q295 -10 244 -10Q178 -10 135.5 11.5Q93 33 69 69.5Q45 106 38.5 155Q32 204 39 259L41 275Q48 333 67 381.5Q86 430 117 465.5Q148 501 191 520.5Q234 540 288 540Q347 540 385.5 519Q424 498 445.5 462Q467 426 473 378.5Q479 331 472 278L468 246ZM303 610Q224 610 192.5 657.5Q161 705 171 780H207Q203 751 206 726Q209 701 220.5 682.5Q232 664 252.5 653.5Q273 643 305 643Q337 643 360.5 653.5Q384 664 400 682.5Q416 701 425.5 726Q435 751 439 780H475Q465 705 423.5 657.5Q382 610 303 610Z" glyph-name="ebreve" horiz-adv-x="540" unicode="&#277;" /><glyph d="M288 502Q246 502 210.5 485.5Q175 469 149 440Q123 411 106.5 371Q90 331 84 284H432Q447 386 411.5 444Q376 502 288 502ZM80 246Q74 197 80 157Q86 117 105.5 88.5Q125 60 159 44Q193 28 244 28Q290 28 321.5 41Q353 54 373.5 74.5Q394 95 404.5 120.5Q415 146 418 170H458L457 163Q452 132 437.5 101Q423 70 397 45.5Q371 21 333 5.5Q295 -10 244 -10Q178 -10 135.5 11.5Q93 33 69 69.5Q45 106 38.5 155Q32 204 39 259L41 275Q48 333 67 381.5Q86 430 117 465.5Q148 501 191 520.5Q234 540 288 540Q347 540 385.5 519Q424 498 445.5 462Q467 426 473 378.5Q479 331 472 278L468 246ZM221 780 305 656 421 780H468L317 620H287L178 780Z" glyph-name="ecaron" horiz-adv-x="540" unicode="&#283;" /><glyph d="M288 502Q246 502 210.5 485.5Q175 469 149 440Q123 411 106.5 371Q90 331 84 284H432Q447 386 411.5 444Q376 502 288 502ZM80 246Q74 197 80 157Q86 117 105.5 88.5Q125 60 159 44Q193 28 244 28Q290 28 321.5 41Q353 54 373.5 74.5Q394 95 404.5 120.5Q415 146 418 170H458L457 163Q452 132 437.5 101Q423 70 397 45.5Q371 21 333 5.5Q295 -10 244 -10Q178 -10 135.5 11.5Q93 33 69 69.5Q45 106 38.5 155Q32 204 39 259L41 275Q48 333 67 381.5Q86 430 117 465.5Q148 501 191 520.5Q234 540 288 540Q347 540 385.5 519Q424 498 445.5 462Q467 426 473 378.5Q479 331 472 278L468 246ZM157 620 308 780H338L447 620H404L320 744L204 620Z" glyph-name="ecircumflex" horiz-adv-x="540" unicode="&#234;" /><glyph d="M288 502Q246 502 210.5 485.5Q175 469 149 440Q123 411 106.5 371Q90 331 84 284H432Q447 386 411.5 444Q376 502 288 502ZM80 246Q74 197 80 157Q86 117 105.5 88.5Q125 60 159 44Q193 28 244 28Q290 28 321.5 41Q353 54 373.5 74.5Q394 95 404.5 120.5Q415 146 418 170H458L457 163Q452 132 437.5 101Q423 70 397 45.5Q371 21 333 5.5Q295 -10 244 -10Q178 -10 135.5 11.5Q93 33 69 69.5Q45 106 38.5 155Q32 204 39 259L41 275Q48 333 67 381.5Q86 430 117 465.5Q148 501 191 520.5Q234 540 288 540Q347 540 385.5 519Q424 498 445.5 462Q467 426 473 378.5Q479 331 472 278L468 246ZM414 675H354L362 735H422ZM264 675H204L212 735H272Z" glyph-name="edieresis" horiz-adv-x="540" unicode="&#235;" /><glyph d="M288 502Q246 502 210.5 485.5Q175 469 149 440Q123 411 106.5 371Q90 331 84 284H432Q447 386 411.5 444Q376 502 288 502ZM80 246Q74 197 80 157Q86 117 105.5 88.5Q125 60 159 44Q193 28 244 28Q290 28 321.5 41Q353 54 373.5 74.5Q394 95 404.5 120.5Q415 146 418 170H458L457 163Q452 132 437.5 101Q423 70 397 45.5Q371 21 333 5.5Q295 -10 244 -10Q178 -10 135.5 11.5Q93 33 69 69.5Q45 106 38.5 155Q32 204 39 259L41 275Q48 333 67 381.5Q86 430 117 465.5Q148 501 191 520.5Q234 540 288 540Q347 540 385.5 519Q424 498 445.5 462Q467 426 473 378.5Q479 331 472 278L468 246ZM339 675H279L287 735H347Z" glyph-name="edotaccent" horiz-adv-x="540" unicode="&#279;" /><glyph d="M288 502Q246 502 210.5 485.5Q175 469 149 440Q123 411 106.5 371Q90 331 84 284H432Q447 386 411.5 444Q376 502 288 502ZM80 246Q74 197 80 157Q86 117 105.5 88.5Q125 60 159 44Q193 28 244 28Q290 28 321.5 41Q353 54 373.5 74.5Q394 95 404.5 120.5Q415 146 418 170H458L457 163Q452 132 437.5 101Q423 70 397 45.5Q371 21 333 5.5Q295 -10 244 -10Q178 -10 135.5 11.5Q93 33 69 69.5Q45 106 38.5 155Q32 204 39 259L41 275Q48 333 67 381.5Q86 430 117 465.5Q148 501 191 520.5Q234 540 288 540Q347 540 385.5 519Q424 498 445.5 462Q467 426 473 378.5Q479 331 472 278L468 246ZM254 780 323 620H281L212 780Z" glyph-name="egrave" horiz-adv-x="540" unicode="&#232;" /><glyph d="M339 752Q251 752 195.5 708Q140 664 130 585L129 577Q124 536 134.5 506Q145 476 167.5 456Q190 436 222 426.5Q254 417 293 417H317Q356 417 391 426Q426 435 454 454Q482 473 500.5 502.5Q519 532 524 573L525 581Q530 620 519 652Q508 684 484 706Q460 728 424.5 740Q389 752 345 752ZM290 379Q248 379 211 367.5Q174 356 146 334.5Q118 313 99.5 281Q81 249 76 207L75 199Q69 154 81.5 122Q94 90 119.5 69Q145 48 181 38Q217 28 258 28H268Q307 28 342.5 38.5Q378 49 406.5 70.5Q435 92 454.5 124Q474 156 479 199L480 207Q485 250 474.5 282.5Q464 315 441 336.5Q418 358 384.5 368.5Q351 379 310 379ZM258 -10Q206 -10 162 3.5Q118 17 87 43.5Q56 70 41.5 109Q27 148 33 198L34 206Q40 252 56 285Q72 318 95 340.5Q118 363 146 377Q174 391 204 399Q178 404 154.5 418.5Q131 433 114.5 455.5Q98 478 90 508.5Q82 539 87 576L88 584Q100 682 165.5 736Q231 790 342 790Q397 790 441.5 776Q486 762 516 735Q546 708 559.5 669.5Q573 631 567 582L566 574Q557 502 511 456.5Q465 411 402 397Q466 380 499 332.5Q532 285 522 208L521 200Q515 150 491.5 111Q468 72 433 45Q398 18 353 4Q308 -10 258 -10Z" glyph-name="eight" horiz-adv-x="600" unicode="8" /><glyph d="M117 163Q79 163 55 146.5Q31 130 26 95L25 87Q20 51 41 33Q62 15 97 15H107Q141 15 166.5 31Q192 47 197 82L198 90Q203 127 181 145Q159 163 121 163ZM91 -17Q56 -17 30.5 -35.5Q5 -54 0 -89L-1 -97Q-6 -136 17 -155Q40 -174 75 -174H81Q115 -174 142 -157Q169 -140 174 -102L175 -94Q180 -56 160 -36.5Q140 -17 105 -17ZM78 -206Q16 -206 -13.5 -174.5Q-43 -143 -37 -97L-36 -89Q-31 -54 -10 -31Q11 -8 40 -1Q14 7 -0.5 31.5Q-15 56 -11 87L-10 95Q-4 142 27.5 168.5Q59 195 119 195Q182 195 211 166.5Q240 138 234 90L233 82Q228 47 208.5 27Q189 7 160 -1Q186 -9 201 -33.5Q216 -58 211 -94L210 -102Q204 -149 168.5 -177.5Q133 -206 78 -206Z" glyph-name="eight.inf" horiz-adv-x="300" unicode="&#58745;" /><glyph d="M1232 213Q1202 213 1176 197.5Q1150 182 1134 157L1131 132Q1125 83 1146.5 54.5Q1168 26 1204 26H1208Q1248 26 1275 50.5Q1302 75 1307 118L1308 126Q1313 170 1293.5 191.5Q1274 213 1236 213ZM1357 363Q1319 363 1277 348Q1235 333 1201 296Q1183 276 1170 254Q1157 232 1149 209Q1163 223 1186 234Q1209 245 1237 245Q1259 245 1280 238Q1301 231 1316 216.5Q1331 202 1339 179.5Q1347 157 1343 126L1342 118Q1334 55 1298 24.5Q1262 -6 1206 -6Q1146 -6 1117 33.5Q1088 73 1096 137L1097 145Q1103 193 1120 234.5Q1137 276 1174 317Q1214 361 1263.5 378Q1313 395 1361 395ZM786 0 790 32H892L933 343L833 281L819 309L952 392H975L928 32H1029L1025 0ZM340 0 1018 780H1064L386 0ZM337 390 341 422H443L484 733L384 671L370 699L503 782H526L479 422H580L576 390ZM37 390 41 422H143L184 733L84 671L70 699L203 782H226L179 422H280L276 390Z" glyph-name="elevensixteenths" horiz-adv-x="1400" unicode="&#61984;" /><glyph d="M481 0H421L428 60H488ZM801 0H741L748 60H808ZM161 0H101L108 60H168Z" glyph-name="ellipsis" horiz-adv-x="1000" unicode="&#8230;" /><glyph d="M288 502Q246 502 210.5 485.5Q175 469 149 440Q123 411 106.5 371Q90 331 84 284H432Q447 386 411.5 444Q376 502 288 502ZM80 246Q74 197 80 157Q86 117 105.5 88.5Q125 60 159 44Q193 28 244 28Q290 28 321.5 41Q353 54 373.5 74.5Q394 95 404.5 120.5Q415 146 418 170H458L457 163Q452 132 437.5 101Q423 70 397 45.5Q371 21 333 5.5Q295 -10 244 -10Q178 -10 135.5 11.5Q93 33 69 69.5Q45 106 38.5 155Q32 204 39 259L41 275Q48 333 67 381.5Q86 430 117 465.5Q148 501 191 520.5Q234 540 288 540Q347 540 385.5 519Q424 498 445.5 462Q467 426 473 378.5Q479 331 472 278L468 246ZM210 720H420L415 680H205Z" glyph-name="emacron" horiz-adv-x="540" unicode="&#275;" /><glyph d="M39 369H959L954 331H34Z" glyph-name="emdash" horiz-adv-x="1000" unicode="&#8212;" /><glyph d="M44 409H964L959 371H39Z" glyph-name="emdash.cap" horiz-adv-x="1000" unicode="&#58502;" /><glyph glyph-name="emspace" horiz-adv-x="1000" unicode="&#8195;" /><glyph d="M39 369H459L454 331H34Z" glyph-name="endash" horiz-adv-x="500" unicode="&#8211;" /><glyph d="M44 409H464L459 371H39Z" glyph-name="endash.cap" horiz-adv-x="500" unicode="&#58500;" /><glyph d="M385 -79Q375 -150 334 -180Q293 -210 228 -210Q202 -210 183.5 -205.5Q165 -201 160 -199L165 -163Q172 -166 191 -169Q210 -172 228 -172Q253 -172 273 -167Q293 -162 308 -150Q323 -138 333 -118Q343 -98 347 -67L404 370Q408 406 401.5 431Q395 456 379.5 471.5Q364 487 340 494.5Q316 502 285 502Q252 502 225 493Q198 484 177 470.5Q156 457 140 441Q124 425 114 410L61 0H21L71 380L85 530H115L114 452Q141 490 187 515Q233 540 290 540Q375 540 415 496Q455 452 445 375Z" glyph-name="eng" horiz-adv-x="510" unicode="&#331;" /><glyph glyph-name="enspace" horiz-adv-x="500" unicode="&#8194;" /><glyph d="M288 502Q246 502 210.5 485.5Q175 469 149 440Q123 411 106.5 371Q90 331 84 284H432Q447 386 411.5 444Q376 502 288 502ZM80 246Q74 197 80 157Q86 117 105.5 88.5Q125 60 159 44Q193 28 244 28Q290 28 321.5 41Q353 54 373.5 74.5Q394 95 404.5 120.5Q415 146 418 170H458L457 163Q453 138 443 113Q433 88 415.5 66Q398 44 373.5 26.5Q349 9 317 0Q299 -8 279.5 -20Q260 -32 244 -47.5Q228 -63 217.5 -83Q207 -103 207 -127Q207 -152 224.5 -164.5Q242 -177 273 -177Q289 -177 305.5 -173.5Q322 -170 336 -163L344 -191Q327 -201 305.5 -205.5Q284 -210 266 -210Q223 -210 198 -190Q173 -170 173 -131Q173 -90 192 -60.5Q211 -31 240 -10Q175 -9 133 12.5Q91 34 68 71Q45 108 38.5 156.5Q32 205 39 259L41 275Q48 333 67 381.5Q86 430 117 465.5Q148 501 191 520.5Q234 540 288 540Q347 540 385.5 519Q424 498 445.5 462Q467 426 473 378.5Q479 331 472 278L468 246Z" glyph-name="eogonek" horiz-adv-x="540" unicode="&#281;" /><glyph d="M40 310H540L535 270H35ZM67 510H567L561 470H61Z" glyph-name="equal" horiz-adv-x="600" unicode="=" /><glyph d="M-31 -40H221L217 -73H-35ZM-18 62H234L230 29H-22Z" glyph-name="equal.inf" horiz-adv-x="300" unicode="&#58749;" /><glyph d="M53 410H553L548 370H48ZM27 210H527L522 170H22ZM80 610H580L575 570H75Z" glyph-name="equivalence" horiz-adv-x="600" unicode="&#8801;" /><glyph d="M229 28Q314 28 365 88Q416 148 429 252L431 268Q438 321 432.5 364Q427 407 408.5 438Q390 469 359 485.5Q328 502 283 502Q198 502 147 442Q96 382 83 278L81 262Q74 209 79.5 166Q85 123 103.5 92Q122 61 153 44.5Q184 28 229 28ZM112 810Q168 805 220.5 789.5Q273 774 319 742L444 810L438 767L350 719Q364 707 377.5 694Q391 681 404 664Q434 626 451 580Q468 534 475 483.5Q482 433 481 379Q480 325 473 271L471 255Q464 197 445.5 148.5Q427 100 397 64.5Q367 29 325 9.5Q283 -10 229 -10Q171 -10 131.5 11Q92 32 69 68.5Q46 105 39 154Q32 203 39 259L41 275Q48 333 66.5 381.5Q85 430 115 465.5Q145 501 187 520.5Q229 540 283 540Q339 540 378 520Q417 500 436 465Q428 513 412 558Q396 603 368 638Q354 656 339 670Q324 684 308 696L126 597L132 640L275 718Q236 741 194.5 754Q153 767 107 772Z" glyph-name="eth" horiz-adv-x="540" unicode="&#240;" /><glyph d="M81 0H21L28 60H88ZM176 780 86 175H62L130 780Z" glyph-name="exclam" horiz-adv-x="200" unicode="!" /><glyph d="M143 470H83L90 530H150ZM1 -200 85 355H109L47 -200Z" glyph-name="exclamdown" horiz-adv-x="200" unicode="&#161;" /><glyph d="M123 780H183L176 720H116ZM28 0 118 605H142L74 0Z" glyph-name="exclamdown.cap" horiz-adv-x="200" unicode="&#58433;" /><glyph d="M180 530H340L335 492H175L111 0H71L135 492H50L55 530H140L160 679Q170 750 211.5 780Q253 810 318 810Q344 810 362.5 805.5Q381 801 386 799L381 763Q374 766 355 769Q336 772 318 772Q268 772 237 750Q206 728 198 667Z" glyph-name="f" horiz-adv-x="370" unicode="f" /><glyph d="M180 530H340L335 492H175L111 0H71L135 492H50L55 530H140L160 679Q170 750 211.5 780Q253 810 318 810Q344 810 362.5 805.5Q381 801 386 799L381 763Q374 766 355 769Q336 772 318 772Q268 772 237 750Q206 728 198 667ZM324 865H264L272 925H332Z" glyph-name="fdotaccent" horiz-adv-x="370" unicode="&#7711;" /><glyph d="M539 675H479L487 735H547ZM470 530H510L441 0H401ZM180 530H340L335 492H175L111 0H71L135 492H50L55 530H140L160 679Q170 750 211.5 780Q253 810 318 810Q344 810 362.5 805.5Q381 801 386 799L381 763Q374 766 355 769Q336 772 318 772Q268 772 237 750Q206 728 198 667Z" glyph-name="fi" horiz-adv-x="570" unicode="&#64257;" /><glyph d="M1232 213Q1202 213 1176 197.5Q1150 182 1134 157L1131 132Q1125 83 1146.5 54.5Q1168 26 1204 26H1208Q1248 26 1275 50.5Q1302 75 1307 118L1308 126Q1313 170 1293.5 191.5Q1274 213 1236 213ZM1357 363Q1319 363 1277 348Q1235 333 1201 296Q1183 276 1170 254Q1157 232 1149 209Q1163 223 1186 234Q1209 245 1237 245Q1259 245 1280 238Q1301 231 1316 216.5Q1331 202 1339 179.5Q1347 157 1343 126L1342 118Q1334 55 1298 24.5Q1262 -6 1206 -6Q1146 -6 1117 33.5Q1088 73 1096 137L1097 145Q1103 193 1120 234.5Q1137 276 1174 317Q1214 361 1263.5 378Q1313 395 1361 395ZM786 0 790 32H892L933 343L833 281L819 309L952 392H975L928 32H1029L1025 0ZM340 0 1018 780H1064L386 0ZM379 515Q372 464 393.5 440Q415 416 456 416H462Q496 416 523 436.5Q550 457 556 504L557 512Q563 560 540 582.5Q517 605 482 605H476Q449 605 422.5 591.5Q396 578 381 552L352 561L391 780H622L618 747H421L396 606Q407 617 429.5 627Q452 637 479 637Q538 637 569 604Q600 571 592 511L591 503Q583 446 548 415Q513 384 459 384Q395 384 364.5 416.5Q334 449 342 507L343 515ZM37 390 41 422H143L184 733L84 671L70 699L203 782H226L179 422H280L276 390Z" glyph-name="fifteensixteenths" horiz-adv-x="1400" unicode="&#61986;" /><glyph d="M39 369H559L554 331H34Z" glyph-name="figuredash" horiz-adv-x="600" unicode="&#8210;" /><glyph d="M44 409H564L559 371H39Z" glyph-name="figuredash.cap" horiz-adv-x="600" unicode="&#58503;" /><glyph glyph-name="figurespace" horiz-adv-x="600" unicode="&#8199;" /><glyph d="M78 250Q64 136 111.5 82Q159 28 259 28H265Q306 28 343 40Q380 52 409 76.5Q438 101 458 139.5Q478 178 485 231L486 239Q493 292 481.5 332Q470 372 445 398.5Q420 425 384.5 438.5Q349 452 308 452H298Q232 452 177 425Q122 398 89 336L57 345L133 780H588L583 740H166L109 414Q135 447 187 468.5Q239 490 303 490Q355 490 399.5 474Q444 458 475 426.5Q506 395 520.5 348Q535 301 528 240L527 232Q519 171 496 125.5Q473 80 438 50Q403 20 358.5 5Q314 -10 265 -10Q198 -10 151.5 8Q105 26 77 59Q49 92 39.5 138.5Q30 185 37 242L38 250Z" glyph-name="five" horiz-adv-x="600" unicode="5" /><glyph d="M1 -75Q-6 -126 15.5 -150Q37 -174 78 -174H84Q118 -174 145 -153.5Q172 -133 178 -86L179 -78Q185 -30 162 -7.5Q139 15 104 15H98Q71 15 44.5 1.5Q18 -12 3 -38L-26 -29L13 190H244L240 157H43L18 16Q29 27 51.5 37Q74 47 101 47Q160 47 191 14Q222 -19 214 -79L213 -87Q205 -144 170 -175Q135 -206 81 -206Q17 -206 -13.5 -173.5Q-44 -141 -36 -83L-35 -75Z" glyph-name="five.inf" horiz-adv-x="300" unicode="&#58742;" /><glyph d="M932 213Q902 213 876 197.5Q850 182 834 157L831 132Q825 83 846.5 54.5Q868 26 904 26H908Q948 26 975 50.5Q1002 75 1007 118L1008 126Q1013 170 993.5 191.5Q974 213 936 213ZM1057 363Q1019 363 977 348Q935 333 901 296Q883 276 870 254Q857 232 849 209Q863 223 886 234Q909 245 937 245Q959 245 980 238Q1001 231 1016 216.5Q1031 202 1039 179.5Q1047 157 1043 126L1042 118Q1034 55 998 24.5Q962 -6 906 -6Q846 -6 817 33.5Q788 73 796 137L797 145Q803 193 820 234.5Q837 276 874 317Q914 361 963.5 378Q1013 395 1061 395ZM486 0 490 32H592L633 343L533 281L519 309L652 392H675L628 32H729L725 0ZM40 0 718 780H764L86 0ZM79 515Q72 464 93.5 440Q115 416 156 416H162Q196 416 223 436.5Q250 457 256 504L257 512Q263 560 240 582.5Q217 605 182 605H176Q149 605 122.5 591.5Q96 578 81 552L52 561L91 780H322L318 747H121L96 606Q107 617 129.5 627Q152 637 179 637Q238 637 269 604Q300 571 292 511L291 503Q283 446 248 415Q213 384 159 384Q95 384 64.5 416.5Q34 449 42 507L43 515Z" glyph-name="fivesixteenths" horiz-adv-x="1100" unicode="&#61975;" /><glyph d="M506 800H546L441 0H401ZM180 530H340L335 492H175L111 0H71L135 492H50L55 530H140L160 679Q170 750 211.5 780Q253 810 318 810Q344 810 362.5 805.5Q381 801 386 799L381 763Q374 766 355 769Q336 772 318 772Q268 772 237 750Q206 728 198 667Z" glyph-name="fl" horiz-adv-x="570" unicode="&#64258;" /><glyph d="M77 259 175 260H365L408 590L425 708ZM331 0 360 220H14L18 245L433 780H473L405 260H550L544 220H400L371 0Z" glyph-name="four" horiz-adv-x="600" unicode="4" /><glyph d="M2 -65 45 -64H125L143 78L151 129ZM107 -200 120 -97H-47L-43 -73L159 190H194L161 -64H225L220 -97H156L143 -200Z" glyph-name="four.inf" horiz-adv-x="300" unicode="&#58741;" /><glyph glyph-name="fourperemspace" horiz-adv-x="250" unicode="&#8197;" /><glyph d="M-260 0 418 780H464L-214 0Z" glyph-name="fraction" horiz-adv-x="200" unicode="&#8260;" /><glyph d="M419 404Q412 420 400 437.5Q388 455 370.5 469.5Q353 484 330 493Q307 502 278 502Q193 502 145.5 449.5Q98 397 86 298L84 282Q71 183 105.5 125.5Q140 68 227 68Q284 68 322 93.5Q360 119 386 154ZM378 100Q355 71 316 50.5Q277 30 227 30Q169 30 130.5 50Q92 70 70 104Q48 138 42 183.5Q36 229 42 279L44 295Q51 349 68 394Q85 439 113.5 471.5Q142 504 183 522Q224 540 278 540Q309 540 334.5 531Q360 522 379.5 508.5Q399 495 412 479Q425 463 431 449L450 530H480L456 380L404 -10Q399 -51 385.5 -87.5Q372 -124 347 -151Q322 -178 284 -194Q246 -210 192 -210Q138 -210 101 -195Q64 -180 43 -154Q22 -128 15 -92Q8 -56 14 -15L16 0H53Q41 -88 77.5 -130Q114 -172 192 -172Q238 -172 269 -160.5Q300 -149 319.5 -127.5Q339 -106 349.5 -75Q360 -44 365 -5Z" glyph-name="g" horiz-adv-x="525" unicode="g" /><glyph d="M419 404Q412 420 400 437.5Q388 455 370.5 469.5Q353 484 330 493Q307 502 278 502Q193 502 145.5 449.5Q98 397 86 298L84 282Q71 183 105.5 125.5Q140 68 227 68Q284 68 322 93.5Q360 119 386 154ZM378 100Q355 71 316 50.5Q277 30 227 30Q169 30 130.5 50Q92 70 70 104Q48 138 42 183.5Q36 229 42 279L44 295Q51 349 68 394Q85 439 113.5 471.5Q142 504 183 522Q224 540 278 540Q309 540 334.5 531Q360 522 379.5 508.5Q399 495 412 479Q425 463 431 449L450 530H480L456 380L404 -10Q399 -51 385.5 -87.5Q372 -124 347 -151Q322 -178 284 -194Q246 -210 192 -210Q138 -210 101 -195Q64 -180 43 -154Q22 -128 15 -92Q8 -56 14 -15L16 0H53Q41 -88 77.5 -130Q114 -172 192 -172Q238 -172 269 -160.5Q300 -149 319.5 -127.5Q339 -106 349.5 -75Q360 -44 365 -5ZM293 610Q214 610 182.5 657.5Q151 705 161 780H197Q193 751 196 726Q199 701 210.5 682.5Q222 664 242.5 653.5Q263 643 295 643Q327 643 350.5 653.5Q374 664 390 682.5Q406 701 415.5 726Q425 751 429 780H465Q455 705 413.5 657.5Q372 610 293 610Z" glyph-name="gbreve" horiz-adv-x="525" unicode="&#287;" /><glyph d="M419 404Q412 420 400 437.5Q388 455 370.5 469.5Q353 484 330 493Q307 502 278 502Q193 502 145.5 449.5Q98 397 86 298L84 282Q71 183 105.5 125.5Q140 68 227 68Q284 68 322 93.5Q360 119 386 154ZM378 100Q355 71 316 50.5Q277 30 227 30Q169 30 130.5 50Q92 70 70 104Q48 138 42 183.5Q36 229 42 279L44 295Q51 349 68 394Q85 439 113.5 471.5Q142 504 183 522Q224 540 278 540Q309 540 334.5 531Q360 522 379.5 508.5Q399 495 412 479Q425 463 431 449L450 530H480L456 380L404 -10Q399 -51 385.5 -87.5Q372 -124 347 -151Q322 -178 284 -194Q246 -210 192 -210Q138 -210 101 -195Q64 -180 43 -154Q22 -128 15 -92Q8 -56 14 -15L16 0H53Q41 -88 77.5 -130Q114 -172 192 -172Q238 -172 269 -160.5Q300 -149 319.5 -127.5Q339 -106 349.5 -75Q360 -44 365 -5ZM147 620 298 780H328L437 620H394L310 744L194 620Z" glyph-name="gcircumflex" horiz-adv-x="525" unicode="&#285;" /><glyph d="M419 404Q412 420 400 437.5Q388 455 370.5 469.5Q353 484 330 493Q307 502 278 502Q193 502 145.5 449.5Q98 397 86 298L84 282Q71 183 105.5 125.5Q140 68 227 68Q284 68 322 93.5Q360 119 386 154ZM378 100Q355 71 316 50.5Q277 30 227 30Q169 30 130.5 50Q92 70 70 104Q48 138 42 183.5Q36 229 42 279L44 295Q51 349 68 394Q85 439 113.5 471.5Q142 504 183 522Q224 540 278 540Q309 540 334.5 531Q360 522 379.5 508.5Q399 495 412 479Q425 463 431 449L450 530H480L456 380L404 -10Q399 -51 385.5 -87.5Q372 -124 347 -151Q322 -178 284 -194Q246 -210 192 -210Q138 -210 101 -195Q64 -180 43 -154Q22 -128 15 -92Q8 -56 14 -15L16 0H53Q41 -88 77.5 -130Q114 -172 192 -172Q238 -172 269 -160.5Q300 -149 319.5 -127.5Q339 -106 349.5 -75Q360 -44 365 -5ZM268 668Q284 790 375 790L371 760Q342 760 325 743.5Q308 727 300 680H330L322 620H262Z" glyph-name="gcommaaccent" horiz-adv-x="525" unicode="&#291;" /><glyph d="M419 404Q412 420 400 437.5Q388 455 370.5 469.5Q353 484 330 493Q307 502 278 502Q193 502 145.5 449.5Q98 397 86 298L84 282Q71 183 105.5 125.5Q140 68 227 68Q284 68 322 93.5Q360 119 386 154ZM378 100Q355 71 316 50.5Q277 30 227 30Q169 30 130.5 50Q92 70 70 104Q48 138 42 183.5Q36 229 42 279L44 295Q51 349 68 394Q85 439 113.5 471.5Q142 504 183 522Q224 540 278 540Q309 540 334.5 531Q360 522 379.5 508.5Q399 495 412 479Q425 463 431 449L450 530H480L456 380L404 -10Q399 -51 385.5 -87.5Q372 -124 347 -151Q322 -178 284 -194Q246 -210 192 -210Q138 -210 101 -195Q64 -180 43 -154Q22 -128 15 -92Q8 -56 14 -15L16 0H53Q41 -88 77.5 -130Q114 -172 192 -172Q238 -172 269 -160.5Q300 -149 319.5 -127.5Q339 -106 349.5 -75Q360 -44 365 -5ZM329 675H269L277 735H337Z" glyph-name="gdotaccent" horiz-adv-x="525" unicode="&#289;" /><glyph d="M259 410Q304 433 336.5 455Q369 477 390.5 501Q412 525 423.5 551.5Q435 578 440 611Q444 647 439.5 676Q435 705 419 726Q403 747 376 758.5Q349 770 309 770Q162 770 141 610L61 0H21L101 614Q114 710 166.5 760Q219 810 309 810Q409 810 451.5 757Q494 704 483 615L482 607Q474 544 435 493Q396 442 312 393L363 356Q395 333 420.5 310Q446 287 463 262Q480 237 487.5 210.5Q495 184 491 153L490 145Q487 117 475.5 89.5Q464 62 442 40Q420 18 387 4Q354 -10 307 -10Q252 -10 219.5 5Q187 20 171 43.5Q155 67 152 96Q149 125 152 152L153 160H192Q189 134 191 110Q193 86 205.5 68Q218 50 242 39Q266 28 307 28Q342 28 367.5 38Q393 48 409.5 64.5Q426 81 435.5 103Q445 125 448 150Q451 177 446 199Q441 221 426 242.5Q411 264 385 286.5Q359 309 321 336L256 382Z" glyph-name="germandbls" horiz-adv-x="550" unicode="&#223;" /><glyph d="M234 780 303 620H261L192 780Z" glyph-name="grave" horiz-adv-x="500" unicode="`" /><glyph d="M285 950 332 840H290L243 950Z" glyph-name="grave.cap" horiz-adv-x="500" unicode="&#58401;" /><glyph d="M15 124 21 168 510 392 80 616 85 656 553 410 548 370Z" glyph-name="greater" horiz-adv-x="600" unicode="&gt;" /><glyph d="M21 167 545 346 539 303 16 124ZM504 458 80 615 86 656 562 477 557 437 33 258 39 301Z" glyph-name="greaterequal" horiz-adv-x="600" unicode="&#8805;" /><glyph d="M462 462 282 337 429 212 423 170 243 325 247 355 468 510ZM262 462 82 337 229 212 223 170 43 325 47 355 268 510Z" glyph-name="guillemotleft" horiz-adv-x="500" unicode="&#171;" /><glyph d="M468 512 288 387 435 262 429 220 249 375 253 405 474 560ZM268 512 88 387 235 262 229 220 49 375 53 405 274 560Z" glyph-name="guillemotleft.cap" horiz-adv-x="500" unicode="&#58451;" /><glyph d="M68 510 247 355 243 325 23 170 29 218 208 343 62 468ZM268 510 447 355 443 325 223 170 229 218 408 343 262 468Z" glyph-name="guillemotright" horiz-adv-x="500" unicode="&#187;" /><glyph d="M74 560 253 405 249 375 29 220 35 268 214 393 68 518ZM274 560 453 405 449 375 229 220 235 268 414 393 268 518Z" glyph-name="guillemotright.cap" horiz-adv-x="500" unicode="&#58452;" /><glyph d="M262 462 82 337 229 212 223 170 43 325 47 355 268 510Z" glyph-name="guilsinglleft" horiz-adv-x="300" unicode="&#8249;" /><glyph d="M268 512 89 387 235 262 229 220 50 375 54 405 274 560Z" glyph-name="guilsinglleft.cap" horiz-adv-x="300" unicode="&#58449;" /><glyph d="M68 510 247 355 243 325 23 170 29 218 208 343 62 468Z" glyph-name="guilsinglright" horiz-adv-x="300" unicode="&#8250;" /><glyph d="M74 560 254 405 250 375 29 220 35 268 215 393 68 518Z" glyph-name="guilsinglright.cap" horiz-adv-x="300" unicode="&#58450;" /><glyph d="M121 460Q144 492 188.5 516Q233 540 290 540Q375 540 415 496Q455 452 445 375L396 0H356L404 370Q408 406 401.5 431Q395 456 379.5 471.5Q364 487 340 494.5Q316 502 285 502Q252 502 225 493Q198 484 177 470.5Q156 457 140 441Q124 425 114 410L61 0H21L126 800H166Z" glyph-name="h" horiz-adv-x="510" unicode="h" /><glyph glyph-name="hairspace" horiz-adv-x="50" unicode="&#8202;" /><glyph d="M150 684H291L286 646H145L121 460Q144 492 188.5 516Q233 540 290 540Q375 540 415 496Q455 452 445 375L396 0H356L404 370Q408 406 401.5 431Q395 456 379.5 471.5Q364 487 340 494.5Q316 502 285 502Q252 502 225 493Q198 484 177 470.5Q156 457 140 441Q124 425 114 410L61 0H21L106 646H6L11 684H111L126 800H166Z" glyph-name="hbar" horiz-adv-x="510" unicode="&#295;" /><glyph d="M121 460Q144 492 188.5 516Q233 540 290 540Q375 540 415 496Q455 452 445 375L396 0H356L404 370Q408 406 401.5 431Q395 456 379.5 471.5Q364 487 340 494.5Q316 502 285 502Q252 502 225 493Q198 484 177 470.5Q156 457 140 441Q124 425 114 410L61 0H21L126 800H166ZM36 840 151 950H181L266 840H223L163 917L83 840Z" glyph-name="hcircumflex" horiz-adv-x="510" unicode="&#293;" /><glyph d="M449 -10Q437 9 414 40Q391 71 360 110Q329 149 292.5 193.5Q256 238 216 283Q190 312 161 348Q132 384 108 423.5Q84 463 68 504Q52 545 52 584Q52 628 65 666Q78 704 103 731.5Q128 759 163.5 774.5Q199 790 243 790Q289 790 323 777Q357 764 381 742.5Q405 721 421 692.5Q437 664 448 633H452Q463 664 479 692.5Q495 721 519 742.5Q543 764 576.5 777Q610 790 657 790Q701 790 736.5 774.5Q772 759 796.5 731.5Q821 704 834.5 666Q848 628 848 584Q848 545 832 504Q816 463 792 423.5Q768 384 739 348Q710 312 684 283Q644 238 607.5 193.5Q571 149 540 110Q509 71 486 40Q463 9 451 -10Z" glyph-name="heart" horiz-adv-x="900" unicode="&#9829;" /><glyph d="M70 0V450L425 790L780 450V0Z" glyph-name="house" horiz-adv-x="850" unicode="&#8962;" /><glyph d="M359 780 248 620H206L317 780ZM469 780 358 620H316L427 780Z" glyph-name="hungarumlaut" horiz-adv-x="500" unicode="&#733;" /><glyph d="M464 950 387 840H345L422 950ZM354 950 277 840H235L312 950Z" glyph-name="hungarumlaut.cap" horiz-adv-x="500" unicode="&#58411;" /><glyph d="M39 369H279L274 331H34Z" glyph-name="hyphen" horiz-adv-x="320" unicode="-" /><glyph d="M44 409H284L279 371H39Z" glyph-name="hyphen.cap" horiz-adv-x="320" unicode="&#58498;" /><glyph d="M169 675H109L117 735H177ZM100 530H140L71 0H31Z" glyph-name="i" horiz-adv-x="200" unicode="i" /><glyph d="M264 780 153 620H111L222 780ZM100 530H140L71 0H31Z" glyph-name="iacute" horiz-adv-x="200" unicode="&#237;" /><glyph d="M133 610Q54 610 22.5 657.5Q-9 705 1 780H37Q33 751 36 726Q39 701 50.5 682.5Q62 664 82.5 653.5Q103 643 135 643Q167 643 190.5 653.5Q214 664 230 682.5Q246 701 255.5 726Q265 751 269 780H305Q295 705 253.5 657.5Q212 610 133 610ZM100 530H140L71 0H31Z" glyph-name="ibreve" horiz-adv-x="200" unicode="&#301;" /><glyph d="M-13 620 138 780H168L277 620H234L150 744L34 620ZM100 530H140L71 0H31Z" glyph-name="icircumflex" horiz-adv-x="200" unicode="&#238;" /><glyph d="M94 675H34L42 735H102ZM244 675H184L192 735H252ZM100 530H140L71 0H31Z" glyph-name="idieresis" horiz-adv-x="200" unicode="&#239;" /><glyph d="M169 675H109L117 735H177ZM100 530H140L71 0H31Z" glyph-name="idotaccent" horiz-adv-x="200" unicode="&#59269;" /><glyph d="M84 780 153 620H111L42 780ZM100 530H140L71 0H31Z" glyph-name="igrave" horiz-adv-x="200" unicode="&#236;" /><glyph d="M250 530H290L210 -79Q200 -150 159 -180Q118 -210 53 -210Q27 -210 8.5 -205.5Q-10 -201 -15 -199L-10 -163Q-3 -166 16 -169Q35 -172 53 -172Q78 -172 98 -167Q118 -162 133 -150Q148 -138 158 -118Q168 -98 172 -67ZM319 675H259L267 735H327ZM169 675H109L117 735H177ZM100 530H140L71 0H31Z" glyph-name="ij" horiz-adv-x="350" unicode="&#307;" /><glyph d="M40 720H250L245 680H35ZM100 530H140L71 0H31Z" glyph-name="imacron" horiz-adv-x="200" unicode="&#299;" /><glyph d="M201 0H141L148 60H208ZM396 620Q396 680 371.5 712.5Q347 745 291 750L225 303Q248 344 277.5 376.5Q307 409 333.5 443Q360 477 378 518.5Q396 560 396 620ZM182 175 246 751Q206 747 178.5 727Q151 707 132 674.5Q113 642 102 597.5Q91 553 84 500H44L46 513Q56 576 70.5 627Q85 678 109.5 714.5Q134 751 172 770.5Q210 790 267 790Q356 790 397 747.5Q438 705 438 630Q438 569 423 527Q408 485 385 452.5Q362 420 334.5 393.5Q307 367 281 336.5Q255 306 234.5 268Q214 230 206 175Z" glyph-name="interrobang" horiz-adv-x="440" unicode="&#8253;" /><glyph d="M263 470H203L210 530H270ZM18 -50Q18 -104 41.5 -135.5Q65 -167 125 -171L186 229Q163 190 134 162Q105 134 79 104.5Q53 75 35.5 39.5Q18 4 18 -50ZM229 355 170 -170Q241 -160 278.5 -101.5Q316 -43 330 60H370L368 47Q358 -16 341.5 -64Q325 -112 298 -144.5Q271 -177 233 -193.5Q195 -210 142 -210Q98 -210 66.5 -199Q35 -188 15 -168.5Q-5 -149 -14.5 -121Q-24 -93 -24 -60Q-24 -2 -9.5 36.5Q5 75 27.5 102.5Q50 130 77.5 152.5Q105 175 130.5 201.5Q156 228 176.5 264Q197 300 205 355Z" glyph-name="interrobangdown" horiz-adv-x="440" unicode="&#59701;" /><glyph d="M243 780H303L296 720H236ZM48 160Q48 100 72 67.5Q96 35 152 29L219 476Q196 435 166 402.5Q136 370 110 336Q84 302 66 260.5Q48 219 48 160ZM262 605 197 29Q237 33 265 52.5Q293 72 311.5 105Q330 138 341.5 182Q353 226 360 280H400L398 267Q388 204 373.5 153Q359 102 334.5 65.5Q310 29 272 9.5Q234 -10 177 -10Q88 -10 47 32.5Q6 75 6 150Q6 211 21 253Q36 295 59 327.5Q82 360 109.5 386.5Q137 413 163 443.5Q189 474 209.5 512Q230 550 238 605Z" glyph-name="interrobangdown.cap" horiz-adv-x="440" unicode="&#59803;" /><glyph d="M303 790Q342 790 369.5 777.5Q397 765 413 742.5Q429 720 434 688.5Q439 657 434 620H398Q402 649 399 674Q396 699 384.5 717.5Q373 736 352.5 746.5Q332 757 300 757Q268 757 244.5 746.5Q221 736 205 717.5Q189 699 179.5 674Q170 649 166 620H130Q140 695 182 742.5Q224 790 303 790Z" glyph-name="invertedbreve" horiz-adv-x="500" unicode="&#58385;" /><glyph d="M325 960Q388 960 419 926.5Q450 893 443 840H407Q412 878 392 902.5Q372 927 323 927Q274 927 247 902.5Q220 878 215 840H179Q186 893 224 926.5Q262 960 325 960Z" glyph-name="invertedbreve.cap" horiz-adv-x="500" unicode="&#58407;" /><glyph d="M71 0Q53 -8 33.5 -20Q14 -32 -2 -47.5Q-18 -63 -28.5 -83Q-39 -103 -39 -127Q-39 -152 -21.5 -164.5Q-4 -177 27 -177Q43 -177 59.5 -173.5Q76 -170 90 -163L98 -191Q81 -201 59.5 -205.5Q38 -210 20 -210Q-23 -210 -48 -190Q-73 -170 -73 -131Q-73 -104 -64 -82Q-55 -60 -40.5 -42Q-26 -24 -7 -10.5Q12 3 33 14L100 530H140ZM169 675H109L117 735H177Z" glyph-name="iogonek" horiz-adv-x="200" unicode="&#303;" /><glyph d="M288 737Q282 694 260 673.5Q238 653 206 653Q184 653 167 662.5Q150 672 135 683Q120 694 106 703.5Q92 713 76 713Q60 713 48.5 702Q37 691 33 663H-2Q3 706 25 726.5Q47 747 79 747Q101 747 118 737.5Q135 728 150 717Q165 706 179 696.5Q193 687 209 687Q225 687 237 698Q249 709 253 737ZM100 530H140L71 0H31Z" glyph-name="itilde" horiz-adv-x="200" unicode="&#297;" /><glyph d="M100 530H140L60 -79Q50 -150 9 -180Q-32 -210 -97 -210Q-123 -210 -141.5 -205.5Q-160 -201 -165 -199L-160 -163Q-153 -166 -134 -169Q-115 -172 -97 -172Q-72 -172 -52 -167Q-32 -162 -17 -150Q-2 -138 8 -118Q18 -98 22 -67ZM169 675H109L117 735H177Z" glyph-name="j" horiz-adv-x="200" unicode="j" /><glyph d="M100 530H140L60 -79Q50 -150 9 -180Q-32 -210 -97 -210Q-123 -210 -141.5 -205.5Q-160 -201 -165 -199L-160 -163Q-153 -166 -134 -169Q-115 -172 -97 -172Q-72 -172 -52 -167Q-32 -162 -17 -150Q-2 -138 8 -118Q18 -98 22 -67ZM-13 620 138 780H168L277 620H234L150 744L34 620Z" glyph-name="jcircumflex" horiz-adv-x="200" unicode="&#309;" /><glyph d="M126 800H166L89 218L416 530H470L259 330L401 0H358L229 302L82 162L61 0H21Z" glyph-name="k" horiz-adv-x="480" unicode="k" /><glyph d="M126 800H166L89 218L416 530H470L259 330L401 0H358L229 302L82 162L61 0H21ZM211 -108Q205 -155 177.5 -182.5Q150 -210 108 -210L112 -180Q136 -180 154.5 -166Q173 -152 180 -120H150L158 -60H218Z" glyph-name="kcommaaccent" horiz-adv-x="480" unicode="&#311;" /><glyph d="M90 530H130L89 218L416 530H470L259 330L401 0H358L229 302L82 162L61 0H21Z" glyph-name="kgreenlandic" horiz-adv-x="480" unicode="&#312;" /><glyph d="M136 800H176L71 0H31Z" glyph-name="l" horiz-adv-x="200" unicode="l" /><glyph d="M259 950 182 840H140L217 950ZM136 800H176L71 0H31Z" glyph-name="lacute" horiz-adv-x="200" unicode="&#314;" /><glyph d="M301 800 262 620H232L256 800ZM136 800H176L71 0H31Z" glyph-name="lcaron" horiz-adv-x="200" unicode="&#318;" /><glyph d="M66 -108Q60 -155 32.5 -182.5Q5 -210 -37 -210L-33 -180Q-9 -180 9.5 -166Q28 -152 35 -120H5L13 -60H73ZM136 800H176L71 0H31Z" glyph-name="lcommaaccent" horiz-adv-x="200" unicode="&#316;" /><glyph d="M273 320H213L221 380H281ZM136 800H176L71 0H31Z" glyph-name="ldot" horiz-adv-x="300" unicode="&#320;" /><glyph d="M586 656 580 612 91 388 521 164 516 124 48 370 53 410Z" glyph-name="less" horiz-adv-x="600" unicode="&lt;" /><glyph d="M516 124 39 303 45 344 521 165ZM115 456 539 299 533 258 57 437 62 477 586 656 580 613Z" glyph-name="lessequal" horiz-adv-x="600" unicode="&#8804;" /><glyph d="M72 550H572L528 220H488L527 510H67Z" glyph-name="logicalnot" horiz-adv-x="600" unicode="&#172;" /><glyph d="M6 38H226L221 0H1Z" glyph-name="lowline" horiz-adv-x="320" unicode="&#58641;" /><glyph d="M30 335 135 413 186 800H226L179 446L307 540L300 492L173 398L121 0H81L129 365L23 287Z" glyph-name="lslash" horiz-adv-x="310" unicode="&#322;" /><glyph d="M631 0 681 385Q685 419 679 441.5Q673 464 658.5 477.5Q644 491 623 496.5Q602 502 578 502Q551 502 526.5 493Q502 484 481.5 470.5Q461 457 445 441Q429 425 419 410L366 0H326L376 385Q380 419 374.5 441.5Q369 464 355 477.5Q341 491 320 496.5Q299 502 273 502Q246 502 221.5 493Q197 484 176.5 470.5Q156 457 140 441Q124 425 114 410L61 0H21L71 380L85 530H115L114 452Q126 468 142.5 484Q159 500 180 512.5Q201 525 226 532.5Q251 540 278 540Q340 540 373 515.5Q406 491 415 451Q442 487 485 513.5Q528 540 583 540Q617 540 644.5 530.5Q672 521 691 502.5Q710 484 718.5 455.5Q727 427 722 390L671 0Z" glyph-name="m" horiz-adv-x="785" unicode="m" /><glyph d="M190 720H400L395 680H185Z" glyph-name="macron" horiz-adv-x="500" unicode="&#175;" /><glyph d="M221 915H421L416 875H216Z" glyph-name="macron.cap" horiz-adv-x="500" unicode="&#58405;" /><glyph d="M631 0 681 385Q685 419 679 441.5Q673 464 658.5 477.5Q644 491 623 496.5Q602 502 578 502Q551 502 526.5 493Q502 484 481.5 470.5Q461 457 445 441Q429 425 419 410L366 0H326L376 385Q380 419 374.5 441.5Q369 464 355 477.5Q341 491 320 496.5Q299 502 273 502Q246 502 221.5 493Q197 484 176.5 470.5Q156 457 140 441Q124 425 114 410L61 0H21L71 380L85 530H115L114 452Q126 468 142.5 484Q159 500 180 512.5Q201 525 226 532.5Q251 540 278 540Q340 540 373 515.5Q406 491 415 451Q442 487 485 513.5Q528 540 583 540Q617 540 644.5 530.5Q672 521 691 502.5Q710 484 718.5 455.5Q727 427 722 390L671 0ZM464 675H404L412 735H472Z" glyph-name="mdotaccent" horiz-adv-x="785" unicode="&#7745;" /><glyph d="M60 265Q60 322 81.5 372Q103 422 140.5 459.5Q178 497 228 518.5Q278 540 335 540Q392 540 442 518.5Q492 497 529.5 459.5Q567 422 588.5 372Q610 322 610 265Q610 208 588.5 158Q567 108 529.5 70.5Q492 33 442 11.5Q392 -10 335 -10Q278 -10 228 11.5Q178 33 140.5 70.5Q103 108 81.5 158Q60 208 60 265Z" glyph-name="mediumblackcircle" horiz-adv-x="670" unicode="&#9899;" /><glyph d="M100 265Q100 216 118.5 173.5Q137 131 169 99Q201 67 243.5 48.5Q286 30 335 30Q384 30 426.5 48.5Q469 67 501 99Q533 131 551.5 173.5Q570 216 570 265Q570 314 551.5 356.5Q533 399 501 431Q469 463 426.5 481.5Q384 500 335 500Q286 500 243.5 481.5Q201 463 169 431Q137 399 118.5 356.5Q100 314 100 265ZM60 265Q60 322 81.5 372Q103 422 140.5 459.5Q178 497 228 518.5Q278 540 335 540Q392 540 442 518.5Q492 497 529.5 459.5Q567 422 588.5 372Q610 322 610 265Q610 208 588.5 158Q567 108 529.5 70.5Q492 33 442 11.5Q392 -10 335 -10Q278 -10 228 11.5Q178 33 140.5 70.5Q103 108 81.5 158Q60 208 60 265Z" glyph-name="mediumwhitecircle" horiz-adv-x="670" unicode="&#9898;" /><glyph d="M53 410H553L548 370H48Z" glyph-name="minus" horiz-adv-x="600" unicode="&#8722;" /><glyph d="M-24 11H228L223 -22H-29Z" glyph-name="minus.inf" horiz-adv-x="300" unicode="&#58748;" /><glyph d="M8 157 272 390 70 623 102 652 305 419 568 652 594 623 330 390 532 157 499 128 297 361 33 128Z" glyph-name="multiply" horiz-adv-x="600" unicode="&#215;" /><glyph d="M356 0 404 370Q408 406 401.5 431Q395 456 379.5 471.5Q364 487 340 494.5Q316 502 285 502Q252 502 225 493Q198 484 177 470.5Q156 457 140 441Q124 425 114 410L61 0H21L71 380L85 530H115L114 452Q141 490 187 515Q233 540 290 540Q375 540 415 496Q455 452 445 375L396 0Z" glyph-name="n" horiz-adv-x="510" unicode="n" /><glyph d="M356 0 404 370Q408 406 401.5 431Q395 456 379.5 471.5Q364 487 340 494.5Q316 502 285 502Q252 502 225 493Q198 484 177 470.5Q156 457 140 441Q124 425 114 410L61 0H21L71 380L85 530H115L114 452Q141 490 187 515Q233 540 290 540Q375 540 415 496Q455 452 445 375L396 0ZM422 780 311 620H269L380 780Z" glyph-name="nacute" horiz-adv-x="510" unicode="&#324;" /><glyph d="M356 0 404 370Q408 406 401.5 431Q395 456 379.5 471.5Q364 487 340 494.5Q316 502 285 502Q252 502 225 493Q198 484 177 470.5Q156 457 140 441Q124 425 114 410L61 0H21L71 380L85 530H115L114 452Q141 490 187 515Q233 540 290 540Q375 540 415 496Q455 452 445 375L396 0ZM209 780 293 656 409 780H456L305 620H275L166 780Z" glyph-name="ncaron" horiz-adv-x="510" unicode="&#328;" /><glyph d="M356 0 404 370Q408 406 401.5 431Q395 456 379.5 471.5Q364 487 340 494.5Q316 502 285 502Q252 502 225 493Q198 484 177 470.5Q156 457 140 441Q124 425 114 410L61 0H21L71 380L85 530H115L114 452Q141 490 187 515Q233 540 290 540Q375 540 415 496Q455 452 445 375L396 0ZM224 -108Q218 -155 190.5 -182.5Q163 -210 121 -210L125 -180Q149 -180 167.5 -166Q186 -152 193 -120H163L171 -60H231Z" glyph-name="ncommaaccent" horiz-adv-x="510" unicode="&#326;" /><glyph d="M293 330Q364 330 418 365Q472 400 508 457Q510 465 512 476Q514 484 515 495.5Q516 507 518 520Q523 583 511 627Q499 671 474.5 698.5Q450 726 414.5 738Q379 750 337 750H331Q237 750 181.5 698Q126 646 114 548L113 540Q107 491 116.5 452Q126 413 149 386Q172 359 207 344.5Q242 330 287 330ZM39 30Q72 30 112.5 37.5Q153 45 196.5 62Q240 79 284.5 107Q329 135 369 177Q414 224 443.5 278Q473 332 491 384Q476 364 454.5 347Q433 330 406.5 317.5Q380 305 350 297.5Q320 290 290 290Q237 290 193.5 305.5Q150 321 120 351.5Q90 382 76.5 429Q63 476 71 539L72 547Q80 610 103 656Q126 702 160.5 731.5Q195 761 239 775.5Q283 790 334 790Q389 790 434.5 772Q480 754 510 719Q540 684 553.5 632Q567 580 558 513L557 505Q546 412 510.5 322Q475 232 399 151Q357 107 310 76.5Q263 46 214.5 26.5Q166 7 119.5 -1.5Q73 -10 33 -10Z" glyph-name="nine" horiz-adv-x="600" unicode="9" /><glyph d="M93 -24Q123 -24 149 -8.5Q175 7 191 32L194 57Q200 106 178.5 134.5Q157 163 121 163H117Q77 163 50 138.5Q23 114 18 71L17 63Q12 19 31.5 -2.5Q51 -24 89 -24ZM-32 -174Q6 -174 48 -159Q90 -144 124 -107Q142 -87 155 -65Q168 -43 176 -20Q162 -34 139 -45Q116 -56 88 -56Q65 -56 44.5 -49Q24 -42 9 -27.5Q-6 -13 -14 9.5Q-22 32 -18 63L-17 71Q-9 134 27 164.5Q63 195 119 195Q179 195 208 155.5Q237 116 229 52L228 44Q222 -4 205 -45.5Q188 -87 151 -128Q111 -172 61.5 -189Q12 -206 -36 -206Z" glyph-name="nine.inf" horiz-adv-x="300" unicode="&#58746;" /><glyph d="M932 213Q902 213 876 197.5Q850 182 834 157L831 132Q825 83 846.5 54.5Q868 26 904 26H908Q948 26 975 50.5Q1002 75 1007 118L1008 126Q1013 170 993.5 191.5Q974 213 936 213ZM1057 363Q1019 363 977 348Q935 333 901 296Q883 276 870 254Q857 232 849 209Q863 223 886 234Q909 245 937 245Q959 245 980 238Q1001 231 1016 216.5Q1031 202 1039 179.5Q1047 157 1043 126L1042 118Q1034 55 998 24.5Q962 -6 906 -6Q846 -6 817 33.5Q788 73 796 137L797 145Q803 193 820 234.5Q837 276 874 317Q914 361 963.5 378Q1013 395 1061 395ZM486 0 490 32H592L633 343L533 281L519 309L652 392H675L628 32H729L725 0ZM40 0 718 780H764L86 0ZM171 566Q201 566 227 581.5Q253 597 269 622L272 647Q278 696 256.5 724.5Q235 753 199 753H195Q155 753 128 728.5Q101 704 96 661L95 653Q90 609 109.5 587.5Q129 566 167 566ZM46 416Q84 416 126 431Q168 446 202 483Q220 503 233 525Q246 547 254 570Q240 556 217 545Q194 534 166 534Q143 534 122.5 541Q102 548 87 562.5Q72 577 64 599.5Q56 622 60 653L61 661Q69 724 105 754.5Q141 785 197 785Q257 785 286 745.5Q315 706 307 642L306 634Q300 586 283 544.5Q266 503 229 462Q189 418 139.5 401Q90 384 42 384Z" glyph-name="ninesixteenths" horiz-adv-x="1100" unicode="&#61977;" /><glyph glyph-name="nonbreakingspace" horiz-adv-x="200" unicode="&#160;" /><glyph d="M67 510H364L457 640H500L408 510H567L561 470H379L265 310H540L535 270H237L145 140H102L194 270H35L40 310H222L335 470H61Z" glyph-name="notequal" horiz-adv-x="600" unicode="&#8800;" /><glyph d="M356 0 404 370Q408 406 401.5 431Q395 456 379.5 471.5Q364 487 340 494.5Q316 502 285 502Q252 502 225 493Q198 484 177 470.5Q156 457 140 441Q124 425 114 410L61 0H21L71 380L85 530H115L114 452Q141 490 187 515Q233 540 290 540Q375 540 415 496Q455 452 445 375L396 0ZM446 737Q440 694 418 673.5Q396 653 364 653Q342 653 325 662.5Q308 672 293 683Q278 694 264 703.5Q250 713 234 713Q218 713 206.5 702Q195 691 191 663H156Q161 706 183 726.5Q205 747 237 747Q259 747 276 737.5Q293 728 308 717Q323 706 337 696.5Q351 687 367 687Q383 687 395 698Q407 709 411 737Z" glyph-name="ntilde" horiz-adv-x="510" unicode="&#241;" /><glyph d="M184 290H345L419 490H258ZM570 780 477 530H583L578 490H462L388 290H489L484 250H373L281 0H238L330 250H169L77 0H34L126 250H21L26 290H141L215 490H115L120 530H230L323 780H366L273 530H434L527 780Z" glyph-name="numbersign" horiz-adv-x="600" unicode="#" /><glyph d="M684 258H994L990 223H680ZM758 577Q749 504 773.5 459.5Q798 415 862 415Q894 415 918.5 427Q943 439 961 460.5Q979 482 990 512Q1001 542 1006 577L1008 593Q1017 666 992.5 710.5Q968 755 904 755Q872 755 847.5 743Q823 731 805 709.5Q787 688 775.5 658Q764 628 760 593ZM1044 577Q1033 486 987 433Q941 380 862 380Q817 380 787 395.5Q757 411 740.5 437.5Q724 464 719.5 500Q715 536 720 577L722 593Q733 684 779 737Q825 790 904 790Q949 790 979 774.5Q1009 759 1025.5 732.5Q1042 706 1046.5 670Q1051 634 1046 593ZM521 0H477L161 720L139 530L70 0H31L133 780H177L492 60L514 250L584 780H623Z" glyph-name="numero" horiz-adv-x="1060" unicode="&#8470;" /><glyph d="M229 -10Q171 -10 131.5 11Q92 32 69 68.5Q46 105 39 154Q32 203 39 259L41 275Q48 333 66.5 381.5Q85 430 115 465.5Q145 501 187 520.5Q229 540 283 540Q341 540 380.5 519Q420 498 443 461.5Q466 425 473 376Q480 327 473 271L471 255Q464 197 445.5 148.5Q427 100 397 64.5Q367 29 325 9.5Q283 -10 229 -10ZM229 28Q314 28 365 88Q416 148 429 252L431 268Q438 321 432.5 364Q427 407 408.5 438Q390 469 359 485.5Q328 502 283 502Q198 502 147 442Q96 382 83 278L81 262Q74 209 79.5 166Q85 123 103.5 92Q122 61 153 44.5Q184 28 229 28Z" glyph-name="o" horiz-adv-x="540" unicode="o" /><glyph d="M229 -10Q171 -10 131.5 11Q92 32 69 68.5Q46 105 39 154Q32 203 39 259L41 275Q48 333 66.5 381.5Q85 430 115 465.5Q145 501 187 520.5Q229 540 283 540Q341 540 380.5 519Q420 498 443 461.5Q466 425 473 376Q480 327 473 271L471 255Q464 197 445.5 148.5Q427 100 397 64.5Q367 29 325 9.5Q283 -10 229 -10ZM229 28Q314 28 365 88Q416 148 429 252L431 268Q438 321 432.5 364Q427 407 408.5 438Q390 469 359 485.5Q328 502 283 502Q198 502 147 442Q96 382 83 278L81 262Q74 209 79.5 166Q85 123 103.5 92Q122 61 153 44.5Q184 28 229 28ZM434 780 323 620H281L392 780Z" glyph-name="oacute" horiz-adv-x="540" unicode="&#243;" /><glyph d="M229 -10Q171 -10 131.5 11Q92 32 69 68.5Q46 105 39 154Q32 203 39 259L41 275Q48 333 66.5 381.5Q85 430 115 465.5Q145 501 187 520.5Q229 540 283 540Q341 540 380.5 519Q420 498 443 461.5Q466 425 473 376Q480 327 473 271L471 255Q464 197 445.5 148.5Q427 100 397 64.5Q367 29 325 9.5Q283 -10 229 -10ZM229 28Q314 28 365 88Q416 148 429 252L431 268Q438 321 432.5 364Q427 407 408.5 438Q390 469 359 485.5Q328 502 283 502Q198 502 147 442Q96 382 83 278L81 262Q74 209 79.5 166Q85 123 103.5 92Q122 61 153 44.5Q184 28 229 28ZM303 610Q224 610 192.5 657.5Q161 705 171 780H207Q203 751 206 726Q209 701 220.5 682.5Q232 664 252.5 653.5Q273 643 305 643Q337 643 360.5 653.5Q384 664 400 682.5Q416 701 425.5 726Q435 751 439 780H475Q465 705 423.5 657.5Q382 610 303 610Z" glyph-name="obreve" horiz-adv-x="540" unicode="&#335;" /><glyph d="M229 -10Q171 -10 131.5 11Q92 32 69 68.5Q46 105 39 154Q32 203 39 259L41 275Q48 333 66.5 381.5Q85 430 115 465.5Q145 501 187 520.5Q229 540 283 540Q341 540 380.5 519Q420 498 443 461.5Q466 425 473 376Q480 327 473 271L471 255Q464 197 445.5 148.5Q427 100 397 64.5Q367 29 325 9.5Q283 -10 229 -10ZM229 28Q314 28 365 88Q416 148 429 252L431 268Q438 321 432.5 364Q427 407 408.5 438Q390 469 359 485.5Q328 502 283 502Q198 502 147 442Q96 382 83 278L81 262Q74 209 79.5 166Q85 123 103.5 92Q122 61 153 44.5Q184 28 229 28ZM157 620 308 780H338L447 620H404L320 744L204 620Z" glyph-name="ocircumflex" horiz-adv-x="540" unicode="&#244;" /><glyph d="M229 -10Q171 -10 131.5 11Q92 32 69 68.5Q46 105 39 154Q32 203 39 259L41 275Q48 333 66.5 381.5Q85 430 115 465.5Q145 501 187 520.5Q229 540 283 540Q341 540 380.5 519Q420 498 443 461.5Q466 425 473 376Q480 327 473 271L471 255Q464 197 445.5 148.5Q427 100 397 64.5Q367 29 325 9.5Q283 -10 229 -10ZM229 28Q314 28 365 88Q416 148 429 252L431 268Q438 321 432.5 364Q427 407 408.5 438Q390 469 359 485.5Q328 502 283 502Q198 502 147 442Q96 382 83 278L81 262Q74 209 79.5 166Q85 123 103.5 92Q122 61 153 44.5Q184 28 229 28ZM414 675H354L362 735H422ZM264 675H204L212 735H272Z" glyph-name="odieresis" horiz-adv-x="540" unicode="&#246;" /><glyph d="M676 502Q634 502 599 485.5Q564 469 538 440Q512 411 495.5 371Q479 331 473 284H819Q834 386 799 444Q764 502 676 502ZM228 28Q313 28 363.5 88Q414 148 427 252L429 268Q436 321 430.5 364Q425 407 407 438Q389 469 358 485.5Q327 502 282 502Q197 502 146.5 442Q96 382 83 278L81 262Q74 209 79.5 166Q85 123 103 92Q121 61 152 44.5Q183 28 228 28ZM469 246Q463 197 469 157Q475 117 494.5 88.5Q514 60 547.5 44Q581 28 632 28Q678 28 709.5 41Q741 54 761 74.5Q781 95 791.5 120.5Q802 146 805 170H845L844 163Q839 132 824.5 101Q810 70 784.5 45.5Q759 21 721 5.5Q683 -10 632 -10Q585 -10 551 1Q517 12 493 32Q469 52 455 79Q441 106 435 139Q409 70 358 30Q307 -10 228 -10Q170 -10 130.5 11Q91 32 68.5 68.5Q46 105 39 154Q32 203 39 259L41 275Q48 333 66 381.5Q84 430 114 465.5Q144 501 186 520.5Q228 540 282 540Q365 540 408.5 498.5Q452 457 464 389Q492 458 544 499Q596 540 676 540Q735 540 773.5 519Q812 498 833 462Q854 426 860 378.5Q866 331 859 278L855 246Z" glyph-name="oe" horiz-adv-x="928" unicode="&#339;" /><glyph d="M231 0Q213 -8 193.5 -20Q174 -32 158 -47.5Q142 -63 131.5 -83Q121 -103 121 -127Q121 -152 138.5 -164.5Q156 -177 187 -177Q203 -177 219.5 -173.5Q236 -170 250 -163L258 -191Q241 -201 219.5 -205.5Q198 -210 180 -210Q137 -210 112 -190Q87 -170 87 -131Q87 -100 99 -75Q111 -50 130 -30.5Q149 -11 173 3Q197 17 221 27Z" glyph-name="ogonek" horiz-adv-x="602" unicode="&#731;" /><glyph d="M229 -10Q171 -10 131.5 11Q92 32 69 68.5Q46 105 39 154Q32 203 39 259L41 275Q48 333 66.5 381.5Q85 430 115 465.5Q145 501 187 520.5Q229 540 283 540Q341 540 380.5 519Q420 498 443 461.5Q466 425 473 376Q480 327 473 271L471 255Q464 197 445.5 148.5Q427 100 397 64.5Q367 29 325 9.5Q283 -10 229 -10ZM229 28Q314 28 365 88Q416 148 429 252L431 268Q438 321 432.5 364Q427 407 408.5 438Q390 469 359 485.5Q328 502 283 502Q198 502 147 442Q96 382 83 278L81 262Q74 209 79.5 166Q85 123 103.5 92Q122 61 153 44.5Q184 28 229 28ZM254 780 323 620H281L212 780Z" glyph-name="ograve" horiz-adv-x="540" unicode="&#242;" /><glyph d="M229 -10Q171 -10 131.5 11Q92 32 69 68.5Q46 105 39 154Q32 203 39 259L41 275Q48 333 66.5 381.5Q85 430 115 465.5Q145 501 187 520.5Q229 540 283 540Q341 540 380.5 519Q420 498 443 461.5Q466 425 473 376Q480 327 473 271L471 255Q464 197 445.5 148.5Q427 100 397 64.5Q367 29 325 9.5Q283 -10 229 -10ZM229 28Q314 28 365 88Q416 148 429 252L431 268Q438 321 432.5 364Q427 407 408.5 438Q390 469 359 485.5Q328 502 283 502Q198 502 147 442Q96 382 83 278L81 262Q74 209 79.5 166Q85 123 103.5 92Q122 61 153 44.5Q184 28 229 28ZM379 780 268 620H226L337 780ZM489 780 378 620H336L447 780Z" glyph-name="ohungarumlaut" horiz-adv-x="540" unicode="&#337;" /><glyph d="M229 -10Q171 -10 131.5 11Q92 32 69 68.5Q46 105 39 154Q32 203 39 259L41 275Q48 333 66.5 381.5Q85 430 115 465.5Q145 501 187 520.5Q229 540 283 540Q341 540 380.5 519Q420 498 443 461.5Q466 425 473 376Q480 327 473 271L471 255Q464 197 445.5 148.5Q427 100 397 64.5Q367 29 325 9.5Q283 -10 229 -10ZM229 28Q314 28 365 88Q416 148 429 252L431 268Q438 321 432.5 364Q427 407 408.5 438Q390 469 359 485.5Q328 502 283 502Q198 502 147 442Q96 382 83 278L81 262Q74 209 79.5 166Q85 123 103.5 92Q122 61 153 44.5Q184 28 229 28ZM210 720H420L415 680H205Z" glyph-name="omacron" horiz-adv-x="540" unicode="&#333;" /><glyph d="M26 0 31 40H246L336 723L114 585L97 619L364 785H384L286 40H501L496 0Z" glyph-name="one" horiz-adv-x="600" unicode="1" /><glyph d="M-41 -200 -37 -168H65L106 143L6 81L-8 109L125 192H148L101 -168H202L198 -200Z" glyph-name="one.inf" horiz-adv-x="300" unicode="&#58738;" /><glyph d="M723 0H479L482 22L673 201Q695 221 708 238Q721 255 724 280L725 288Q730 325 709 344Q688 363 650 363H646Q604 363 580 339Q556 315 548 260H513L515 275Q523 334 555.5 364.5Q588 395 648 395Q712 395 739.5 365.5Q767 336 761 288L760 280Q756 248 740.5 228Q725 208 701 185L537 32H727ZM40 0 718 780H764L86 0ZM37 390 41 422H143L184 733L84 671L70 699L203 782H226L179 422H280L276 390Z" glyph-name="onehalf" horiz-adv-x="800" unicode="&#189;" /><glyph d="M529 135 572 136H652L670 278L678 329ZM634 0 647 103H480L484 127L686 390H721L688 136H752L747 103H683L670 0ZM40 0 718 780H764L86 0ZM37 390 41 422H143L184 733L84 671L70 699L203 782H226L179 422H280L276 390Z" glyph-name="onequarter" horiz-adv-x="800" unicode="&#188;" /><glyph d="M932 213Q902 213 876 197.5Q850 182 834 157L831 132Q825 83 846.5 54.5Q868 26 904 26H908Q948 26 975 50.5Q1002 75 1007 118L1008 126Q1013 170 993.5 191.5Q974 213 936 213ZM1057 363Q1019 363 977 348Q935 333 901 296Q883 276 870 254Q857 232 849 209Q863 223 886 234Q909 245 937 245Q959 245 980 238Q1001 231 1016 216.5Q1031 202 1039 179.5Q1047 157 1043 126L1042 118Q1034 55 998 24.5Q962 -6 906 -6Q846 -6 817 33.5Q788 73 796 137L797 145Q803 193 820 234.5Q837 276 874 317Q914 361 963.5 378Q1013 395 1061 395ZM486 0 490 32H592L633 343L533 281L519 309L652 392H675L628 32H729L725 0ZM40 0 718 780H764L86 0ZM37 390 41 422H143L184 733L84 671L70 699L203 782H226L179 422H280L276 390Z" glyph-name="onesixteenth" horiz-adv-x="1100" unicode="&#61973;" /><glyph d="M37 390 41 422H143L184 733L84 671L70 699L203 782H226L179 422H280L276 390Z" glyph-name="onesuperior" horiz-adv-x="300" unicode="&#185;" /><glyph d="M34 331 39 369H292L287 331Z" glyph-name="onethirdemdash" horiz-adv-x="333" unicode="&#58481;" /><glyph d="M48 371 53 409H297L292 371Z" glyph-name="onethirdemdash.cap" horiz-adv-x="333" unicode="&#58499;" /><glyph d="M34 258H319L315 223H30ZM165 414Q195 414 218.5 421.5Q242 429 259.5 439.5Q277 450 288.5 462Q300 474 307 483L322 600L196 580Q150 572 125.5 553.5Q101 535 96 498L95 490Q91 461 108 437.5Q125 414 165 414ZM307 445Q284 419 249 399.5Q214 380 165 380Q108 380 79 411Q50 442 56 490L57 498Q61 530 75 550.5Q89 571 109 583.5Q129 596 153 602.5Q177 609 200 612L326 631L328 645Q332 672 330.5 692.5Q329 713 319 727Q309 741 290 748.5Q271 756 240 756Q186 756 160.5 727Q135 698 130 652H93L94 659Q97 683 106 706Q115 729 132.5 748Q150 767 176.5 778.5Q203 790 242 790Q285 790 311 779Q337 768 350.5 748.5Q364 729 367 702.5Q370 676 366 645L347 499L337 388H308Z" glyph-name="ordfeminine" horiz-adv-x="377" unicode="&#170;" /><glyph d="M34 258H344L340 223H30ZM108 577Q99 504 123.5 459.5Q148 415 212 415Q244 415 268.5 427Q293 439 311 460.5Q329 482 340 512Q351 542 356 577L358 593Q367 666 342.5 710.5Q318 755 254 755Q222 755 197.5 743Q173 731 155 709.5Q137 688 125.5 658Q114 628 110 593ZM394 577Q383 486 337 433Q291 380 212 380Q167 380 137 395.5Q107 411 90.5 437.5Q74 464 69.5 500Q65 536 70 577L72 593Q83 684 129 737Q175 790 254 790Q299 790 329 774.5Q359 759 375.5 732.5Q392 706 396.5 670Q401 634 396 593Z" glyph-name="ordmasculine" horiz-adv-x="410" unicode="&#186;" /><glyph d="M229 28Q314 28 365 88Q416 148 429 252L431 268Q443 363 416 423L115 75Q154 28 229 28ZM81 262Q69 166 96 107L396 454Q357 502 283 502Q198 502 147 442Q96 382 83 278ZM229 -10Q181 -10 146 4Q111 18 88 44L50 0H4L66 72Q45 109 38.5 156.5Q32 204 39 259L41 275Q48 333 66.5 381.5Q85 430 115 465.5Q145 501 187 520.5Q229 540 283 540Q331 540 365.5 526Q400 512 424 486L462 530H508L445 457Q467 421 473.5 373Q480 325 473 271L471 255Q464 197 445.5 148.5Q427 100 397 64.5Q367 29 325 9.5Q283 -10 229 -10Z" glyph-name="oslash" horiz-adv-x="540" unicode="&#248;" /><glyph d="M229 -10Q171 -10 131.5 11Q92 32 69 68.5Q46 105 39 154Q32 203 39 259L41 275Q48 333 66.5 381.5Q85 430 115 465.5Q145 501 187 520.5Q229 540 283 540Q341 540 380.5 519Q420 498 443 461.5Q466 425 473 376Q480 327 473 271L471 255Q464 197 445.5 148.5Q427 100 397 64.5Q367 29 325 9.5Q283 -10 229 -10ZM229 28Q314 28 365 88Q416 148 429 252L431 268Q438 321 432.5 364Q427 407 408.5 438Q390 469 359 485.5Q328 502 283 502Q198 502 147 442Q96 382 83 278L81 262Q74 209 79.5 166Q85 123 103.5 92Q122 61 153 44.5Q184 28 229 28ZM458 737Q452 694 430 673.5Q408 653 376 653Q354 653 337 662.5Q320 672 305 683Q290 694 276 703.5Q262 713 246 713Q230 713 218.5 702Q207 691 203 663H168Q173 706 195 726.5Q217 747 249 747Q271 747 288 737.5Q305 728 320 717Q335 706 349 696.5Q363 687 379 687Q395 687 407 698Q419 709 423 737Z" glyph-name="otilde" horiz-adv-x="540" unicode="&#245;" /><glyph d="M218 28Q303 28 351.5 88Q400 148 413 252L415 268Q422 322 416.5 365Q411 408 393.5 438.5Q376 469 346 485.5Q316 502 274 502Q246 502 222 494Q198 486 178 474Q158 462 142 446.5Q126 431 115 416L77 126Q84 109 96 92Q108 75 125.5 60.5Q143 46 166 37Q189 28 218 28ZM274 540Q331 540 369 519Q407 498 429 461.5Q451 425 457.5 376Q464 327 457 271L455 255Q448 197 430.5 148.5Q413 100 384 64.5Q355 29 313.5 9.5Q272 -10 218 -10Q187 -10 162.5 -1.5Q138 7 119.5 19Q101 31 88.5 45Q76 59 70 71L34 -200H-6L71 380L85 530H115L116 461Q140 496 182 518Q224 540 274 540Z" glyph-name="p" horiz-adv-x="525" unicode="p" /><glyph d="M271 0H231L274 330H267Q227 330 187.5 340.5Q148 351 117.5 376Q87 401 71 443Q55 485 63 549L66 573Q73 633 98 673Q123 713 157.5 737Q192 761 233.5 770.5Q275 780 316 780H483L381 0H341L438 742H368ZM279 368 328 742H311Q283 742 250.5 736Q218 730 188.5 712Q159 694 137 660.5Q115 627 108 573L105 549Q98 492 112 457Q126 422 151.5 402Q177 382 209 375Q241 368 270 368Z" glyph-name="paragraph" horiz-adv-x="500" unicode="&#182;" /><glyph d="M54 374Q65 464 90 536.5Q115 609 146.5 666.5Q178 724 212 767Q246 810 275 840H321Q284 800 248 753.5Q212 707 181 650Q150 593 127.5 524.5Q105 456 95 374L92 350Q82 272 87.5 207Q93 142 108 86Q123 30 145.5 -20.5Q168 -71 192 -120H147Q126 -75 104.5 -25Q83 25 68 82Q53 139 47 205.5Q41 272 51 350Z" glyph-name="parenleft" horiz-adv-x="300" unicode="(" /><glyph d="M68 402Q82 513 129 607.5Q176 702 239 780H285Q253 741 224.5 697.5Q196 654 172.5 606Q149 558 132.5 506.5Q116 455 109 402L106 378Q92 271 114 173.5Q136 76 180 0H136Q93 78 72 173Q51 268 65 379Z" glyph-name="parenleft.cap" horiz-adv-x="300" unicode="&#58513;" /><glyph d="M-21 3Q-13 64 10.5 110.5Q34 157 65 190H103Q74 158 48.5 110.5Q23 63 15 3L14 -5Q7 -58 19.5 -111Q32 -164 51 -200H15Q-6 -164 -17.5 -111.5Q-29 -59 -22 -5Z" glyph-name="parenleft.inf" horiz-adv-x="158" unicode="&#58750;" /><glyph d="M242 346Q231 256 206 183.5Q181 111 149.5 53.5Q118 -4 84 -47Q50 -90 21 -120H-25Q12 -80 48 -33.5Q84 13 115 70Q146 127 168.5 195Q191 263 201 346L204 370Q214 448 208.5 513Q203 578 188 634Q173 690 150.5 740.5Q128 791 104 840H149Q170 795 191.5 745Q213 695 228 638Q243 581 249 514.5Q255 448 245 370Z" glyph-name="parenright" horiz-adv-x="300" unicode=")" /><glyph d="M234 378Q220 267 173 172.5Q126 78 63 0H17Q48 39 77 82.5Q106 126 129.5 174Q153 222 169.5 273.5Q186 325 193 378L196 402Q209 508 187 605.5Q165 703 122 780H166Q209 702 230 607Q251 512 237 401Z" glyph-name="parenright.cap" horiz-adv-x="300" unicode="&#58514;" /><glyph d="M77 -13Q69 -74 45.5 -120.5Q22 -167 -9 -200H-47Q-18 -168 7.5 -120.5Q33 -73 41 -13L42 -5Q49 48 36.5 101Q24 154 5 190H41Q62 154 73.5 101.5Q85 49 78 -5Z" glyph-name="parenright.inf" horiz-adv-x="158" unicode="&#58751;" /><glyph d="M218 28Q303 28 351.5 88Q400 148 413 252L415 268Q422 322 416.5 365Q411 408 393.5 438.5Q376 469 346 485.5Q316 502 274 502Q246 502 222 494Q198 486 178 474Q158 462 142 446.5Q126 431 115 416L77 126Q84 109 96 92Q108 75 125.5 60.5Q143 46 166 37Q189 28 218 28ZM274 540Q331 540 369 519Q407 498 429 461.5Q451 425 457.5 376Q464 327 457 271L455 255Q448 197 430.5 148.5Q413 100 384 64.5Q355 29 313.5 9.5Q272 -10 218 -10Q187 -10 162.5 -1.5Q138 7 119.5 19Q101 31 88.5 45Q76 59 70 71L34 -200H-6L71 380L85 530H115L116 461Q140 496 182 518Q224 540 274 540ZM334 675H274L282 735H342Z" glyph-name="pdotaccent" horiz-adv-x="525" unicode="&#7767;" /><glyph d="M656 -10Q623 -10 594.5 0Q566 10 545.5 30.5Q525 51 515 82.5Q505 114 510 157L511 165Q516 207 532 238.5Q548 270 571.5 290Q595 310 624 320Q653 330 685 330Q718 330 746.5 320Q775 310 795.5 289.5Q816 269 826 237.5Q836 206 831 163L830 155Q825 113 809 81.5Q793 50 769.5 30Q746 10 717 0Q688 -10 656 -10ZM661 28Q709 28 746.5 59.5Q784 91 792 156L793 164Q801 227 770 259.5Q739 292 686 292H680Q632 292 594.5 260.5Q557 229 549 164L548 156Q540 93 571.5 60.5Q603 28 655 28ZM357 624Q365 687 334 719.5Q303 752 250 752H244Q196 752 158.5 720.5Q121 689 113 624L112 616Q104 553 135.5 520.5Q167 488 219 488H225Q273 488 310.5 519.5Q348 551 356 616ZM217 0 614 728Q596 723 576 719Q558 715 534.5 712.5Q511 710 484 710Q455 710 429 714Q403 718 380 723Q390 704 394.5 679.5Q399 655 395 623L394 615Q389 573 373 541.5Q357 510 333.5 490Q310 470 281 460Q252 450 220 450Q187 450 158.5 460Q130 470 109.5 490.5Q89 511 79 542.5Q69 574 74 617L75 625Q80 667 96 698.5Q112 730 135.5 750Q159 770 188 780Q217 790 249 790Q270 790 286 786.5Q302 783 316 778Q358 763 403 755.5Q448 748 489 748Q513 748 540.5 751.5Q568 755 594 759.5Q620 764 640.5 769.5Q661 775 671 780L666 743L261 0Z" glyph-name="percent" horiz-adv-x="900" unicode="%" /><glyph d="M81 0H21L28 60H88Z" glyph-name="period" horiz-adv-x="200" unicode="." /><glyph d="M131 0H71L78 60H138Z" glyph-name="period.T" horiz-adv-x="300" unicode="&#61826;" /><glyph d="M123 320H63L71 380H131Z" glyph-name="periodcentered" horiz-adv-x="200" unicode="&#183;" /><glyph d="M128 360H68L76 420H136Z" glyph-name="periodcentered.cap" horiz-adv-x="200" unicode="&#58497;" /><glyph d="M1036 -10Q1003 -10 974.5 0Q946 10 925.5 30.5Q905 51 895 82.5Q885 114 890 157L891 165Q896 207 912 238.5Q928 270 951.5 290Q975 310 1004 320Q1033 330 1065 330Q1098 330 1126.5 320Q1155 310 1175.5 289.5Q1196 269 1206 237.5Q1216 206 1211 163L1210 155Q1205 113 1189 81.5Q1173 50 1149.5 30Q1126 10 1097 0Q1068 -10 1036 -10ZM1041 28Q1089 28 1126.5 59.5Q1164 91 1172 156L1173 164Q1181 227 1150 259.5Q1119 292 1066 292H1060Q1012 292 974.5 260.5Q937 229 929 164L928 156Q920 93 951.5 60.5Q983 28 1035 28ZM656 -10Q623 -10 594.5 0Q566 10 545.5 30.5Q525 51 515 82.5Q505 114 510 157L511 165Q516 207 532 238.5Q548 270 571.5 290Q595 310 624 320Q653 330 685 330Q718 330 746.5 320Q775 310 795.5 289.5Q816 269 826 237.5Q836 206 831 163L830 155Q825 113 809 81.5Q793 50 769.5 30Q746 10 717 0Q688 -10 656 -10ZM661 28Q709 28 746.5 59.5Q784 91 792 156L793 164Q801 227 770 259.5Q739 292 686 292H680Q632 292 594.5 260.5Q557 229 549 164L548 156Q540 93 571.5 60.5Q603 28 655 28ZM357 624Q365 687 334 719.5Q303 752 250 752H244Q196 752 158.5 720.5Q121 689 113 624L112 616Q104 553 135.5 520.5Q167 488 219 488H225Q273 488 310.5 519.5Q348 551 356 616ZM217 0 614 728Q596 723 576 719Q558 715 534.5 712.5Q511 710 484 710Q455 710 429 714Q403 718 380 723Q390 704 394.5 679.5Q399 655 395 623L394 615Q389 573 373 541.5Q357 510 333.5 490Q310 470 281 460Q252 450 220 450Q187 450 158.5 460Q130 470 109.5 490.5Q89 511 79 542.5Q69 574 74 617L75 625Q80 667 96 698.5Q112 730 135.5 750Q159 770 188 780Q217 790 249 790Q270 790 286 786.5Q302 783 316 778Q358 763 403 755.5Q448 748 489 748Q513 748 540.5 751.5Q568 755 594 759.5Q620 764 640.5 769.5Q661 775 671 780L666 743L261 0Z" glyph-name="perthousand" horiz-adv-x="1280" unicode="&#8240;" /><glyph d="M354 640 323 410H553L548 370H318L288 140H248L278 370H48L53 410H283L314 640Z" glyph-name="plus" horiz-adv-x="600" unicode="+" /><glyph d="M132 121 118 11H228L223 -22H113L99 -131H66L80 -22H-29L-24 11H85L99 121Z" glyph-name="plus.inf" horiz-adv-x="300" unicode="&#58747;" /><glyph d="M27 210H527L522 170H22ZM354 640 334 490H564L559 450H329L309 300H269L289 450H59L64 490H294L314 640Z" glyph-name="plusminus" horiz-adv-x="600" unicode="&#177;" /><glyph d="M100 390Q100 315 128.5 249.5Q157 184 205.5 135.5Q254 87 319.5 58.5Q385 30 460 30Q535 30 600.5 58.5Q666 87 714.5 135.5Q763 184 791.5 249.5Q820 315 820 390Q820 465 791.5 530.5Q763 596 714.5 644.5Q666 693 600.5 721.5Q535 750 460 750Q385 750 319.5 721.5Q254 693 205.5 644.5Q157 596 128.5 530.5Q100 465 100 390ZM60 390Q60 473 91.5 546Q123 619 177 673Q231 727 304 758.5Q377 790 460 790Q543 790 616 758.5Q689 727 743 673Q797 619 828.5 546Q860 473 860 390Q860 307 828.5 234Q797 161 743 107Q689 53 616 21.5Q543 -10 460 -10Q377 -10 304 21.5Q231 53 177 107Q123 161 91.5 234Q60 307 60 390ZM471 391Q488 391 506 394.5Q524 398 539 408.5Q554 419 563.5 437.5Q573 456 573 486V494Q573 524 563.5 542.5Q554 561 539 571.5Q524 582 506 585.5Q488 589 471 589H351V391ZM351 155H311V625H471Q496 625 521.5 619.5Q547 614 567 599.5Q587 585 600 560Q613 535 613 496V484Q613 445 600 420Q587 395 567 380.5Q547 366 521.5 360.5Q496 355 471 355H351Z" glyph-name="published" horiz-adv-x="920" unicode="&#8471;" /><glyph glyph-name="punctuationspace" horiz-adv-x="180" unicode="&#8200;" /><glyph d="M419 404Q412 420 400 437.5Q388 455 370.5 469.5Q353 484 330 493Q307 502 278 502Q193 502 144.5 442Q96 382 83 278L81 262Q74 208 79.5 165Q85 122 102.5 91.5Q120 61 150 44.5Q180 28 222 28Q279 28 317 53.5Q355 79 381 114ZM373 60Q350 31 311 10.5Q272 -10 222 -10Q165 -10 127 11Q89 32 67 68.5Q45 105 38.5 154Q32 203 39 259L41 275Q48 333 65.5 381.5Q83 430 112 465.5Q141 501 182.5 520.5Q224 540 278 540Q309 540 334.5 531Q360 522 379.5 508.5Q399 495 412 479Q425 463 431 449L450 530H480L456 380L379 -200H339Z" glyph-name="q" horiz-adv-x="525" unicode="q" /><glyph d="M201 0H141L148 60H208ZM267 752Q221 752 189.5 734Q158 716 137 683Q116 650 103.5 603.5Q91 557 84 500H44L46 513Q56 576 70.5 627Q85 678 109.5 714.5Q134 751 172 770.5Q210 790 267 790Q356 790 397 747.5Q438 705 438 630Q438 569 423 527Q408 485 385 452.5Q362 420 334.5 393.5Q307 367 281 336.5Q255 306 234.5 268Q214 230 206 175H182Q187 230 205 269.5Q223 309 246.5 341Q270 373 296.5 401Q323 429 345 460.5Q367 492 381.5 530Q396 568 396 620Q396 686 366 719Q336 752 267 752Z" glyph-name="question" horiz-adv-x="440" unicode="?" /><glyph d="M263 470H203L210 530H270ZM142 -172Q227 -172 271 -113Q315 -54 330 60H370L368 47Q358 -16 341.5 -64Q325 -112 298 -144.5Q271 -177 233 -193.5Q195 -210 142 -210Q98 -210 66.5 -199Q35 -188 15 -168.5Q-5 -149 -14.5 -121Q-24 -93 -24 -60Q-24 -2 -9.5 36.5Q5 75 27.5 102.5Q50 130 77.5 152.5Q105 175 130.5 201.5Q156 228 176.5 264Q197 300 205 355H229Q224 300 206.5 262Q189 224 165.5 194.5Q142 165 116 141Q90 117 68 90.5Q46 64 32 30.5Q18 -3 18 -50Q18 -108 45.5 -140Q73 -172 142 -172Z" glyph-name="questiondown" horiz-adv-x="440" unicode="&#191;" /><glyph d="M295 720H235L242 780H302ZM176 28Q222 28 253.5 46Q285 64 306 97Q327 130 339 176.5Q351 223 359 280H399L397 267Q387 204 372.5 153Q358 102 333.5 65.5Q309 29 271 9.5Q233 -10 176 -10Q87 -10 46 32.5Q5 75 5 150Q5 211 20 253Q35 295 58 327.5Q81 360 108.5 386.5Q136 413 162 443.5Q188 474 208.5 512Q229 550 237 605H261Q256 550 238 510.5Q220 471 196.5 439Q173 407 146.5 379Q120 351 98 319.5Q76 288 61.5 250Q47 212 47 160Q47 94 77 61Q107 28 176 28Z" glyph-name="questiondown.cap" horiz-adv-x="440" unicode="&#58436;" /><glyph d="M276 780 232 530H208L230 780ZM176 780 132 530H108L130 780Z" glyph-name="quotedbl" horiz-adv-x="300" unicode="&quot;" /><glyph d="M82 12Q66 -110 -24 -110L-20 -80Q9 -80 26 -63.5Q43 -47 51 0H21L28 60H88ZM202 12Q186 -110 96 -110L100 -80Q129 -80 146 -63.5Q163 -47 171 0H141L148 60H208Z" glyph-name="quotedblbase" horiz-adv-x="320" unicode="&#8222;" /><glyph d="M198 668Q214 790 305 790L301 760Q272 760 255 743.5Q238 727 230 680H260L252 620H192ZM78 668Q94 790 185 790L181 760Q152 760 135 743.5Q118 727 110 680H140L132 620H72Z" glyph-name="quotedblleft" horiz-adv-x="320" unicode="&#8220;" /><glyph d="M177 732Q161 610 71 610L75 640Q104 640 120.5 656.5Q137 673 145 720H115L123 780H183ZM297 732Q281 610 191 610L195 640Q224 640 240.5 656.5Q257 673 265 720H235L243 780H303Z" glyph-name="quotedblright" horiz-adv-x="320" unicode="&#8221;" /><glyph d="M78 668Q94 790 185 790L181 760Q152 760 135 743.5Q118 727 110 680H140L132 620H72Z" glyph-name="quoteleft" horiz-adv-x="200" unicode="&#8216;" /><glyph d="M177 732Q161 610 71 610L75 640Q104 640 120.5 656.5Q137 673 145 720H115L123 780H183Z" glyph-name="quoteright" horiz-adv-x="200" unicode="&#8217;" /><glyph d="M82 12Q66 -110 -24 -110L-20 -80Q9 -80 26 -63.5Q43 -47 51 0H21L28 60H88Z" glyph-name="quotesinglbase" horiz-adv-x="200" unicode="&#8218;" /><glyph d="M176 780 132 530H108L130 780Z" glyph-name="quotesingle" horiz-adv-x="200" unicode="&apos;" /><glyph d="M277 540Q279 540 282 539.5Q285 539 287 539H291L287 502H277Q245 502 219.5 493.5Q194 485 174 471.5Q154 458 139 441.5Q124 425 114 410L61 0H21L71 380L85 530H115V457Q138 492 179 516Q220 540 277 540Z" glyph-name="r" horiz-adv-x="315" unicode="r" /><glyph d="M277 540Q279 540 282 539.5Q285 539 287 539H291L287 502H277Q245 502 219.5 493.5Q194 485 174 471.5Q154 458 139 441.5Q124 425 114 410L61 0H21L71 380L85 530H115V457Q138 492 179 516Q220 540 277 540ZM332 780 221 620H179L290 780Z" glyph-name="racute" horiz-adv-x="315" unicode="&#341;" /><glyph d="M277 540Q279 540 282 539.5Q285 539 287 539H291L287 502H277Q245 502 219.5 493.5Q194 485 174 471.5Q154 458 139 441.5Q124 425 114 410L61 0H21L71 380L85 530H115V457Q138 492 179 516Q220 540 277 540ZM119 780 203 656 319 780H366L215 620H185L76 780Z" glyph-name="rcaron" horiz-adv-x="315" unicode="&#345;" /><glyph d="M277 540Q279 540 282 539.5Q285 539 287 539H291L287 502H277Q245 502 219.5 493.5Q194 485 174 471.5Q154 458 139 441.5Q124 425 114 410L61 0H21L71 380L85 530H115V457Q138 492 179 516Q220 540 277 540ZM58 -108Q52 -155 24.5 -182.5Q-3 -210 -45 -210L-41 -180Q-17 -180 1.5 -166Q20 -152 27 -120H-3L5 -60H65Z" glyph-name="rcommaaccent" horiz-adv-x="315" unicode="&#343;" /><glyph d="M197 700Q197 725 166 725H133V671H166Q197 671 197 696ZM225 694Q225 659 194 648L225 579H196L168 645H133V579H105V751H171Q195 751 210 738Q225 725 225 702ZM44 665Q44 640 53.5 618Q63 596 79.5 579.5Q96 563 118 553.5Q140 544 165 544Q190 544 212 553.5Q234 563 250.5 579.5Q267 596 276.5 618Q286 640 286 665Q286 690 276.5 712Q267 734 250.5 750.5Q234 767 212 776.5Q190 786 165 786Q140 786 118 776.5Q96 767 79.5 750.5Q63 734 53.5 712Q44 690 44 665ZM20 665Q20 695 31.5 721.5Q43 748 62.5 767.5Q82 787 108.5 798.5Q135 810 165 810Q195 810 221.5 798.5Q248 787 267.5 767.5Q287 748 298.5 721.5Q310 695 310 665Q310 635 298.5 608.5Q287 582 267.5 562.5Q248 543 221.5 531.5Q195 520 165 520Q135 520 108.5 531.5Q82 543 62.5 562.5Q43 582 31.5 608.5Q20 635 20 665Z" glyph-name="registered" horiz-adv-x="330" unicode="&#174;" /><glyph d="M100 390Q100 315 128.5 249.5Q157 184 205.5 135.5Q254 87 319.5 58.5Q385 30 460 30Q535 30 600.5 58.5Q666 87 714.5 135.5Q763 184 791.5 249.5Q820 315 820 390Q820 465 791.5 530.5Q763 596 714.5 644.5Q666 693 600.5 721.5Q535 750 460 750Q385 750 319.5 721.5Q254 693 205.5 644.5Q157 596 128.5 530.5Q100 465 100 390ZM60 390Q60 473 91.5 546Q123 619 177 673Q231 727 304 758.5Q377 790 460 790Q543 790 616 758.5Q689 727 743 673Q797 619 828.5 546Q860 473 860 390Q860 307 828.5 234Q797 161 743 107Q689 53 616 21.5Q543 -10 460 -10Q377 -10 304 21.5Q231 53 177 107Q123 161 91.5 234Q60 307 60 390ZM471 391Q488 391 506 394.5Q524 398 539 408.5Q554 419 563.5 437.5Q573 456 573 486V494Q573 524 563.5 542.5Q554 561 539 571.5Q524 582 506 585.5Q488 589 471 589H351V391ZM351 155H311V625H471Q496 625 521.5 619.5Q547 614 567 599.5Q587 585 600 560Q613 535 613 496V484Q613 430 589 402Q565 374 532 363L613 155H570L492 356Q487 355 481.5 355Q476 355 471 355H351Z" glyph-name="registered.cap" horiz-adv-x="920" unicode="&#59804;" /><glyph d="M153 780 145 720H115Q110 673 123 656.5Q136 640 165 640L161 610Q71 610 87 732L93 780ZM273 780 265 720H235Q230 673 243 656.5Q256 640 285 640L281 610Q191 610 207 732L213 780Z" glyph-name="reversequotedblleft" horiz-adv-x="320" unicode="&#8223;" /><glyph d="M153 780 145 720H115Q110 673 123 656.5Q136 640 165 640L161 610Q71 610 87 732L93 780Z" glyph-name="reversequoteleft" horiz-adv-x="200" unicode="&#8219;" /><glyph d="M235 690Q235 670 249 656Q263 642 286 642Q311 642 331 659Q351 676 351 710Q351 730 337 744Q323 758 300 758Q275 758 255 741Q235 724 235 690ZM384 710Q384 668 356.5 639Q329 610 286 610Q248 610 225 633Q202 656 202 690Q202 732 229.5 761Q257 790 300 790Q338 790 361 767Q384 744 384 710Z" glyph-name="ring" horiz-adv-x="500" unicode="&#730;" /><glyph d="M257 870Q254 846 268.5 829Q283 812 307 812Q331 812 350.5 829Q370 846 373 870Q376 894 361.5 911Q347 928 323 928Q299 928 279.5 911Q260 894 257 870ZM225 870Q228 889 237 905.5Q246 922 260 934Q274 946 291 953Q308 960 327 960Q365 960 387.5 934Q410 908 405 870Q402 851 393 834.5Q384 818 370 806Q356 794 339 787Q322 780 303 780Q265 780 242.5 806Q220 832 225 870Z" glyph-name="ring.cap" horiz-adv-x="500" unicode="&#58410;" /><glyph d="M326 368Q354 368 386.5 374Q419 380 448.5 398Q478 416 500 449.5Q522 483 529 537L532 561Q539 618 525 653Q511 688 485.5 708Q460 728 427.5 735Q395 742 367 742H208L159 368ZM141 228H356L351 190H136L111 0H71L96 190H1L6 228H101L114 330H19L24 368H119L173 780H370Q410 780 449.5 769.5Q489 759 519.5 734Q550 709 566 667Q582 625 574 561L571 537Q563 477 538.5 437Q514 397 479.5 373Q445 349 403.5 339.5Q362 330 321 330H154Z" glyph-name="ruble" horiz-adv-x="600" unicode="&#8381;" /><glyph d="M220 28Q294 28 333 55.5Q372 83 380 135Q384 165 378.5 185.5Q373 206 355.5 219.5Q338 233 308 241Q278 249 235 256Q186 263 153.5 276.5Q121 290 102 308Q83 326 76.5 349Q70 372 73 398L74 406Q82 466 132 503Q182 540 270 540Q325 540 362 527Q399 514 419.5 491.5Q440 469 446.5 437Q453 405 448 368L447 360H408Q412 393 408 419Q404 445 388.5 463.5Q373 482 344 492Q315 502 270 502Q202 502 162.5 478Q123 454 116 402Q113 378 118 360Q123 342 139.5 328Q156 314 186.5 304Q217 294 265 288Q355 276 393 240.5Q431 205 423 139L422 131Q414 68 361 29Q308 -10 220 -10Q161 -10 124 3.5Q87 17 66.5 39.5Q46 62 39.5 91Q33 120 37 152L38 160H77Q73 131 77.5 107Q82 83 98.5 65.5Q115 48 144.5 38Q174 28 220 28Z" glyph-name="s" horiz-adv-x="520" unicode="s" /><glyph d="M220 28Q294 28 333 55.5Q372 83 380 135Q384 165 378.5 185.5Q373 206 355.5 219.5Q338 233 308 241Q278 249 235 256Q186 263 153.5 276.5Q121 290 102 308Q83 326 76.5 349Q70 372 73 398L74 406Q82 466 132 503Q182 540 270 540Q325 540 362 527Q399 514 419.5 491.5Q440 469 446.5 437Q453 405 448 368L447 360H408Q412 393 408 419Q404 445 388.5 463.5Q373 482 344 492Q315 502 270 502Q202 502 162.5 478Q123 454 116 402Q113 378 118 360Q123 342 139.5 328Q156 314 186.5 304Q217 294 265 288Q355 276 393 240.5Q431 205 423 139L422 131Q414 68 361 29Q308 -10 220 -10Q161 -10 124 3.5Q87 17 66.5 39.5Q46 62 39.5 91Q33 120 37 152L38 160H77Q73 131 77.5 107Q82 83 98.5 65.5Q115 48 144.5 38Q174 28 220 28ZM424 780 313 620H271L382 780Z" glyph-name="sacute" horiz-adv-x="520" unicode="&#347;" /><glyph d="M220 28Q294 28 333 55.5Q372 83 380 135Q384 165 378.5 185.5Q373 206 355.5 219.5Q338 233 308 241Q278 249 235 256Q186 263 153.5 276.5Q121 290 102 308Q83 326 76.5 349Q70 372 73 398L74 406Q82 466 132 503Q182 540 270 540Q325 540 362 527Q399 514 419.5 491.5Q440 469 446.5 437Q453 405 448 368L447 360H408Q412 393 408 419Q404 445 388.5 463.5Q373 482 344 492Q315 502 270 502Q202 502 162.5 478Q123 454 116 402Q113 378 118 360Q123 342 139.5 328Q156 314 186.5 304Q217 294 265 288Q355 276 393 240.5Q431 205 423 139L422 131Q414 68 361 29Q308 -10 220 -10Q161 -10 124 3.5Q87 17 66.5 39.5Q46 62 39.5 91Q33 120 37 152L38 160H77Q73 131 77.5 107Q82 83 98.5 65.5Q115 48 144.5 38Q174 28 220 28ZM211 780 295 656 411 780H458L307 620H277L168 780Z" glyph-name="scaron" horiz-adv-x="520" unicode="&#353;" /><glyph d="M220 28Q294 28 333 55.5Q372 83 380 135Q384 165 378.5 185.5Q373 206 355.5 219.5Q338 233 308 241Q278 249 235 256Q186 263 153.5 276.5Q121 290 102 308Q83 326 76.5 349Q70 372 73 398L74 406Q82 466 132 503Q182 540 270 540Q325 540 362 527Q399 514 419.5 491.5Q440 469 446.5 437Q453 405 448 368L447 360H408Q412 393 408 419Q404 445 388.5 463.5Q373 482 344 492Q315 502 270 502Q202 502 162.5 478Q123 454 116 402Q113 378 118 360Q123 342 139.5 328Q156 314 186.5 304Q217 294 265 288Q355 276 393 240.5Q431 205 423 139L422 131Q414 70 364 31.5Q314 -7 230 -10L202 -64H207Q222 -64 237 -67Q252 -70 264 -77.5Q276 -85 284 -98Q292 -111 292 -130Q292 -174 262 -192Q232 -210 191 -210Q166 -210 142 -202Q118 -194 104 -183L119 -155Q130 -163 149 -170Q168 -177 191 -177Q223 -177 240.5 -167Q258 -157 258 -134Q258 -111 240 -104Q222 -97 199 -97Q193 -97 188 -97.5Q183 -98 179 -98Q175 -99 171 -99L157 -83L194 -9Q144 -6 111.5 8.5Q79 23 61.5 45Q44 67 38.5 94.5Q33 122 37 152L38 160H77Q73 131 77.5 107Q82 83 98.5 65.5Q115 48 144.5 38Q174 28 220 28Z" glyph-name="scedilla" horiz-adv-x="520" unicode="&#351;" /><glyph d="M220 28Q294 28 333 55.5Q372 83 380 135Q384 165 378.5 185.5Q373 206 355.5 219.5Q338 233 308 241Q278 249 235 256Q186 263 153.5 276.5Q121 290 102 308Q83 326 76.5 349Q70 372 73 398L74 406Q82 466 132 503Q182 540 270 540Q325 540 362 527Q399 514 419.5 491.5Q440 469 446.5 437Q453 405 448 368L447 360H408Q412 393 408 419Q404 445 388.5 463.5Q373 482 344 492Q315 502 270 502Q202 502 162.5 478Q123 454 116 402Q113 378 118 360Q123 342 139.5 328Q156 314 186.5 304Q217 294 265 288Q355 276 393 240.5Q431 205 423 139L422 131Q414 68 361 29Q308 -10 220 -10Q161 -10 124 3.5Q87 17 66.5 39.5Q46 62 39.5 91Q33 120 37 152L38 160H77Q73 131 77.5 107Q82 83 98.5 65.5Q115 48 144.5 38Q174 28 220 28ZM147 620 298 780H328L437 620H394L310 744L194 620Z" glyph-name="scircumflex" horiz-adv-x="520" unicode="&#349;" /><glyph d="M220 28Q294 28 333 55.5Q372 83 380 135Q384 165 378.5 185.5Q373 206 355.5 219.5Q338 233 308 241Q278 249 235 256Q186 263 153.5 276.5Q121 290 102 308Q83 326 76.5 349Q70 372 73 398L74 406Q82 466 132 503Q182 540 270 540Q325 540 362 527Q399 514 419.5 491.5Q440 469 446.5 437Q453 405 448 368L447 360H408Q412 393 408 419Q404 445 388.5 463.5Q373 482 344 492Q315 502 270 502Q202 502 162.5 478Q123 454 116 402Q113 378 118 360Q123 342 139.5 328Q156 314 186.5 304Q217 294 265 288Q355 276 393 240.5Q431 205 423 139L422 131Q414 68 361 29Q308 -10 220 -10Q161 -10 124 3.5Q87 17 66.5 39.5Q46 62 39.5 91Q33 120 37 152L38 160H77Q73 131 77.5 107Q82 83 98.5 65.5Q115 48 144.5 38Q174 28 220 28ZM226 -108Q220 -155 192.5 -182.5Q165 -210 123 -210L127 -180Q151 -180 169.5 -166Q188 -152 195 -120H165L173 -60H233Z" glyph-name="scommaaccent" horiz-adv-x="520" unicode="&#537;" /><glyph d="M210 244Q160 248 127 259.5Q94 271 75 289.5Q56 308 49.5 333Q43 358 47 388L48 396Q54 443 84 475Q114 507 170 523Q128 537 114.5 569Q101 601 106 643L107 651Q111 680 124 705.5Q137 731 161 749.5Q185 768 220.5 779Q256 790 303 790Q358 790 394 777.5Q430 765 450.5 743Q471 721 478 689.5Q485 658 482 621L481 610H441Q445 643 440.5 669Q436 695 420 713.5Q404 732 375 742Q346 752 303 752Q228 752 187.5 719.5Q147 687 147 625Q147 602 153.5 586.5Q160 571 176.5 561Q193 551 221.5 545Q250 539 294 536Q343 532 376.5 520.5Q410 509 429 490.5Q448 472 454.5 447Q461 422 457 392L456 384Q450 337 420 305Q390 273 334 257Q376 243 389.5 211Q403 179 398 137L397 129Q393 100 379.5 74.5Q366 49 342 30Q318 11 283 0.5Q248 -10 201 -10Q146 -10 110 2.5Q74 15 53.5 37Q33 59 26 90Q19 121 22 159L23 170H63Q59 137 63.5 111Q68 85 84 66.5Q100 48 128.5 38Q157 28 201 28Q276 28 316.5 60.5Q357 93 357 155Q357 178 350.5 193.5Q344 209 327.5 219Q311 229 282.5 235Q254 241 210 244ZM249 279Q330 279 373.5 315Q417 351 417 411Q417 461 376 481Q335 501 268 501H255Q174 501 130.5 465Q87 429 87 369Q87 319 128 299Q169 279 236 279Z" glyph-name="section" horiz-adv-x="500" unicode="&#167;" /><glyph d="M128 360H68L76 420H136ZM82 12Q66 -110 -24 -110L-20 -80Q9 -80 26 -63.5Q43 -47 51 0H21L28 60H88Z" glyph-name="semicolon" horiz-adv-x="200" unicode=";" /><glyph d="M178 360H118L126 420H186ZM132 12Q116 -110 26 -110L30 -80Q59 -80 76 -63.5Q93 -47 101 0H71L78 60H138Z" glyph-name="semicolon.T" horiz-adv-x="300" unicode="&#61829;" /><glyph d="M363 530H323L263 750L265 680V530H231V800H283L343 582L403 800H455V530H421V680L423 750ZM100 653Q55 659 39 677.5Q23 696 23 725V729Q23 764 45 784Q67 804 108 804Q156 804 173.5 782Q191 760 191 715V707H157Q157 742 147 757Q137 772 109 772H107Q57 772 57 732V729Q57 709 68 698.5Q79 688 114 683Q159 677 176.5 658.5Q194 640 194 608V604Q194 567 172.5 544.5Q151 522 108 522Q63 522 41.5 546.5Q20 571 20 616V620H54Q54 588 66 571Q78 554 107 554H109Q136 554 148 566Q160 578 160 601V603Q160 625 146.5 636.5Q133 648 100 653Z" glyph-name="servicemark" horiz-adv-x="510" unicode="&#8480;" /><glyph d="M118 780H598L595 755L189 0H144L543 741L425 740H153L121 500H81Z" glyph-name="seven" horiz-adv-x="600" unicode="7" /><glyph d="M4 190H250L247 168L49 -200H11L204 158L149 157H32L18 50H-14Z" glyph-name="seven.inf" horiz-adv-x="300" unicode="&#58744;" /><glyph d="M932 213Q902 213 876 197.5Q850 182 834 157L831 132Q825 83 846.5 54.5Q868 26 904 26H908Q948 26 975 50.5Q1002 75 1007 118L1008 126Q1013 170 993.5 191.5Q974 213 936 213ZM1057 363Q1019 363 977 348Q935 333 901 296Q883 276 870 254Q857 232 849 209Q863 223 886 234Q909 245 937 245Q959 245 980 238Q1001 231 1016 216.5Q1031 202 1039 179.5Q1047 157 1043 126L1042 118Q1034 55 998 24.5Q962 -6 906 -6Q846 -6 817 33.5Q788 73 796 137L797 145Q803 193 820 234.5Q837 276 874 317Q914 361 963.5 378Q1013 395 1061 395ZM486 0 490 32H592L633 343L533 281L519 309L652 392H675L628 32H729L725 0ZM40 0 718 780H764L86 0ZM82 780H328L325 758L127 390H89L282 748L227 747H110L96 640H64Z" glyph-name="sevensixteenths" horiz-adv-x="1100" unicode="&#61976;" /><glyph d="M310 450Q239 450 185 415Q131 380 95 323Q93 314 91 304Q89 295 87.5 284Q86 273 85 260Q80 197 91.5 153Q103 109 128 81.5Q153 54 188.5 42Q224 30 266 30H272Q366 30 421.5 82Q477 134 489 232L490 240Q496 289 486.5 328Q477 367 454 394Q431 421 396 435.5Q361 450 316 450ZM564 750Q531 750 490.5 742.5Q450 735 406.5 718Q363 701 318.5 673Q274 645 234 603Q189 556 159.5 502Q130 448 112 396Q127 415 148.5 432.5Q170 450 196.5 462.5Q223 475 253 482.5Q283 490 313 490Q366 490 409.5 474.5Q453 459 483 428.5Q513 398 526.5 351Q540 304 532 241L531 233Q523 170 500 124Q477 78 442.5 48.5Q408 19 364 4.5Q320 -10 269 -10Q213 -10 168 8Q123 26 93 61Q63 96 49.5 147.5Q36 199 45 267L46 275Q52 321 63 367Q74 413 92.5 458Q111 503 138.5 545.5Q166 588 204 629Q246 673 293 703.5Q340 734 388.5 753.5Q437 773 483.5 781.5Q530 790 570 790Z" glyph-name="six" horiz-adv-x="600" unicode="6" /><glyph d="M105 13Q75 13 49 -2.5Q23 -18 7 -43L4 -68Q-2 -117 19.5 -145.5Q41 -174 77 -174H81Q121 -174 148 -149.5Q175 -125 180 -82L181 -74Q186 -30 166.5 -8.5Q147 13 109 13ZM230 163Q192 163 150 148Q108 133 74 96Q56 76 43 54Q30 32 22 9Q36 23 59 34Q82 45 110 45Q132 45 153 38Q174 31 189 16.5Q204 2 212 -20.5Q220 -43 216 -74L215 -82Q207 -145 171 -175.5Q135 -206 79 -206Q19 -206 -10 -166.5Q-39 -127 -31 -63L-30 -55Q-24 -7 -7 34.5Q10 76 47 117Q87 161 136.5 178Q186 195 234 195Z" glyph-name="six.inf" horiz-adv-x="300" unicode="&#58743;" /><glyph glyph-name="sixperemspace" horiz-adv-x="167" unicode="&#8198;" /><glyph d="M-10 -120H-49L306 840H346Z" glyph-name="slash" horiz-adv-x="300" unicode="/" /><glyph d="M-15 0 279 780H319L25 0Z" glyph-name="slash.cap" horiz-adv-x="300" unicode="&#58465;" /><glyph glyph-name="space" horiz-adv-x="200" unicode=" " /><glyph d="M451 790Q463 771 486 742.5Q509 714 540 682Q571 650 607.5 618Q644 586 684 560Q717 539 746.5 515.5Q776 492 798.5 464.5Q821 437 834.5 405Q848 373 848 334Q848 297 834.5 265.5Q821 234 797 210.5Q773 187 741 173.5Q709 160 672 160Q635 160 604 173.5Q573 187 548 209.5Q523 232 504 261Q485 290 472 321L469 320Q473 269 479.5 227Q486 185 495.5 147Q505 109 518.5 73Q532 37 551 0H349Q368 37 381.5 73Q395 109 404.5 147Q414 185 420.5 227Q427 269 431 320L428 321Q415 290 396 261Q377 232 352 209.5Q327 187 296 173.5Q265 160 228 160Q191 160 159 173.5Q127 187 103 210.5Q79 234 65.5 265.5Q52 297 52 334Q52 373 65.5 405Q79 437 101.5 464.5Q124 492 153.5 515.5Q183 539 216 560Q256 586 292.5 618Q329 650 360 682Q391 714 414 742.5Q437 771 449 790Z" glyph-name="spade" horiz-adv-x="900" unicode="&#9824;" /><glyph d="M198 157 431 390 198 623 227 652 460 419 693 652 722 623 489 390 722 157 693 128 460 361 227 128ZM110 740V40H810V740ZM70 0V780H850V0Z" glyph-name="squaremultiply" horiz-adv-x="920" unicode="&#8864;" /><glyph d="M370 752Q320 752 286 734.5Q252 717 230 684.5Q208 652 198.5 606Q189 560 189 503Q189 485 190.5 460Q192 435 195 410H404L399 370H200Q205 331 210.5 290.5Q216 250 220 208Q224 166 225 124Q226 82 222 40H496L491 0H11L16 40H185Q188 85 185.5 127Q183 169 177.5 209.5Q172 250 165.5 290Q159 330 154 370H59L64 410H149Q147 428 146 450Q145 472 145 503Q145 645 200 717.5Q255 790 370 790Q432 790 473.5 769Q515 748 538 711Q561 674 567 625Q573 576 564 519L561 500H521Q530 557 525.5 603.5Q521 650 502.5 683Q484 716 451 734Q418 752 370 752Z" glyph-name="sterling" horiz-adv-x="600" unicode="&#163;" /><glyph d="M360 530 355 492H175L129 140Q124 107 129 85Q134 63 145.5 50.5Q157 38 174.5 33Q192 28 212 28Q234 28 255.5 31.5Q277 35 285 37L281 0Q275 -2 257 -6Q239 -10 212 -10Q149 -10 113.5 25Q78 60 88 135L135 492H50L55 530H140L160 680H200L180 530Z" glyph-name="t" horiz-adv-x="390" unicode="t" /><glyph d="M360 530 355 492H175L148 284H288L283 246H143L129 140Q124 107 129 85Q134 63 145.5 50.5Q157 38 174.5 33Q192 28 212 28Q234 28 255.5 31.5Q277 35 285 37L281 0Q275 -2 257 -6Q239 -10 212 -10Q149 -10 113.5 25Q78 60 88 135L102 246H18L23 284H107L135 492H50L55 530H140L160 680H200L180 530Z" glyph-name="tbar" horiz-adv-x="390" unicode="&#359;" /><glyph d="M360 530 355 492H175L129 140Q124 107 129 85Q134 63 145.5 50.5Q157 38 174.5 33Q192 28 212 28Q234 28 255.5 31.5Q277 35 285 37L281 0Q275 -2 257 -6Q239 -10 212 -10Q149 -10 113.5 25Q78 60 88 135L135 492H50L55 530H140L160 680H200L180 530ZM341 800 302 620H272L296 800Z" glyph-name="tcaron" horiz-adv-x="390" unicode="&#357;" /><glyph d="M360 530 355 492H175L129 140Q124 107 129 85Q134 63 145.5 50.5Q157 38 174.5 33Q192 28 212 28Q234 28 255.5 31.5Q277 35 285 37L281 0Q275 -2 257 -6Q239 -10 212 -10Q149 -10 113.5 25Q78 60 88 135L135 492H50L55 530H140L160 680H200L180 530ZM196 -108Q190 -155 162.5 -182.5Q135 -210 93 -210L97 -180Q121 -180 139.5 -166Q158 -152 165 -120H135L143 -60H203Z" glyph-name="tcommaaccent" horiz-adv-x="390" unicode="&#355;" /><glyph d="M360 530 355 492H175L129 140Q124 107 129 85Q134 63 145.5 50.5Q157 38 174.5 33Q192 28 212 28Q234 28 255.5 31.5Q277 35 285 37L281 0Q275 -2 257 -6Q239 -10 212 -10Q149 -10 113.5 25Q78 60 88 135L135 492H50L55 530H140L160 680H200L180 530ZM219 745H159L166 805H226Z" glyph-name="tdotaccent" horiz-adv-x="390" unicode="&#7787;" /><glyph glyph-name="thinspace" horiz-adv-x="150" unicode="&#8201;" /><glyph d="M1232 213Q1202 213 1176 197.5Q1150 182 1134 157L1131 132Q1125 83 1146.5 54.5Q1168 26 1204 26H1208Q1248 26 1275 50.5Q1302 75 1307 118L1308 126Q1313 170 1293.5 191.5Q1274 213 1236 213ZM1357 363Q1319 363 1277 348Q1235 333 1201 296Q1183 276 1170 254Q1157 232 1149 209Q1163 223 1186 234Q1209 245 1237 245Q1259 245 1280 238Q1301 231 1316 216.5Q1331 202 1339 179.5Q1347 157 1343 126L1342 118Q1334 55 1298 24.5Q1262 -6 1206 -6Q1146 -6 1117 33.5Q1088 73 1096 137L1097 145Q1103 193 1120 234.5Q1137 276 1174 317Q1214 361 1263.5 378Q1313 395 1361 395ZM786 0 790 32H892L933 343L833 281L819 309L952 392H975L928 32H1029L1025 0ZM340 0 1018 780H1064L386 0ZM379 515Q372 464 393.5 440Q415 416 456 416H462Q496 416 521.5 432Q547 448 552 486L553 494Q558 532 538 552.5Q518 573 483 573H426L430 605H485Q519 605 544.5 620Q570 635 575 670L576 678Q581 715 560 734Q539 753 501 753H497Q455 753 431 729Q407 705 399 650H364L366 665Q374 724 406.5 754.5Q439 785 499 785Q562 785 590 755.5Q618 726 612 678L611 670Q606 635 586.5 616Q567 597 538 589Q564 581 579 555.5Q594 530 589 494L588 486Q582 439 548 411.5Q514 384 459 384Q395 384 364.5 416.5Q334 449 342 507L343 515ZM37 390 41 422H143L184 733L84 671L70 699L203 782H226L179 422H280L276 390Z" glyph-name="thirteensixteenths" horiz-adv-x="1400" unicode="&#61985;" /><glyph d="M415 268Q422 322 416.5 365Q411 408 393.5 438.5Q376 469 346 485.5Q316 502 274 502Q217 502 179 476.5Q141 451 115 416L77 126Q84 109 96 92Q108 75 125.5 60.5Q143 46 166 37Q189 28 218 28Q303 28 351.5 88Q400 148 413 252ZM166 800 123 470Q146 499 185 519.5Q224 540 274 540Q331 540 369 519Q407 498 429 461.5Q451 425 457.5 376Q464 327 457 271L455 255Q448 197 430.5 148.5Q413 100 384 64.5Q355 29 313.5 9.5Q272 -10 218 -10Q187 -10 162.5 -1.5Q138 7 119.5 19Q101 31 88.5 45Q76 59 70 71L34 -200H-6L126 800Z" glyph-name="thorn" horiz-adv-x="525" unicode="&#254;" /><glyph d="M78 250Q64 136 111.5 82Q159 28 259 28H265Q304 28 340 38.5Q376 49 405.5 70.5Q435 92 454.5 124Q474 156 479 199L480 207Q490 293 444.5 336Q399 379 317 379H200L205 417H317Q357 417 392.5 426Q428 435 455.5 454Q483 473 501 502.5Q519 532 524 573L525 581Q530 620 519 652Q508 684 484 706Q460 728 424.5 740Q389 752 345 752H339Q239 752 187 697.5Q135 643 119 520H79L82 543Q89 601 107.5 646.5Q126 692 157 724Q188 756 233.5 773Q279 790 342 790Q397 790 441.5 776Q486 762 516 735Q546 708 559.5 669.5Q573 631 567 582L566 574Q557 502 511 456.5Q465 411 402 397Q465 381 498.5 333Q532 285 522 208L521 200Q515 150 491.5 111Q468 72 433 45Q398 18 354.5 4Q311 -10 265 -10Q198 -10 151.5 8Q105 26 77 59Q49 92 39.5 138.5Q30 185 37 242L38 250Z" glyph-name="three" horiz-adv-x="600" unicode="3" /><glyph d="M1 -75Q-6 -126 15.5 -150Q37 -174 78 -174H84Q118 -174 143.5 -158Q169 -142 174 -104L175 -96Q180 -58 160 -37.5Q140 -17 105 -17H48L52 15H107Q141 15 166.5 30Q192 45 197 80L198 88Q203 125 182 144Q161 163 123 163H119Q77 163 53 139Q29 115 21 60H-14L-12 75Q-4 134 28.5 164.5Q61 195 121 195Q184 195 212 165.5Q240 136 234 88L233 80Q228 45 208.5 26Q189 7 160 -1Q186 -9 201 -34.5Q216 -60 211 -96L210 -104Q204 -151 170 -178.5Q136 -206 81 -206Q17 -206 -13.5 -173.5Q-44 -141 -36 -83L-35 -75Z" glyph-name="three.inf" horiz-adv-x="300" unicode="&#58740;" /><glyph glyph-name="threeperemspace" horiz-adv-x="333" unicode="&#8196;" /><glyph d="M39 369H709L704 331H34Z" glyph-name="threequarteremdash" horiz-adv-x="750" unicode="&#58482;" /><glyph d="M44 409H714L709 371H39Z" glyph-name="threequarteremdash.cap" horiz-adv-x="750" unicode="&#58501;" /><glyph d="M529 135 572 136H652L670 278L678 329ZM634 0 647 103H480L484 127L686 390H721L688 136H752L747 103H683L670 0ZM40 0 718 780H764L86 0ZM79 515Q72 464 93.5 440Q115 416 156 416H162Q196 416 221.5 432Q247 448 252 486L253 494Q258 532 238 552.5Q218 573 183 573H126L130 605H185Q219 605 244.5 620Q270 635 275 670L276 678Q281 715 260 734Q239 753 201 753H197Q155 753 131 729Q107 705 99 650H64L66 665Q74 724 106.5 754.5Q139 785 199 785Q262 785 290 755.5Q318 726 312 678L311 670Q306 635 286.5 616Q267 597 238 589Q264 581 279 555.5Q294 530 289 494L288 486Q282 439 248 411.5Q214 384 159 384Q95 384 64.5 416.5Q34 449 42 507L43 515Z" glyph-name="threequarters" horiz-adv-x="800" unicode="&#190;" /><glyph d="M932 213Q902 213 876 197.5Q850 182 834 157L831 132Q825 83 846.5 54.5Q868 26 904 26H908Q948 26 975 50.5Q1002 75 1007 118L1008 126Q1013 170 993.5 191.5Q974 213 936 213ZM1057 363Q1019 363 977 348Q935 333 901 296Q883 276 870 254Q857 232 849 209Q863 223 886 234Q909 245 937 245Q959 245 980 238Q1001 231 1016 216.5Q1031 202 1039 179.5Q1047 157 1043 126L1042 118Q1034 55 998 24.5Q962 -6 906 -6Q846 -6 817 33.5Q788 73 796 137L797 145Q803 193 820 234.5Q837 276 874 317Q914 361 963.5 378Q1013 395 1061 395ZM486 0 490 32H592L633 343L533 281L519 309L652 392H675L628 32H729L725 0ZM40 0 718 780H764L86 0ZM79 515Q72 464 93.5 440Q115 416 156 416H162Q196 416 221.5 432Q247 448 252 486L253 494Q258 532 238 552.5Q218 573 183 573H126L130 605H185Q219 605 244.5 620Q270 635 275 670L276 678Q281 715 260 734Q239 753 201 753H197Q155 753 131 729Q107 705 99 650H64L66 665Q74 724 106.5 754.5Q139 785 199 785Q262 785 290 755.5Q318 726 312 678L311 670Q306 635 286.5 616Q267 597 238 589Q264 581 279 555.5Q294 530 289 494L288 486Q282 439 248 411.5Q214 384 159 384Q95 384 64.5 416.5Q34 449 42 507L43 515Z" glyph-name="threesixteenths" horiz-adv-x="1100" unicode="&#61974;" /><glyph d="M79 515Q72 464 93.5 440Q115 416 156 416H162Q196 416 221.5 432Q247 448 252 486L253 494Q258 532 238 552.5Q218 573 183 573H126L130 605H185Q219 605 244.5 620Q270 635 275 670L276 678Q281 715 260 734Q239 753 201 753H197Q155 753 131 729Q107 705 99 650H64L66 665Q74 724 106.5 754.5Q139 785 199 785Q262 785 290 755.5Q318 726 312 678L311 670Q306 635 286.5 616Q267 597 238 589Q264 581 279 555.5Q294 530 289 494L288 486Q282 439 248 411.5Q214 384 159 384Q95 384 64.5 416.5Q34 449 42 507L43 515Z" glyph-name="threesuperior" horiz-adv-x="300" unicode="&#179;" /><glyph d="M438 737Q432 694 410 673.5Q388 653 356 653Q334 653 317 662.5Q300 672 285 683Q270 694 256 703.5Q242 713 226 713Q210 713 198.5 702Q187 691 183 663H148Q153 706 175 726.5Q197 747 229 747Q251 747 268 737.5Q285 728 300 717Q315 706 329 696.5Q343 687 359 687Q375 687 387 698Q399 709 403 737Z" glyph-name="tilde" horiz-adv-x="500" unicode="&#732;" /><glyph d="M463 932Q458 889 435 868.5Q412 848 380 848Q358 848 341.5 857.5Q325 867 310.5 878.5Q296 890 283 899.5Q270 909 255 909Q216 909 209 858H173Q179 901 202 921.5Q225 942 257 942Q279 942 295.5 932.5Q312 923 326 911.5Q340 900 353 890.5Q366 881 381 881Q421 881 427 932Z" glyph-name="tilde.cap" horiz-adv-x="500" unicode="&#58404;" /><glyph d="M363 530H323L263 750L265 680V530H231V800H283L343 582L403 800H455V530H421V680L423 750ZM125 530H91V768H20V800H196V768H125Z" glyph-name="trademark" horiz-adv-x="510" unicode="&#8482;" /><glyph d="M65 780H107L465 34L823 780H865L485 -10H445Z" glyph-name="triagdn" horiz-adv-x="930" unicode="&#9660;" /><glyph d="M850 790V748L104 390L850 32V-10L60 370V410Z" glyph-name="triaglf" horiz-adv-x="930" unicode="&#9668;" /><glyph d="M870 370 80 -10V32L826 390L80 748V790L870 410Z" glyph-name="triagrt" horiz-adv-x="930" unicode="&#9658;" /><glyph d="M865 0H823L465 746L107 0H65L445 790H485Z" glyph-name="triagup" horiz-adv-x="930" unicode="&#9650;" /><glyph d="M276 780 232 530H208L230 780ZM376 780 332 530H308L330 780ZM176 780 132 530H108L130 780Z" glyph-name="tripleprime" horiz-adv-x="400" unicode="&#8244;" /><glyph d="M496 40 491 0H11L14 25L412 393Q442 421 462 442Q482 463 494.5 482.5Q507 502 514 522.5Q521 543 524 569L525 577Q530 616 519 648.5Q508 681 484 704Q460 727 424.5 739.5Q389 752 345 752H339Q239 752 187 697.5Q135 643 119 520H79L82 543Q89 601 107.5 646.5Q126 692 157 724Q188 756 233.5 773Q279 790 342 790Q397 790 441.5 775.5Q486 761 516 734Q546 707 559.5 668.5Q573 630 567 581L566 573Q562 541 555 517Q548 493 535.5 471.5Q523 450 502 427Q481 404 450 375L87 39L163 40Z" glyph-name="two" horiz-adv-x="600" unicode="2" /><glyph d="M196 -200H-48L-45 -178L146 1Q168 21 181 38Q194 55 197 80L198 88Q203 125 182 144Q161 163 123 163H119Q77 163 53 139Q29 115 21 60H-14L-12 75Q-4 134 28.5 164.5Q61 195 121 195Q185 195 212.5 165.5Q240 136 234 88L233 80Q229 48 213.5 28Q198 8 174 -15L10 -168H200Z" glyph-name="two.inf" horiz-adv-x="300" unicode="&#58739;" /><glyph d="M274 390H30L33 412L224 591Q246 611 259 628Q272 645 275 670L276 678Q281 715 260 734Q239 753 201 753H197Q155 753 131 729Q107 705 99 650H64L66 665Q74 724 106.5 754.5Q139 785 199 785Q263 785 290.5 755.5Q318 726 312 678L311 670Q307 638 291.5 618Q276 598 252 575L88 422H278Z" glyph-name="twosuperior" horiz-adv-x="300" unicode="&#178;" /><glyph d="M125 530 77 160Q68 89 101 58.5Q134 28 196 28Q229 28 256 37Q283 46 304 59.5Q325 73 340.5 89Q356 105 367 120L420 530H460L410 150L396 0H366L367 78Q340 40 294 15Q248 -10 191 -10Q106 -10 66 34Q26 78 36 155L85 530Z" glyph-name="u" horiz-adv-x="510" unicode="u" /><glyph d="M125 530 77 160Q68 89 101 58.5Q134 28 196 28Q229 28 256 37Q283 46 304 59.5Q325 73 340.5 89Q356 105 367 120L420 530H460L410 150L396 0H366L367 78Q340 40 294 15Q248 -10 191 -10Q106 -10 66 34Q26 78 36 155L85 530ZM416 780 305 620H263L374 780Z" glyph-name="uacute" horiz-adv-x="510" unicode="&#250;" /><glyph d="M125 530 77 160Q68 89 101 58.5Q134 28 196 28Q229 28 256 37Q283 46 304 59.5Q325 73 340.5 89Q356 105 367 120L420 530H460L410 150L396 0H366L367 78Q340 40 294 15Q248 -10 191 -10Q106 -10 66 34Q26 78 36 155L85 530ZM285 610Q206 610 174.5 657.5Q143 705 153 780H189Q185 751 188 726Q191 701 202.5 682.5Q214 664 234.5 653.5Q255 643 287 643Q319 643 342.5 653.5Q366 664 382 682.5Q398 701 407.5 726Q417 751 421 780H457Q447 705 405.5 657.5Q364 610 285 610Z" glyph-name="ubreve" horiz-adv-x="510" unicode="&#365;" /><glyph d="M125 530 77 160Q68 89 101 58.5Q134 28 196 28Q229 28 256 37Q283 46 304 59.5Q325 73 340.5 89Q356 105 367 120L420 530H460L410 150L396 0H366L367 78Q340 40 294 15Q248 -10 191 -10Q106 -10 66 34Q26 78 36 155L85 530ZM139 620 290 780H320L429 620H386L302 744L186 620Z" glyph-name="ucircumflex" horiz-adv-x="510" unicode="&#251;" /><glyph d="M125 530 77 160Q68 89 101 58.5Q134 28 196 28Q229 28 256 37Q283 46 304 59.5Q325 73 340.5 89Q356 105 367 120L420 530H460L410 150L396 0H366L367 78Q340 40 294 15Q248 -10 191 -10Q106 -10 66 34Q26 78 36 155L85 530ZM396 675H336L344 735H404ZM246 675H186L194 735H254Z" glyph-name="udieresis" horiz-adv-x="510" unicode="&#252;" /><glyph d="M125 530 77 160Q68 89 101 58.5Q134 28 196 28Q229 28 256 37Q283 46 304 59.5Q325 73 340.5 89Q356 105 367 120L420 530H460L410 150L396 0H366L367 78Q340 40 294 15Q248 -10 191 -10Q106 -10 66 34Q26 78 36 155L85 530ZM236 780 305 620H263L194 780Z" glyph-name="ugrave" horiz-adv-x="510" unicode="&#249;" /><glyph d="M125 530 77 160Q68 89 101 58.5Q134 28 196 28Q229 28 256 37Q283 46 304 59.5Q325 73 340.5 89Q356 105 367 120L420 530H460L410 150L396 0H366L367 78Q340 40 294 15Q248 -10 191 -10Q106 -10 66 34Q26 78 36 155L85 530ZM471 780 360 620H318L429 780ZM361 780 250 620H208L319 780Z" glyph-name="uhungarumlaut" horiz-adv-x="510" unicode="&#369;" /><glyph d="M125 530 77 160Q68 89 101 58.5Q134 28 196 28Q229 28 256 37Q283 46 304 59.5Q325 73 340.5 89Q356 105 367 120L420 530H460L410 150L396 0H366L367 78Q340 40 294 15Q248 -10 191 -10Q106 -10 66 34Q26 78 36 155L85 530ZM192 720H402L397 680H187Z" glyph-name="umacron" horiz-adv-x="510" unicode="&#363;" /><glyph d="M-10 -80H210L205 -118H-15Z" glyph-name="underscore" horiz-adv-x="320" unicode="_" /><glyph d="M-10 -80H490L485 -118H-15Z" glyph-name="underscoremonospace" horiz-adv-x="600" unicode="&#65343;" /><glyph d="M39 369H279L274 331H34Z" glyph-name="uni00AD" horiz-adv-x="320" unicode="&#173;" /><glyph d="M39 369H1159L1154 331H34Z" glyph-name="uni2015" horiz-adv-x="1200" unicode="&#8213;" /><glyph d="M44 409H1164L1159 371H39Z" glyph-name="uni2015.cap" horiz-adv-x="1200" unicode="&#58504;" /><glyph d="M271 664Q276 707 260.5 730Q245 753 198 753H196Q148 753 129 731Q110 709 104 663L83 505Q77 462 93 439Q109 416 156 416H158Q206 416 225 438Q244 460 250 506ZM69 668Q76 726 105 755.5Q134 785 200 785Q264 785 289 752Q314 719 307 668L285 501Q281 472 272.5 450Q264 428 248.5 413.5Q233 399 210 391.5Q187 384 154 384Q90 384 65 417Q40 450 47 501Z" glyph-name="uni2070" horiz-adv-x="300" unicode="&#8304;" /><glyph d="M80 525 123 526H203L221 668L229 719ZM185 390 198 493H31L35 517L237 780H272L239 526H303L298 493H234L221 390Z" glyph-name="uni2074" horiz-adv-x="300" unicode="&#8308;" /><glyph d="M79 515Q72 464 93.5 440Q115 416 156 416H162Q196 416 223 436.5Q250 457 256 504L257 512Q263 560 240 582.5Q217 605 182 605H176Q149 605 122.5 591.5Q96 578 81 552L52 561L91 780H322L318 747H121L96 606Q107 617 129.5 627Q152 637 179 637Q238 637 269 604Q300 571 292 511L291 503Q283 446 248 415Q213 384 159 384Q95 384 64.5 416.5Q34 449 42 507L43 515Z" glyph-name="uni2075" horiz-adv-x="300" unicode="&#8309;" /><glyph d="M183 603Q153 603 127 587.5Q101 572 85 547L82 522Q76 473 97.5 444.5Q119 416 155 416H159Q199 416 226 440.5Q253 465 258 508L259 516Q264 560 244.5 581.5Q225 603 187 603ZM308 753Q270 753 228 738Q186 723 152 686Q134 666 121 644Q108 622 100 599Q114 613 137 624Q160 635 188 635Q210 635 231 628Q252 621 267 606.5Q282 592 290 569.5Q298 547 294 516L293 508Q285 445 249 414.5Q213 384 157 384Q97 384 68 423.5Q39 463 47 527L48 535Q54 583 71 624.5Q88 666 125 707Q165 751 214.5 768Q264 785 312 785Z" glyph-name="uni2076" horiz-adv-x="300" unicode="&#8310;" /><glyph d="M82 780H328L325 758L127 390H89L282 748L227 747H110L96 640H64Z" glyph-name="uni2077" horiz-adv-x="300" unicode="&#8311;" /><glyph d="M195 753Q157 753 133 736.5Q109 720 104 685L103 677Q98 641 119 623Q140 605 175 605H185Q219 605 244.5 621Q270 637 275 672L276 680Q281 717 259 735Q237 753 199 753ZM169 573Q134 573 108.5 554.5Q83 536 78 501L77 493Q72 454 95 435Q118 416 153 416H159Q193 416 220 433Q247 450 252 488L253 496Q258 534 238 553.5Q218 573 183 573ZM156 384Q94 384 64.5 415.5Q35 447 41 493L42 501Q47 536 68 559Q89 582 118 589Q92 597 77.5 621.5Q63 646 67 677L68 685Q74 732 105.5 758.5Q137 785 197 785Q260 785 289 756.5Q318 728 312 680L311 672Q306 637 286.5 617Q267 597 238 589Q264 581 279 556.5Q294 532 289 496L288 488Q282 441 246.5 412.5Q211 384 156 384Z" glyph-name="uni2078" horiz-adv-x="300" unicode="&#8312;" /><glyph d="M171 566Q201 566 227 581.5Q253 597 269 622L272 647Q278 696 256.5 724.5Q235 753 199 753H195Q155 753 128 728.5Q101 704 96 661L95 653Q90 609 109.5 587.5Q129 566 167 566ZM46 416Q84 416 126 431Q168 446 202 483Q220 503 233 525Q246 547 254 570Q240 556 217 545Q194 534 166 534Q143 534 122.5 541Q102 548 87 562.5Q72 577 64 599.5Q56 622 60 653L61 661Q69 724 105 754.5Q141 785 197 785Q257 785 286 745.5Q315 706 307 642L306 634Q300 586 283 544.5Q266 503 229 462Q189 418 139.5 401Q90 384 42 384Z" glyph-name="uni2079" horiz-adv-x="300" unicode="&#8313;" /><glyph d="M210 711 196 601H306L301 568H191L177 459H144L158 568H49L54 601H163L177 711Z" glyph-name="uni207A" horiz-adv-x="300" unicode="&#8314;" /><glyph d="M54 601H306L301 568H49Z" glyph-name="uni207B" horiz-adv-x="300" unicode="&#8315;" /><glyph d="M47 550H299L295 517H43ZM60 652H312L308 619H56Z" glyph-name="uni207C" horiz-adv-x="300" unicode="&#8316;" /><glyph d="M57 593Q65 654 88.5 700.5Q112 747 143 780H181Q152 748 126.5 700.5Q101 653 93 593L92 585Q85 532 97.5 479Q110 426 129 390H93Q72 426 60.5 478.5Q49 531 56 585Z" glyph-name="uni207D" horiz-adv-x="158" unicode="&#8317;" /><glyph d="M155 577Q147 516 123.5 469.5Q100 423 69 390H31Q60 422 85.5 469.5Q111 517 119 577L120 585Q127 638 114.5 691Q102 744 83 780H119Q140 744 151.5 691.5Q163 639 156 585Z" glyph-name="uni207E" horiz-adv-x="158" unicode="&#8318;" /><glyph d="M220 274Q225 317 209.5 340Q194 363 147 363H145Q97 363 78 341Q59 319 53 273L32 115Q26 72 42 49Q58 26 105 26H107Q155 26 174 48Q193 70 199 116ZM18 278Q25 336 54 365.5Q83 395 149 395Q213 395 238 362Q263 329 256 278L234 111Q230 82 221.5 60Q213 38 197.5 23.5Q182 9 159 1.5Q136 -6 103 -6Q39 -6 14 27Q-11 60 -4 111Z" glyph-name="uni2080" horiz-adv-x="300" unicode="&#8320;" /><glyph d="M-14 0 -10 32H92L133 343L33 281L19 309L152 392H175L128 32H229L225 0Z" glyph-name="uni2081" horiz-adv-x="300" unicode="&#8321;" /><glyph d="M223 0H-21L-18 22L173 201Q195 221 208 238Q221 255 224 280L225 288Q230 325 209 344Q188 363 150 363H146Q104 363 80 339Q56 315 48 260H13L15 275Q23 334 55.5 364.5Q88 395 148 395Q212 395 239.5 365.5Q267 336 261 288L260 280Q256 248 240.5 228Q225 208 201 185L37 32H227Z" glyph-name="uni2082" horiz-adv-x="300" unicode="&#8322;" /><glyph d="M28 125Q21 74 42.5 50Q64 26 105 26H111Q145 26 170.5 42Q196 58 201 96L202 104Q207 142 187 162.5Q167 183 132 183H75L79 215H134Q168 215 193.5 230Q219 245 224 280L225 288Q230 325 209 344Q188 363 150 363H146Q104 363 80 339Q56 315 48 260H13L15 275Q23 334 55.5 364.5Q88 395 148 395Q211 395 239 365.5Q267 336 261 288L260 280Q255 245 235.5 226Q216 207 187 199Q213 191 228 165.5Q243 140 238 104L237 96Q231 49 197 21.5Q163 -6 108 -6Q44 -6 13.5 26.5Q-17 59 -9 117L-8 125Z" glyph-name="uni2083" horiz-adv-x="300" unicode="&#8323;" /><glyph d="M29 135 72 136H152L170 278L178 329ZM134 0 147 103H-20L-16 127L186 390H221L188 136H252L247 103H183L170 0Z" glyph-name="uni2084" horiz-adv-x="300" unicode="&#8324;" /><glyph d="M28 125Q21 74 42.5 50Q64 26 105 26H111Q145 26 172 46.5Q199 67 205 114L206 122Q212 170 189 192.5Q166 215 131 215H125Q98 215 71.5 201.5Q45 188 30 162L1 171L40 390H271L267 357H70L45 216Q56 227 78.5 237Q101 247 128 247Q187 247 218 214Q249 181 241 121L240 113Q232 56 197 25Q162 -6 108 -6Q44 -6 13.5 26.5Q-17 59 -9 117L-8 125Z" glyph-name="uni2085" horiz-adv-x="300" unicode="&#8325;" /><glyph d="M132 213Q102 213 76 197.5Q50 182 34 157L31 132Q25 83 46.5 54.5Q68 26 104 26H108Q148 26 175 50.5Q202 75 207 118L208 126Q213 170 193.5 191.5Q174 213 136 213ZM257 363Q219 363 177 348Q135 333 101 296Q83 276 70 254Q57 232 49 209Q63 223 86 234Q109 245 137 245Q159 245 180 238Q201 231 216 216.5Q231 202 239 179.5Q247 157 243 126L242 118Q234 55 198 24.5Q162 -6 106 -6Q46 -6 17 33.5Q-12 73 -4 137L-3 145Q3 193 20 234.5Q37 276 74 317Q114 361 163.5 378Q213 395 261 395Z" glyph-name="uni2086" horiz-adv-x="300" unicode="&#8326;" /><glyph d="M31 390H277L274 368L76 0H38L231 358L176 357H59L45 250H13Z" glyph-name="uni2087" horiz-adv-x="300" unicode="&#8327;" /><glyph d="M144 363Q106 363 82 346.5Q58 330 53 295L52 287Q47 251 68 233Q89 215 124 215H134Q168 215 193.5 231Q219 247 224 282L225 290Q230 327 208 345Q186 363 148 363ZM118 183Q83 183 57.5 164.5Q32 146 27 111L26 103Q21 64 44 45Q67 26 102 26H108Q142 26 169 43Q196 60 201 98L202 106Q207 144 187 163.5Q167 183 132 183ZM105 -6Q43 -6 13.5 25.5Q-16 57 -10 103L-9 111Q-4 146 17 169Q38 192 67 199Q41 207 26.5 231.5Q12 256 16 287L17 295Q23 342 54.5 368.5Q86 395 146 395Q209 395 238 366.5Q267 338 261 290L260 282Q255 247 235.5 227Q216 207 187 199Q213 191 228 166.5Q243 142 238 106L237 98Q231 51 195.5 22.5Q160 -6 105 -6Z" glyph-name="uni2088" horiz-adv-x="300" unicode="&#8328;" /><glyph d="M120 176Q150 176 176 191.5Q202 207 218 232L221 257Q227 306 205.5 334.5Q184 363 148 363H144Q104 363 77 338.5Q50 314 45 271L44 263Q39 219 58.5 197.5Q78 176 116 176ZM-5 26Q33 26 75 41Q117 56 151 93Q169 113 182 135Q195 157 203 180Q189 166 166 155Q143 144 115 144Q92 144 71.5 151Q51 158 36 172.5Q21 187 13 209.5Q5 232 9 263L10 271Q18 334 54 364.5Q90 395 146 395Q206 395 235 355.5Q264 316 256 252L255 244Q249 196 232 154.5Q215 113 178 72Q138 28 88.5 11Q39 -6 -9 -6Z" glyph-name="uni2089" horiz-adv-x="300" unicode="&#8329;" /><glyph d="M159 321 145 211H255L250 178H140L126 69H93L107 178H-2L3 211H112L126 321Z" glyph-name="uni208A" horiz-adv-x="300" unicode="&#8330;" /><glyph d="M3 211H255L250 178H-2Z" glyph-name="uni208B" horiz-adv-x="300" unicode="&#8331;" /><glyph d="M-4 160H248L244 127H-8ZM9 262H261L257 229H5Z" glyph-name="uni208C" horiz-adv-x="300" unicode="&#8332;" /><glyph d="M6 203Q14 264 37.5 310.5Q61 357 92 390H130Q101 358 75.5 310.5Q50 263 42 203L41 195Q34 142 46.5 89Q59 36 78 0H42Q21 36 9.5 88.5Q-2 141 5 195Z" glyph-name="uni208D" horiz-adv-x="158" unicode="&#8333;" /><glyph d="M104 187Q96 126 72.5 79.5Q49 33 18 0H-20Q9 32 34.5 79.5Q60 127 68 187L69 195Q76 248 63.5 301Q51 354 32 390H68Q89 354 100.5 301.5Q112 249 105 195Z" glyph-name="uni208E" horiz-adv-x="158" unicode="&#8334;" /><glyph d="M528 125Q521 74 542.5 50Q564 26 605 26H611Q645 26 670.5 42Q696 58 701 96L702 104Q707 142 687 162.5Q667 183 632 183H575L579 215H634Q668 215 693.5 230Q719 245 724 280L725 288Q730 325 709 344Q688 363 650 363H646Q604 363 580 339Q556 315 548 260H513L515 275Q523 334 555.5 364.5Q588 395 648 395Q711 395 739 365.5Q767 336 761 288L760 280Q755 245 735.5 226Q716 207 687 199Q713 191 728 165.5Q743 140 738 104L737 96Q731 49 697 21.5Q663 -6 608 -6Q544 -6 513.5 26.5Q483 59 491 117L492 125ZM40 0 718 780H764L86 0ZM37 390 41 422H143L184 733L84 671L70 699L203 782H226L179 422H280L276 390Z" glyph-name="uni2153" horiz-adv-x="800" unicode="&#8531;" /><glyph d="M528 125Q521 74 542.5 50Q564 26 605 26H611Q645 26 670.5 42Q696 58 701 96L702 104Q707 142 687 162.5Q667 183 632 183H575L579 215H634Q668 215 693.5 230Q719 245 724 280L725 288Q730 325 709 344Q688 363 650 363H646Q604 363 580 339Q556 315 548 260H513L515 275Q523 334 555.5 364.5Q588 395 648 395Q711 395 739 365.5Q767 336 761 288L760 280Q755 245 735.5 226Q716 207 687 199Q713 191 728 165.5Q743 140 738 104L737 96Q731 49 697 21.5Q663 -6 608 -6Q544 -6 513.5 26.5Q483 59 491 117L492 125ZM40 0 718 780H764L86 0ZM274 390H30L33 412L224 591Q246 611 259 628Q272 645 275 670L276 678Q281 715 260 734Q239 753 201 753H197Q155 753 131 729Q107 705 99 650H64L66 665Q74 724 106.5 754.5Q139 785 199 785Q263 785 290.5 755.5Q318 726 312 678L311 670Q307 638 291.5 618Q276 598 252 575L88 422H278Z" glyph-name="uni2154" horiz-adv-x="800" unicode="&#8532;" /><glyph d="M528 125Q521 74 542.5 50Q564 26 605 26H611Q645 26 672 46.5Q699 67 705 114L706 122Q712 170 689 192.5Q666 215 631 215H625Q598 215 571.5 201.5Q545 188 530 162L501 171L540 390H771L767 357H570L545 216Q556 227 578.5 237Q601 247 628 247Q687 247 718 214Q749 181 741 121L740 113Q732 56 697 25Q662 -6 608 -6Q544 -6 513.5 26.5Q483 59 491 117L492 125ZM40 0 718 780H764L86 0ZM37 390 41 422H143L184 733L84 671L70 699L203 782H226L179 422H280L276 390Z" glyph-name="uni2155" horiz-adv-x="800" unicode="&#8533;" /><glyph d="M528 125Q521 74 542.5 50Q564 26 605 26H611Q645 26 672 46.5Q699 67 705 114L706 122Q712 170 689 192.5Q666 215 631 215H625Q598 215 571.5 201.5Q545 188 530 162L501 171L540 390H771L767 357H570L545 216Q556 227 578.5 237Q601 247 628 247Q687 247 718 214Q749 181 741 121L740 113Q732 56 697 25Q662 -6 608 -6Q544 -6 513.5 26.5Q483 59 491 117L492 125ZM40 0 718 780H764L86 0ZM274 390H30L33 412L224 591Q246 611 259 628Q272 645 275 670L276 678Q281 715 260 734Q239 753 201 753H197Q155 753 131 729Q107 705 99 650H64L66 665Q74 724 106.5 754.5Q139 785 199 785Q263 785 290.5 755.5Q318 726 312 678L311 670Q307 638 291.5 618Q276 598 252 575L88 422H278Z" glyph-name="uni2156" horiz-adv-x="800" unicode="&#8534;" /><glyph d="M528 125Q521 74 542.5 50Q564 26 605 26H611Q645 26 672 46.5Q699 67 705 114L706 122Q712 170 689 192.5Q666 215 631 215H625Q598 215 571.5 201.5Q545 188 530 162L501 171L540 390H771L767 357H570L545 216Q556 227 578.5 237Q601 247 628 247Q687 247 718 214Q749 181 741 121L740 113Q732 56 697 25Q662 -6 608 -6Q544 -6 513.5 26.5Q483 59 491 117L492 125ZM40 0 718 780H764L86 0ZM79 515Q72 464 93.5 440Q115 416 156 416H162Q196 416 221.5 432Q247 448 252 486L253 494Q258 532 238 552.5Q218 573 183 573H126L130 605H185Q219 605 244.5 620Q270 635 275 670L276 678Q281 715 260 734Q239 753 201 753H197Q155 753 131 729Q107 705 99 650H64L66 665Q74 724 106.5 754.5Q139 785 199 785Q262 785 290 755.5Q318 726 312 678L311 670Q306 635 286.5 616Q267 597 238 589Q264 581 279 555.5Q294 530 289 494L288 486Q282 439 248 411.5Q214 384 159 384Q95 384 64.5 416.5Q34 449 42 507L43 515Z" glyph-name="uni2157" horiz-adv-x="800" unicode="&#8535;" /><glyph d="M528 125Q521 74 542.5 50Q564 26 605 26H611Q645 26 672 46.5Q699 67 705 114L706 122Q712 170 689 192.5Q666 215 631 215H625Q598 215 571.5 201.5Q545 188 530 162L501 171L540 390H771L767 357H570L545 216Q556 227 578.5 237Q601 247 628 247Q687 247 718 214Q749 181 741 121L740 113Q732 56 697 25Q662 -6 608 -6Q544 -6 513.5 26.5Q483 59 491 117L492 125ZM40 0 718 780H764L86 0ZM80 525 123 526H203L221 668L229 719ZM185 390 198 493H31L35 517L237 780H272L239 526H303L298 493H234L221 390Z" glyph-name="uni2158" horiz-adv-x="800" unicode="&#8536;" /><glyph d="M632 213Q602 213 576 197.5Q550 182 534 157L531 132Q525 83 546.5 54.5Q568 26 604 26H608Q648 26 675 50.5Q702 75 707 118L708 126Q713 170 693.5 191.5Q674 213 636 213ZM757 363Q719 363 677 348Q635 333 601 296Q583 276 570 254Q557 232 549 209Q563 223 586 234Q609 245 637 245Q659 245 680 238Q701 231 716 216.5Q731 202 739 179.5Q747 157 743 126L742 118Q734 55 698 24.5Q662 -6 606 -6Q546 -6 517 33.5Q488 73 496 137L497 145Q503 193 520 234.5Q537 276 574 317Q614 361 663.5 378Q713 395 761 395ZM40 0 718 780H764L86 0ZM37 390 41 422H143L184 733L84 671L70 699L203 782H226L179 422H280L276 390Z" glyph-name="uni2159" horiz-adv-x="800" unicode="&#8537;" /><glyph d="M632 213Q602 213 576 197.5Q550 182 534 157L531 132Q525 83 546.5 54.5Q568 26 604 26H608Q648 26 675 50.5Q702 75 707 118L708 126Q713 170 693.5 191.5Q674 213 636 213ZM757 363Q719 363 677 348Q635 333 601 296Q583 276 570 254Q557 232 549 209Q563 223 586 234Q609 245 637 245Q659 245 680 238Q701 231 716 216.5Q731 202 739 179.5Q747 157 743 126L742 118Q734 55 698 24.5Q662 -6 606 -6Q546 -6 517 33.5Q488 73 496 137L497 145Q503 193 520 234.5Q537 276 574 317Q614 361 663.5 378Q713 395 761 395ZM40 0 718 780H764L86 0ZM79 515Q72 464 93.5 440Q115 416 156 416H162Q196 416 223 436.5Q250 457 256 504L257 512Q263 560 240 582.5Q217 605 182 605H176Q149 605 122.5 591.5Q96 578 81 552L52 561L91 780H322L318 747H121L96 606Q107 617 129.5 627Q152 637 179 637Q238 637 269 604Q300 571 292 511L291 503Q283 446 248 415Q213 384 159 384Q95 384 64.5 416.5Q34 449 42 507L43 515Z" glyph-name="uni215A" horiz-adv-x="800" unicode="&#8538;" /><glyph d="M644 363Q606 363 582 346.5Q558 330 553 295L552 287Q547 251 568 233Q589 215 624 215H634Q668 215 693.5 231Q719 247 724 282L725 290Q730 327 708 345Q686 363 648 363ZM618 183Q583 183 557.5 164.5Q532 146 527 111L526 103Q521 64 544 45Q567 26 602 26H608Q642 26 669 43Q696 60 701 98L702 106Q707 144 687 163.5Q667 183 632 183ZM605 -6Q543 -6 513.5 25.5Q484 57 490 103L491 111Q496 146 517 169Q538 192 567 199Q541 207 526.5 231.5Q512 256 516 287L517 295Q523 342 554.5 368.5Q586 395 646 395Q709 395 738 366.5Q767 338 761 290L760 282Q755 247 735.5 227Q716 207 687 199Q713 191 728 166.5Q743 142 738 106L737 98Q731 51 695.5 22.5Q660 -6 605 -6ZM40 0 718 780H764L86 0ZM37 390 41 422H143L184 733L84 671L70 699L203 782H226L179 422H280L276 390Z" glyph-name="uni215B" horiz-adv-x="800" unicode="&#8539;" /><glyph d="M644 363Q606 363 582 346.5Q558 330 553 295L552 287Q547 251 568 233Q589 215 624 215H634Q668 215 693.5 231Q719 247 724 282L725 290Q730 327 708 345Q686 363 648 363ZM618 183Q583 183 557.5 164.5Q532 146 527 111L526 103Q521 64 544 45Q567 26 602 26H608Q642 26 669 43Q696 60 701 98L702 106Q707 144 687 163.5Q667 183 632 183ZM605 -6Q543 -6 513.5 25.5Q484 57 490 103L491 111Q496 146 517 169Q538 192 567 199Q541 207 526.5 231.5Q512 256 516 287L517 295Q523 342 554.5 368.5Q586 395 646 395Q709 395 738 366.5Q767 338 761 290L760 282Q755 247 735.5 227Q716 207 687 199Q713 191 728 166.5Q743 142 738 106L737 98Q731 51 695.5 22.5Q660 -6 605 -6ZM40 0 718 780H764L86 0ZM79 515Q72 464 93.5 440Q115 416 156 416H162Q196 416 221.5 432Q247 448 252 486L253 494Q258 532 238 552.5Q218 573 183 573H126L130 605H185Q219 605 244.5 620Q270 635 275 670L276 678Q281 715 260 734Q239 753 201 753H197Q155 753 131 729Q107 705 99 650H64L66 665Q74 724 106.5 754.5Q139 785 199 785Q262 785 290 755.5Q318 726 312 678L311 670Q306 635 286.5 616Q267 597 238 589Q264 581 279 555.5Q294 530 289 494L288 486Q282 439 248 411.5Q214 384 159 384Q95 384 64.5 416.5Q34 449 42 507L43 515Z" glyph-name="uni215C" horiz-adv-x="800" unicode="&#8540;" /><glyph d="M644 363Q606 363 582 346.5Q558 330 553 295L552 287Q547 251 568 233Q589 215 624 215H634Q668 215 693.5 231Q719 247 724 282L725 290Q730 327 708 345Q686 363 648 363ZM618 183Q583 183 557.5 164.5Q532 146 527 111L526 103Q521 64 544 45Q567 26 602 26H608Q642 26 669 43Q696 60 701 98L702 106Q707 144 687 163.5Q667 183 632 183ZM605 -6Q543 -6 513.5 25.5Q484 57 490 103L491 111Q496 146 517 169Q538 192 567 199Q541 207 526.5 231.5Q512 256 516 287L517 295Q523 342 554.5 368.5Q586 395 646 395Q709 395 738 366.5Q767 338 761 290L760 282Q755 247 735.5 227Q716 207 687 199Q713 191 728 166.5Q743 142 738 106L737 98Q731 51 695.5 22.5Q660 -6 605 -6ZM40 0 718 780H764L86 0ZM79 515Q72 464 93.5 440Q115 416 156 416H162Q196 416 223 436.5Q250 457 256 504L257 512Q263 560 240 582.5Q217 605 182 605H176Q149 605 122.5 591.5Q96 578 81 552L52 561L91 780H322L318 747H121L96 606Q107 617 129.5 627Q152 637 179 637Q238 637 269 604Q300 571 292 511L291 503Q283 446 248 415Q213 384 159 384Q95 384 64.5 416.5Q34 449 42 507L43 515Z" glyph-name="uni215D" horiz-adv-x="800" unicode="&#8541;" /><glyph d="M644 363Q606 363 582 346.5Q558 330 553 295L552 287Q547 251 568 233Q589 215 624 215H634Q668 215 693.5 231Q719 247 724 282L725 290Q730 327 708 345Q686 363 648 363ZM618 183Q583 183 557.5 164.5Q532 146 527 111L526 103Q521 64 544 45Q567 26 602 26H608Q642 26 669 43Q696 60 701 98L702 106Q707 144 687 163.5Q667 183 632 183ZM605 -6Q543 -6 513.5 25.5Q484 57 490 103L491 111Q496 146 517 169Q538 192 567 199Q541 207 526.5 231.5Q512 256 516 287L517 295Q523 342 554.5 368.5Q586 395 646 395Q709 395 738 366.5Q767 338 761 290L760 282Q755 247 735.5 227Q716 207 687 199Q713 191 728 166.5Q743 142 738 106L737 98Q731 51 695.5 22.5Q660 -6 605 -6ZM40 0 718 780H764L86 0ZM82 780H328L325 758L127 390H89L282 748L227 747H110L96 640H64Z" glyph-name="uni215E" horiz-adv-x="800" unicode="&#8542;" /><glyph d="M40 0 718 780H764L86 0ZM37 390 41 422H143L184 733L84 671L70 699L203 782H226L179 422H280L276 390Z" glyph-name="uni215F" horiz-adv-x="500" unicode="&#8543;" /><glyph d="M70 0V780H850V740H138L860 18L832 -10L110 712V0Z" glyph-name="uni2196" horiz-adv-x="920" unicode="&#8598;" /><glyph d="M810 0V712L88 -10L60 18L782 740H70V780H850V0Z" glyph-name="uni2197" horiz-adv-x="920" unicode="&#8599;" /><glyph d="M70 40H782L60 762L88 790L810 68V780H850V0H70Z" glyph-name="uni2198" horiz-adv-x="920" unicode="&#8600;" /><glyph d="M850 0H70V780H110V68L832 790L860 762L138 40H850Z" glyph-name="uni2199" horiz-adv-x="920" unicode="&#8601;" /><glyph d="M836 -14 9 275 39 305 819 30 545 811 575 841 864 14Z" glyph-name="uni25E2" horiz-adv-x="930" unicode="&#9698;" /></font>
</defs>
</svg>
