<?xml version="1.0" standalone="no"?><!DOCTYPE svg PUBLIC "-//W3C//DTD SVG 1.1//EN" "http://www.w3.org/Graphics/SVG/1.1/DTD/svg11.dtd" ><svg version="1.1" xmlns="http://www.w3.org/2000/svg"><defs><font horiz-adv-x="0" id="font"><font-face ascent="750" bbox="-288 -219 1365 964" cap-height="780" descent="-250" font-family="Cooper Hewitt" font-stretch="normal" font-style="normal" font-weight="600" units-per-em="1000" x-height="530" /><missing-glyph d="M803 115V665L528 390ZM163 665V115L438 390ZM483 435 762 714H204ZM204 66H762L483 345ZM93 780H873V0H93Z" horiz-adv-x="966" /><glyph d="M198 280H402L352 669ZM437 786 549 0H439L414 188H162L89 0H-26L292 786Z" glyph-name="A" horiz-adv-x="621" unicode="A" /><glyph d="M215 286H392L390 656ZM867 780 855 688H497L500 444H773L761 352H501L504 92H777L765 0H395L393 194H171L78 0H-34L350 780Z" glyph-name="AE" horiz-adv-x="854" unicode="&#198;" /><glyph d="M198 280H402L352 669ZM437 786 549 0H439L414 188H162L89 0H-26L292 786ZM501 950 423 840H321L394 950Z" glyph-name="Aacute" horiz-adv-x="621" unicode="&#193;" /><glyph d="M198 280H402L352 669ZM437 786 549 0H439L414 188H162L89 0H-26L292 786ZM374 827Q329 827 299 836.5Q269 846 252 862.5Q235 879 229.5 901.5Q224 924 228 950H301Q297 922 314 906Q331 890 376 890Q422 890 443.5 904.5Q465 919 469 950H546Q542 924 530.5 901.5Q519 879 498.5 862.5Q478 846 447 836.5Q416 827 374 827Z" glyph-name="Abreve" horiz-adv-x="621" unicode="&#258;" /><glyph d="M198 280H402L352 669ZM437 786 549 0H439L414 188H162L89 0H-26L292 786ZM440 840 383 899 308 840H210L338 950H436L534 840Z" glyph-name="Acircumflex" horiz-adv-x="621" unicode="&#194;" /><glyph d="M198 280H402L352 669ZM437 786 549 0H439L414 188H162L89 0H-26L292 786ZM505 854H406L417 936H516ZM342 854H243L254 936H353Z" glyph-name="Adieresis" horiz-adv-x="621" unicode="&#196;" /><glyph d="M198 280H402L352 669ZM437 786 549 0H439L414 188H162L89 0H-26L292 786ZM380 950 423 840H321L273 950Z" glyph-name="Agrave" horiz-adv-x="621" unicode="&#192;" /><glyph d="M198 280H402L352 669ZM437 786 549 0H439L414 188H162L89 0H-26L292 786ZM258 930H512L503 860H249Z" glyph-name="Amacron" horiz-adv-x="621" unicode="&#256;" /><glyph d="M437 786 549 0H438L350 669L88 0H-26L292 786Z" glyph-name="Anocross" horiz-adv-x="621" unicode="&#59185;" /><glyph d="M198 280H402L352 669ZM437 786 549 0Q534 -6 518.5 -14.5Q503 -23 490.5 -34.5Q478 -46 469.5 -61Q461 -76 461 -95Q461 -112 471.5 -124Q482 -136 502 -136Q522 -136 537.5 -132Q553 -128 563 -123L579 -191Q562 -201 537.5 -207Q513 -213 487 -213Q433 -213 405 -187Q377 -161 377 -115Q377 -76 394 -46.5Q411 -17 438 4L414 188H162L89 0H-26L292 786Z" glyph-name="Aogonek" horiz-adv-x="621" unicode="&#260;" /><glyph d="M321 857Q321 835 333.5 822Q346 809 367 809Q391 809 410 825Q429 841 429 870Q429 892 416.5 905Q404 918 383 918Q359 918 340 902Q321 886 321 857ZM198 280H402L352 669ZM306 786Q276 811 276 857Q276 879 285 898.5Q294 918 308.5 932Q323 946 342.5 954Q362 962 383 962Q423 962 448.5 937Q474 912 474 870Q474 844 462 822Q450 800 431 786H437L549 0H439L414 188H162L89 0H-26L292 786Z" glyph-name="Aring" horiz-adv-x="621" unicode="&#197;" /><glyph d="M198 280H402L352 669ZM437 786 549 0H439L414 188H162L89 0H-26L292 786ZM548 940Q541 886 512.5 862Q484 838 447 838Q425 838 406.5 846Q388 854 371.5 863.5Q355 873 340.5 881Q326 889 311 889Q298 889 286.5 880Q275 871 272 850H210Q217 904 245.5 928Q274 952 311 952Q333 952 351.5 944Q370 936 386.5 926.5Q403 917 417.5 909Q432 901 447 901Q460 901 471.5 910Q483 919 486 940Z" glyph-name="Atilde" horiz-adv-x="621" unicode="&#195;" /><glyph d="M212 688 181 446H304Q328 446 352 451.5Q376 457 395.5 470.5Q415 484 429 506Q443 528 447 560L448 568Q452 600 445 623Q438 646 422.5 660.5Q407 675 384.5 681.5Q362 688 335 688ZM168 354 134 92H267Q295 92 321.5 98Q348 104 368.5 118Q389 132 403 155Q417 178 421 212L422 220Q426 257 418.5 282.5Q411 308 395 324Q379 340 357 347Q335 354 310 354ZM340 780Q388 780 430.5 770Q473 760 503 736.5Q533 713 548 674Q563 635 555 576L552 554Q544 494 508 454Q472 414 426 401Q451 394 472.5 379Q494 364 508 342.5Q522 321 528 292Q534 263 529 228L526 206Q518 145 493.5 105Q469 65 433 42Q397 19 352.5 9.5Q308 0 260 0H18L120 780Z" glyph-name="B" horiz-adv-x="602" unicode="B" /><glyph d="M212 688 181 446H304Q328 446 352 451.5Q376 457 395.5 470.5Q415 484 429 506Q443 528 447 560L448 568Q452 600 445 623Q438 646 422.5 660.5Q407 675 384.5 681.5Q362 688 335 688ZM168 354 134 92H267Q295 92 321.5 98Q348 104 368.5 118Q389 132 403 155Q417 178 421 212L422 220Q426 257 418.5 282.5Q411 308 395 324Q379 340 357 347Q335 354 310 354ZM340 780Q388 780 430.5 770Q473 760 503 736.5Q533 713 548 674Q563 635 555 576L552 554Q544 494 508 454Q472 414 426 401Q451 394 472.5 379Q494 364 508 342.5Q522 321 528 292Q534 263 529 228L526 206Q518 145 493.5 105Q469 65 433 42Q397 19 352.5 9.5Q308 0 260 0H18L120 780ZM395 854H295L306 936H406Z" glyph-name="Bdotaccent" horiz-adv-x="602" unicode="&#7682;" /><glyph d="M155 367Q135 218 165.5 149Q196 80 288 80H296Q374 80 413 127Q452 174 463 259H567L566 249Q553 121 483 54.5Q413 -12 292 -12Q217 -12 164.5 9.5Q112 31 82 76.5Q52 122 44 194Q36 266 49 367L55 413Q68 514 93.5 586Q119 658 158 703.5Q197 749 250 770.5Q303 792 372 792Q642 792 602 518L598 491H493Q507 598 482.5 649Q458 700 376 700H368Q278 700 229 630.5Q180 561 161 413Z" glyph-name="C" horiz-adv-x="630" unicode="C" /><glyph d="M155 367Q135 218 165.5 149Q196 80 288 80H296Q374 80 413 127Q452 174 463 259H567L566 249Q553 121 483 54.5Q413 -12 292 -12Q217 -12 164.5 9.5Q112 31 82 76.5Q52 122 44 194Q36 266 49 367L55 413Q68 514 93.5 586Q119 658 158 703.5Q197 749 250 770.5Q303 792 372 792Q642 792 602 518L598 491H493Q507 598 482.5 649Q458 700 376 700H368Q278 700 229 630.5Q180 561 161 413ZM515 950 437 840H335L408 950Z" glyph-name="Cacute" horiz-adv-x="630" unicode="&#262;" /><glyph d="M155 367Q135 218 165.5 149Q196 80 288 80H296Q374 80 413 127Q452 174 463 259H567L566 249Q553 121 483 54.5Q413 -12 292 -12Q217 -12 164.5 9.5Q112 31 82 76.5Q52 122 44 194Q36 266 49 367L55 413Q68 514 93.5 586Q119 658 158 703.5Q197 749 250 770.5Q303 792 372 792Q642 792 602 518L598 491H493Q507 598 482.5 649Q458 700 376 700H368Q278 700 229 630.5Q180 561 161 413ZM333 950 390 891 465 950H563L435 840H337L239 950Z" glyph-name="Ccaron" horiz-adv-x="630" unicode="&#268;" /><glyph d="M265 -213Q230 -213 205 -205.5Q180 -198 166 -188L191 -136Q203 -144 222.5 -149.5Q242 -155 265 -155Q290 -155 303.5 -148.5Q317 -142 317 -125Q317 -111 303 -105Q289 -99 263 -99Q257 -99 251.5 -99.5Q246 -100 241 -101Q236 -102 231 -102L217 -77L251 -10Q187 -5 143 19.5Q99 44 74 90Q49 136 43 204.5Q37 273 49 367L55 413Q68 514 93.5 586Q119 658 158 703.5Q197 749 250 770.5Q303 792 372 792Q642 792 602 518L598 491H493Q507 598 482.5 649Q458 700 376 700H368Q278 700 229 630.5Q180 561 161 413L155 367Q135 218 165.5 149Q196 80 288 80H296Q374 80 413 127Q452 174 463 259H567L566 249Q553 125 487.5 59Q422 -7 309 -12L289 -50Q326 -51 353.5 -68Q381 -85 381 -125Q381 -170 348 -191.5Q315 -213 265 -213Z" glyph-name="Ccedilla" horiz-adv-x="630" unicode="&#199;" /><glyph d="M155 367Q135 218 165.5 149Q196 80 288 80H296Q374 80 413 127Q452 174 463 259H567L566 249Q553 121 483 54.5Q413 -12 292 -12Q217 -12 164.5 9.5Q112 31 82 76.5Q52 122 44 194Q36 266 49 367L55 413Q68 514 93.5 586Q119 658 158 703.5Q197 749 250 770.5Q303 792 372 792Q642 792 602 518L598 491H493Q507 598 482.5 649Q458 700 376 700H368Q278 700 229 630.5Q180 561 161 413ZM454 840 397 899 322 840H224L352 950H450L548 840Z" glyph-name="Ccircumflex" horiz-adv-x="630" unicode="&#264;" /><glyph d="M155 367Q135 218 165.5 149Q196 80 288 80H296Q374 80 413 127Q452 174 463 259H567L566 249Q553 121 483 54.5Q413 -12 292 -12Q217 -12 164.5 9.5Q112 31 82 76.5Q52 122 44 194Q36 266 49 367L55 413Q68 514 93.5 586Q119 658 158 703.5Q197 749 250 770.5Q303 792 372 792Q642 792 602 518L598 491H493Q507 598 482.5 649Q458 700 376 700H368Q278 700 229 630.5Q180 561 161 413ZM439 854H339L350 936H450Z" glyph-name="Cdotaccent" horiz-adv-x="630" unicode="&#266;" /><glyph d="M240 92Q348 92 408.5 156Q469 220 489 367L495 413Q514 558 470 623Q426 688 318 688H212L134 92ZM595 367Q582 266 553 196Q524 126 479.5 82.5Q435 39 375 19.5Q315 0 240 0H18L120 780H330Q402 780 458 759.5Q514 739 550 694.5Q586 650 600 580.5Q614 511 601 413Z" glyph-name="D" horiz-adv-x="647" unicode="D" /><glyph d="M240 92Q348 92 408.5 156Q469 220 489 367L495 413Q514 558 470 623Q426 688 318 688H212L134 92ZM595 367Q582 266 553 196Q524 126 479.5 82.5Q435 39 375 19.5Q315 0 240 0H18L120 780H330Q402 780 458 759.5Q514 739 550 694.5Q586 650 600 580.5Q614 511 601 413ZM308 950 365 891 440 950H538L410 840H312L214 950Z" glyph-name="Dcaron" horiz-adv-x="647" unicode="&#270;" /><glyph d="M300 92Q408 92 468.5 156Q529 220 549 367L555 413Q574 558 530 623Q486 688 378 688H272L240 444H434L422 352H228L194 92ZM136 444 180 780H390Q462 780 518 759.5Q574 739 610 694.5Q646 650 660 580.5Q674 511 661 413L655 367Q642 266 613 196Q584 126 539.5 82.5Q495 39 435 19.5Q375 0 300 0H78L124 352H15L27 444Z" glyph-name="Dcroat" horiz-adv-x="707" unicode="&#272;" /><glyph d="M240 92Q348 92 408.5 156Q469 220 489 367L495 413Q514 558 470 623Q426 688 318 688H212L134 92ZM595 367Q582 266 553 196Q524 126 479.5 82.5Q435 39 375 19.5Q315 0 240 0H18L120 780H330Q402 780 458 759.5Q514 739 550 694.5Q586 650 600 580.5Q614 511 601 413ZM414 854H314L325 936H425Z" glyph-name="Ddotaccent" horiz-adv-x="647" unicode="&#7690;" /><glyph d="M570 780 558 688H212L180 444H476L464 352H168L134 92H480L468 0H18L120 780Z" glyph-name="E" horiz-adv-x="557" unicode="E" /><glyph d="M570 780 558 688H212L180 444H476L464 352H168L134 92H480L468 0H18L120 780ZM488 950 410 840H308L381 950Z" glyph-name="Eacute" horiz-adv-x="557" unicode="&#201;" /><glyph d="M570 780 558 688H212L180 444H476L464 352H168L134 92H480L468 0H18L120 780ZM361 827Q316 827 286 836.5Q256 846 239 862.5Q222 879 216.5 901.5Q211 924 215 950H288Q284 922 301 906Q318 890 363 890Q409 890 430.5 904.5Q452 919 456 950H533Q529 924 517.5 901.5Q506 879 485.5 862.5Q465 846 434 836.5Q403 827 361 827Z" glyph-name="Ebreve" horiz-adv-x="557" unicode="&#276;" /><glyph d="M570 780 558 688H212L180 444H476L464 352H168L134 92H480L468 0H18L120 780ZM306 950 363 891 438 950H536L408 840H310L212 950Z" glyph-name="Ecaron" horiz-adv-x="557" unicode="&#282;" /><glyph d="M570 780 558 688H212L180 444H476L464 352H168L134 92H480L468 0H18L120 780ZM427 840 370 899 295 840H197L325 950H423L521 840Z" glyph-name="Ecircumflex" horiz-adv-x="557" unicode="&#202;" /><glyph d="M570 780 558 688H212L180 444H476L464 352H168L134 92H480L468 0H18L120 780ZM492 854H393L404 936H503ZM329 854H230L241 936H340Z" glyph-name="Edieresis" horiz-adv-x="557" unicode="&#203;" /><glyph d="M570 780 558 688H212L180 444H476L464 352H168L134 92H480L468 0H18L120 780ZM412 854H312L323 936H423Z" glyph-name="Edotaccent" horiz-adv-x="557" unicode="&#278;" /><glyph d="M570 780 558 688H212L180 444H476L464 352H168L134 92H480L468 0H18L120 780ZM367 950 410 840H308L260 950Z" glyph-name="Egrave" horiz-adv-x="557" unicode="&#200;" /><glyph d="M570 780 558 688H212L180 444H476L464 352H168L134 92H480L468 0H18L120 780ZM245 930H499L490 860H236Z" glyph-name="Emacron" horiz-adv-x="557" unicode="&#274;" /><glyph d="M448 -14 193 596 174 423 119 0H18L120 780H229L478 184L497 357L552 780H653L546 -39Q540 -88 522.5 -121Q505 -154 479.5 -174.5Q454 -195 421 -203.5Q388 -212 351 -212Q318 -212 298.5 -207Q279 -202 275 -200L286 -114Q292 -116 309 -119Q326 -122 344 -122Q364 -122 381 -118.5Q398 -115 411.5 -105Q425 -95 433.5 -77Q442 -59 446 -30Z" glyph-name="Eng" horiz-adv-x="667" unicode="&#330;" /><glyph d="M570 780 558 688H212L180 444H476L464 352H168L134 92H480L468 0Q453 -6 437.5 -14.5Q422 -23 409.5 -34.5Q397 -46 388.5 -61Q380 -76 380 -95Q380 -112 390.5 -124Q401 -136 421 -136Q441 -136 456.5 -132Q472 -128 482 -123L498 -191Q481 -201 456.5 -207Q432 -213 406 -213Q352 -213 324 -187Q296 -161 296 -115Q296 -77 311.5 -49Q327 -21 353 0H18L120 780Z" glyph-name="Eogonek" horiz-adv-x="557" unicode="&#280;" /><glyph d="M490 687Q479 692 453.5 696Q428 700 397 700Q356 700 320 691.5Q284 683 256.5 663.5Q229 644 211 611.5Q193 579 187 532L117 0H13L84 537Q102 674 182 733Q262 792 399 792Q477 792 530 779Q583 766 614 751L605 681L442 450L506 442Q557 436 599 418Q641 400 670.5 372Q700 344 713.5 305.5Q727 267 721 219L718 196Q704 94 639.5 41Q575 -12 469 -12Q337 -12 281.5 50Q226 112 244 232L248 259H352Q344 208 348.5 174Q353 140 368 119Q383 98 407.5 89Q432 80 464 80H474Q531 80 568.5 112.5Q606 145 613 202L614 210Q622 267 586.5 305.5Q551 344 470 354L309 374L318 444Z" glyph-name="Eszett" horiz-adv-x="774" unicode="&#7838;" /><glyph d="M300 92Q408 92 468.5 156Q529 220 549 367L555 413Q574 558 530 623Q486 688 378 688H272L240 444H434L422 352H228L194 92ZM136 444 180 780H390Q462 780 518 759.5Q574 739 610 694.5Q646 650 660 580.5Q674 511 661 413L655 367Q642 266 613 196Q584 126 539.5 82.5Q495 39 435 19.5Q375 0 300 0H78L124 352H15L27 444Z" glyph-name="Eth" horiz-adv-x="707" unicode="&#208;" /><glyph d="M18 257 30 349H99L104 391H35L47 483H119Q155 645 220.5 718.5Q286 792 389 792Q449 792 489.5 774Q530 756 552.5 722Q575 688 580 638.5Q585 589 576 527L572 500H481Q495 607 475 653.5Q455 700 393 700H385Q269 700 224 483H471L415 391H210L204 349H425L368 257H196Q196 167 224.5 123.5Q253 80 305 80H313Q427 80 448 250H539L538 240Q525 114 469 51Q413 -12 309 -12Q199 -12 145.5 52Q92 116 92 257Z" glyph-name="Euro" horiz-adv-x="600" unicode="&#8364;" /><glyph d="M559 780 547 688H212L180 444H465L453 352H168L122 0H18L120 780Z" glyph-name="F" horiz-adv-x="526" unicode="F" /><glyph d="M559 780 547 688H212L180 444H465L453 352H168L122 0H18L120 780ZM410 854H310L321 936H421Z" glyph-name="Fdotaccent" horiz-adv-x="526" unicode="&#7710;" /><glyph d="M302 -12Q227 -12 173 9.5Q119 31 87 76.5Q55 122 45.5 194Q36 266 49 367L55 413Q68 514 94.5 586Q121 658 161.5 703.5Q202 749 257 770.5Q312 792 382 792Q652 792 612 518L608 491H503Q517 598 492 649Q467 700 386 700H378Q287 700 234 631Q181 562 161 413L155 367Q135 218 170.5 149Q206 80 298 80H306Q354 80 391 92.5Q428 105 456 125L480 306H357L369 398H596L554 79Q531 61 507 44.5Q483 28 453 15.5Q423 3 386 -4.5Q349 -12 302 -12Z" glyph-name="G" horiz-adv-x="655" unicode="G" /><glyph d="M302 -12Q227 -12 173 9.5Q119 31 87 76.5Q55 122 45.5 194Q36 266 49 367L55 413Q68 514 94.5 586Q121 658 161.5 703.5Q202 749 257 770.5Q312 792 382 792Q652 792 612 518L608 491H503Q517 598 492 649Q467 700 386 700H378Q287 700 234 631Q181 562 161 413L155 367Q135 218 170.5 149Q206 80 298 80H306Q354 80 391 92.5Q428 105 456 125L480 306H357L369 398H596L554 79Q531 61 507 44.5Q483 28 453 15.5Q423 3 386 -4.5Q349 -12 302 -12ZM393 827Q348 827 318 836.5Q288 846 271 862.5Q254 879 248.5 901.5Q243 924 247 950H320Q316 922 333 906Q350 890 395 890Q441 890 462.5 904.5Q484 919 488 950H565Q561 924 549.5 901.5Q538 879 517.5 862.5Q497 846 466 836.5Q435 827 393 827Z" glyph-name="Gbreve" horiz-adv-x="655" unicode="&#286;" /><glyph d="M302 -12Q227 -12 173 9.5Q119 31 87 76.5Q55 122 45.5 194Q36 266 49 367L55 413Q68 514 94.5 586Q121 658 161.5 703.5Q202 749 257 770.5Q312 792 382 792Q652 792 612 518L608 491H503Q517 598 492 649Q467 700 386 700H378Q287 700 234 631Q181 562 161 413L155 367Q135 218 170.5 149Q206 80 298 80H306Q354 80 391 92.5Q428 105 456 125L480 306H357L369 398H596L554 79Q531 61 507 44.5Q483 28 453 15.5Q423 3 386 -4.5Q349 -12 302 -12ZM459 840 402 899 327 840H229L357 950H455L553 840Z" glyph-name="Gcircumflex" horiz-adv-x="655" unicode="&#284;" /><glyph d="M302 -12Q227 -12 173 9.5Q119 31 87 76.5Q55 122 45.5 194Q36 266 49 367L55 413Q68 514 94.5 586Q121 658 161.5 703.5Q202 749 257 770.5Q312 792 382 792Q652 792 612 518L608 491H503Q517 598 492 649Q467 700 386 700H378Q287 700 234 631Q181 562 161 413L155 367Q135 218 170.5 149Q206 80 298 80H306Q354 80 391 92.5Q428 105 456 125L480 306H357L369 398H596L554 79Q531 61 507 44.5Q483 28 453 15.5Q423 3 386 -4.5Q349 -12 302 -12ZM333 -105Q318 -219 198 -219L204 -172Q233 -172 254 -162Q275 -152 280 -129H227L237 -51H340Z" glyph-name="Gcommaaccent" horiz-adv-x="655" unicode="&#290;" /><glyph d="M302 -12Q227 -12 173 9.5Q119 31 87 76.5Q55 122 45.5 194Q36 266 49 367L55 413Q68 514 94.5 586Q121 658 161.5 703.5Q202 749 257 770.5Q312 792 382 792Q652 792 612 518L608 491H503Q517 598 492 649Q467 700 386 700H378Q287 700 234 631Q181 562 161 413L155 367Q135 218 170.5 149Q206 80 298 80H306Q354 80 391 92.5Q428 105 456 125L480 306H357L369 398H596L554 79Q531 61 507 44.5Q483 28 453 15.5Q423 3 386 -4.5Q349 -12 302 -12ZM444 854H344L355 936H455Z" glyph-name="Gdotaccent" horiz-adv-x="655" unicode="&#288;" /><glyph d="M633 780 531 0H427L473 352H168L122 0H18L120 780H224L180 444H485L529 780Z" glyph-name="H" horiz-adv-x="647" unicode="H" /><glyph d="M485 444 501 571H196L180 444ZM633 780 531 0H427L473 352H168L122 0H18L120 780H224L207 655H512L529 780Z" glyph-name="Hbar" horiz-adv-x="647" unicode="&#294;" /><glyph d="M453 840 396 899 321 840H223L351 950H449L547 840ZM633 780 531 0H427L473 352H168L122 0H18L120 780H224L180 444H485L529 780Z" glyph-name="Hcircumflex" horiz-adv-x="647" unicode="&#292;" /><glyph d="M127 0H23L125 780H229Z" glyph-name="I" horiz-adv-x="248" unicode="I" /><glyph d="M127 0H23L125 780H229ZM424 780H528L448 169Q441 116 425 81.5Q409 47 385.5 26Q362 5 331.5 -3.5Q301 -12 267 -12Q229 -12 206.5 -6.5Q184 -1 179 2L190 90Q197 87 216 83.5Q235 80 255 80Q293 80 315 101.5Q337 123 345 181Z" glyph-name="IJ" horiz-adv-x="537" unicode="&#306;" /><glyph d="M127 0H23L125 780H229ZM314 950 236 840H134L207 950Z" glyph-name="Iacute" horiz-adv-x="248" unicode="&#205;" /><glyph d="M127 0H23L125 780H229ZM187 827Q142 827 112 836.5Q82 846 65 862.5Q48 879 42.5 901.5Q37 924 41 950H114Q110 922 127 906Q144 890 189 890Q235 890 256.5 904.5Q278 919 282 950H359Q355 924 343.5 901.5Q332 879 311.5 862.5Q291 846 260 836.5Q229 827 187 827Z" glyph-name="Ibreve" horiz-adv-x="248" unicode="&#300;" /><glyph d="M127 0H23L125 780H229ZM253 840 196 899 121 840H23L151 950H249L347 840Z" glyph-name="Icircumflex" horiz-adv-x="248" unicode="&#206;" /><glyph d="M127 0H23L125 780H229ZM318 854H219L230 936H329ZM155 854H56L67 936H166Z" glyph-name="Idieresis" horiz-adv-x="248" unicode="&#207;" /><glyph d="M127 0H23L125 780H229ZM238 854H138L149 936H249Z" glyph-name="Idotaccent" horiz-adv-x="248" unicode="&#304;" /><glyph d="M127 0H23L125 780H229ZM193 950 236 840H134L86 950Z" glyph-name="Igrave" horiz-adv-x="248" unicode="&#204;" /><glyph d="M127 0H23L125 780H229ZM71 930H325L316 860H62Z" glyph-name="Imacron" horiz-adv-x="248" unicode="&#298;" /><glyph d="M127 0Q112 -6 96.5 -14.5Q81 -23 68.5 -34.5Q56 -46 47.5 -61Q39 -76 39 -95Q39 -112 49.5 -124Q60 -136 80 -136Q100 -136 115.5 -132Q131 -128 141 -123L157 -191Q140 -201 115.5 -207Q91 -213 65 -213Q11 -213 -17 -187Q-45 -161 -45 -115Q-45 -73 -25 -42.5Q-5 -12 24 9L125 780H229Z" glyph-name="Iogonek" horiz-adv-x="248" unicode="&#302;" /><glyph d="M127 0H23L125 780H229ZM361 940Q354 886 325.5 862Q297 838 260 838Q238 838 219.5 846Q201 854 184.5 863.5Q168 873 153.5 881Q139 889 124 889Q111 889 99.5 880Q88 871 85 850H23Q30 904 58.5 928Q87 952 124 952Q146 952 164.5 944Q183 936 199.5 926.5Q216 917 230.5 909Q245 901 260 901Q273 901 284.5 910Q296 919 299 940Z" glyph-name="Itilde" horiz-adv-x="248" unicode="&#296;" /><glyph d="M501 780 430 239Q422 180 405 133.5Q388 87 359 54.5Q330 22 289 5Q248 -12 192 -12Q79 -12 34.5 50Q-10 112 8 232L12 259H111Q103 208 104.5 174Q106 140 116 119Q126 98 145 89Q164 80 192 80Q255 80 285.5 122.5Q316 165 328 254L397 780Z" glyph-name="J" horiz-adv-x="510" unicode="J" /><glyph d="M525 840 468 899 393 840H295L423 950H521L619 840ZM501 780 430 239Q422 180 405 133.5Q388 87 359 54.5Q330 22 289 5Q248 -12 192 -12Q79 -12 34.5 50Q-10 112 8 232L12 259H111Q103 208 104.5 174Q106 140 116 119Q126 98 145 89Q164 80 192 80Q255 80 285.5 122.5Q316 165 328 254L397 780Z" glyph-name="Jcircumflex" horiz-adv-x="510" unicode="&#308;" /><glyph d="M174 402 482 780H608L338 457L506 0H392L260 363L152 235L122 0H18L120 780H224Z" glyph-name="K" horiz-adv-x="585" unicode="K" /><glyph d="M174 402 482 780H608L338 457L506 0H392L260 363L152 235L122 0H18L120 780H224ZM279 -105Q264 -219 144 -219L150 -172Q179 -172 200 -162Q221 -152 226 -129H173L183 -51H286Z" glyph-name="Kcommaaccent" horiz-adv-x="585" unicode="&#310;" /><glyph d="M18 0 120 780H224L134 92H449L437 0Z" glyph-name="L" horiz-adv-x="501" unicode="L" /><glyph d="M18 0 120 780H224L134 92H449L437 0ZM309 950 231 840H129L202 950Z" glyph-name="Lacute" horiz-adv-x="501" unicode="&#313;" /><glyph d="M18 0 120 780H224L134 92H449L437 0ZM433 800 388 607H336L362 800Z" glyph-name="Lcaron" horiz-adv-x="501" unicode="&#317;" /><glyph d="M266 -105Q251 -219 131 -219L137 -172Q166 -172 187 -162Q208 -152 213 -129H160L170 -51H273ZM18 0 120 780H224L134 92H449L437 0Z" glyph-name="Lcommaaccent" horiz-adv-x="501" unicode="&#315;" /><glyph d="M418 340H303L318 456H433ZM18 0 120 780H224L134 92H449L437 0Z" glyph-name="Ldot" horiz-adv-x="501" unicode="&#319;" /><glyph d="M10 329 128 383 180 780H284L239 436L458 542L446 451L227 345L194 92H509L497 0H78L116 293L-3 238Z" glyph-name="Lslash" horiz-adv-x="561" unicode="&#321;" /><glyph d="M414 0H315L197 599L179 432L123 0H18L120 780H269L385 180L658 780H813L711 0H606L662 432L688 599Z" glyph-name="M" horiz-adv-x="827" unicode="M" /><glyph d="M414 0H315L197 599L179 432L123 0H18L120 780H269L385 180L658 780H813L711 0H606L662 432L688 599ZM526 854H426L437 936H537Z" glyph-name="Mdotaccent" horiz-adv-x="827" unicode="&#7744;" /><glyph d="M551 0H442L193 596L174 423L119 0H18L120 780H229L478 184L497 357L552 780H653Z" glyph-name="N" horiz-adv-x="667" unicode="N" /><glyph d="M551 0H442L193 596L174 423L119 0H18L120 780H229L478 184L497 357L552 780H653ZM524 950 446 840H344L417 950Z" glyph-name="Nacute" horiz-adv-x="667" unicode="&#323;" /><glyph d="M551 0H442L193 596L174 423L119 0H18L120 780H229L478 184L497 357L552 780H653ZM342 950 399 891 474 950H572L444 840H346L248 950Z" glyph-name="Ncaron" horiz-adv-x="667" unicode="&#327;" /><glyph d="M551 0H442L193 596L174 423L119 0H18L120 780H229L478 184L497 357L552 780H653ZM322 -105Q307 -219 187 -219L193 -172Q222 -172 243 -162Q264 -152 269 -129H216L226 -51H329Z" glyph-name="Ncommaaccent" horiz-adv-x="667" unicode="&#325;" /><glyph d="M551 0H442L193 596L174 423L119 0H18L120 780H229L478 184L497 357L552 780H653ZM571 940Q564 886 535.5 862Q507 838 470 838Q448 838 429.5 846Q411 854 394.5 863.5Q378 873 363.5 881Q349 889 334 889Q321 889 309.5 880Q298 871 295 850H233Q240 904 268.5 928Q297 952 334 952Q356 952 374.5 944Q393 936 409.5 926.5Q426 917 440.5 909Q455 901 470 901Q483 901 494.5 910Q506 919 509 940Z" glyph-name="Ntilde" horiz-adv-x="667" unicode="&#209;" /><glyph d="M294 80Q339 80 373 97Q407 114 431.5 149Q456 184 472.5 238.5Q489 293 499 367L505 413Q524 561 494 630.5Q464 700 374 700H366Q276 700 228 630.5Q180 561 161 413L155 367Q135 218 165.5 149Q196 80 286 80ZM370 792Q445 792 497 770.5Q549 749 579 703.5Q609 658 616.5 586Q624 514 611 413L605 367Q592 266 567 194Q542 122 503.5 76.5Q465 31 412 9.5Q359 -12 290 -12Q215 -12 163 9.5Q111 31 81 76.5Q51 122 43.5 194Q36 266 49 367L55 413Q68 514 93 586Q118 658 156.5 703.5Q195 749 248 770.5Q301 792 370 792Z" glyph-name="O" horiz-adv-x="657" unicode="O" /><glyph d="M55 413Q68 514 97 584Q126 654 170.5 697.5Q215 741 275 760.5Q335 780 410 780H953L941 688H595L563 444H859L847 352H551L517 92H863L851 0H320Q248 0 192 20.5Q136 41 100 85Q64 129 50 199Q36 269 49 367ZM410 688Q302 688 241 624Q180 560 161 413L155 367Q136 222 180 157Q224 92 332 92H413L491 688Z" glyph-name="OE" horiz-adv-x="940" unicode="&#338;" /><glyph d="M294 80Q339 80 373 97Q407 114 431.5 149Q456 184 472.5 238.5Q489 293 499 367L505 413Q524 561 494 630.5Q464 700 374 700H366Q276 700 228 630.5Q180 561 161 413L155 367Q135 218 165.5 149Q196 80 286 80ZM370 792Q445 792 497 770.5Q549 749 579 703.5Q609 658 616.5 586Q624 514 611 413L605 367Q592 266 567 194Q542 122 503.5 76.5Q465 31 412 9.5Q359 -12 290 -12Q215 -12 163 9.5Q111 31 81 76.5Q51 122 43.5 194Q36 266 49 367L55 413Q68 514 93 586Q118 658 156.5 703.5Q195 749 248 770.5Q301 792 370 792ZM519 950 441 840H339L412 950Z" glyph-name="Oacute" horiz-adv-x="657" unicode="&#211;" /><glyph d="M294 80Q339 80 373 97Q407 114 431.5 149Q456 184 472.5 238.5Q489 293 499 367L505 413Q524 561 494 630.5Q464 700 374 700H366Q276 700 228 630.5Q180 561 161 413L155 367Q135 218 165.5 149Q196 80 286 80ZM370 792Q445 792 497 770.5Q549 749 579 703.5Q609 658 616.5 586Q624 514 611 413L605 367Q592 266 567 194Q542 122 503.5 76.5Q465 31 412 9.5Q359 -12 290 -12Q215 -12 163 9.5Q111 31 81 76.5Q51 122 43.5 194Q36 266 49 367L55 413Q68 514 93 586Q118 658 156.5 703.5Q195 749 248 770.5Q301 792 370 792ZM392 827Q347 827 317 836.5Q287 846 270 862.5Q253 879 247.5 901.5Q242 924 246 950H319Q315 922 332 906Q349 890 394 890Q440 890 461.5 904.5Q483 919 487 950H564Q560 924 548.5 901.5Q537 879 516.5 862.5Q496 846 465 836.5Q434 827 392 827Z" glyph-name="Obreve" horiz-adv-x="657" unicode="&#334;" /><glyph d="M294 80Q339 80 373 97Q407 114 431.5 149Q456 184 472.5 238.5Q489 293 499 367L505 413Q524 561 494 630.5Q464 700 374 700H366Q276 700 228 630.5Q180 561 161 413L155 367Q135 218 165.5 149Q196 80 286 80ZM370 792Q445 792 497 770.5Q549 749 579 703.5Q609 658 616.5 586Q624 514 611 413L605 367Q592 266 567 194Q542 122 503.5 76.5Q465 31 412 9.5Q359 -12 290 -12Q215 -12 163 9.5Q111 31 81 76.5Q51 122 43.5 194Q36 266 49 367L55 413Q68 514 93 586Q118 658 156.5 703.5Q195 749 248 770.5Q301 792 370 792ZM458 840 401 899 326 840H228L356 950H454L552 840Z" glyph-name="Ocircumflex" horiz-adv-x="657" unicode="&#212;" /><glyph d="M294 80Q339 80 373 97Q407 114 431.5 149Q456 184 472.5 238.5Q489 293 499 367L505 413Q524 561 494 630.5Q464 700 374 700H366Q276 700 228 630.5Q180 561 161 413L155 367Q135 218 165.5 149Q196 80 286 80ZM370 792Q445 792 497 770.5Q549 749 579 703.5Q609 658 616.5 586Q624 514 611 413L605 367Q592 266 567 194Q542 122 503.5 76.5Q465 31 412 9.5Q359 -12 290 -12Q215 -12 163 9.5Q111 31 81 76.5Q51 122 43.5 194Q36 266 49 367L55 413Q68 514 93 586Q118 658 156.5 703.5Q195 749 248 770.5Q301 792 370 792ZM523 854H424L435 936H534ZM360 854H261L272 936H371Z" glyph-name="Odieresis" horiz-adv-x="657" unicode="&#214;" /><glyph d="M294 80Q339 80 373 97Q407 114 431.5 149Q456 184 472.5 238.5Q489 293 499 367L505 413Q524 561 494 630.5Q464 700 374 700H366Q276 700 228 630.5Q180 561 161 413L155 367Q135 218 165.5 149Q196 80 286 80ZM370 792Q445 792 497 770.5Q549 749 579 703.5Q609 658 616.5 586Q624 514 611 413L605 367Q592 266 567 194Q542 122 503.5 76.5Q465 31 412 9.5Q359 -12 290 -12Q215 -12 163 9.5Q111 31 81 76.5Q51 122 43.5 194Q36 266 49 367L55 413Q68 514 93 586Q118 658 156.5 703.5Q195 749 248 770.5Q301 792 370 792ZM398 950 441 840H339L291 950Z" glyph-name="Ograve" horiz-adv-x="657" unicode="&#210;" /><glyph d="M294 80Q339 80 373 97Q407 114 431.5 149Q456 184 472.5 238.5Q489 293 499 367L505 413Q524 561 494 630.5Q464 700 374 700H366Q276 700 228 630.5Q180 561 161 413L155 367Q135 218 165.5 149Q196 80 286 80ZM370 792Q445 792 497 770.5Q549 749 579 703.5Q609 658 616.5 586Q624 514 611 413L605 367Q592 266 567 194Q542 122 503.5 76.5Q465 31 412 9.5Q359 -12 290 -12Q215 -12 163 9.5Q111 31 81 76.5Q51 122 43.5 194Q36 266 49 367L55 413Q68 514 93 586Q118 658 156.5 703.5Q195 749 248 770.5Q301 792 370 792ZM584 950 507 840H413L486 950ZM440 950 367 840H273L342 950Z" glyph-name="Ohungarumlaut" horiz-adv-x="657" unicode="&#336;" /><glyph d="M294 80Q339 80 373 97Q407 114 431.5 149Q456 184 472.5 238.5Q489 293 499 367L505 413Q524 561 494 630.5Q464 700 374 700H366Q276 700 228 630.5Q180 561 161 413L155 367Q135 218 165.5 149Q196 80 286 80ZM370 792Q445 792 497 770.5Q549 749 579 703.5Q609 658 616.5 586Q624 514 611 413L605 367Q592 266 567 194Q542 122 503.5 76.5Q465 31 412 9.5Q359 -12 290 -12Q215 -12 163 9.5Q111 31 81 76.5Q51 122 43.5 194Q36 266 49 367L55 413Q68 514 93 586Q118 658 156.5 703.5Q195 749 248 770.5Q301 792 370 792ZM276 930H530L521 860H267Z" glyph-name="Omacron" horiz-adv-x="657" unicode="&#332;" /><glyph d="M505 413Q509 441 511 464Q513 487 513 506.5Q513 526 512 542.5Q511 559 509 575L178 128Q195 104 221 92Q247 80 286 80H294Q339 80 373 97Q407 114 431.5 149Q456 184 472.5 238.5Q489 293 499 367ZM155 367Q147 311 146.5 273.5Q146 236 151 205L482 652Q465 676 439 688Q413 700 374 700H366Q276 700 228 630.5Q180 561 161 413ZM605 367Q592 266 567 194Q542 122 503.5 76.5Q465 31 412 9.5Q359 -12 290 -12Q174 -12 113 40L83 0H-1L70 96Q26 185 49 367L55 413Q68 514 93 586Q118 658 156.5 703.5Q195 749 248 770.5Q301 792 370 792Q486 792 547 740L577 780H661L590 684Q634 595 611 413Z" glyph-name="Oslash" horiz-adv-x="649" unicode="&#216;" /><glyph d="M294 80Q339 80 373 97Q407 114 431.5 149Q456 184 472.5 238.5Q489 293 499 367L505 413Q524 561 494 630.5Q464 700 374 700H366Q276 700 228 630.5Q180 561 161 413L155 367Q135 218 165.5 149Q196 80 286 80ZM370 792Q445 792 497 770.5Q549 749 579 703.5Q609 658 616.5 586Q624 514 611 413L605 367Q592 266 567 194Q542 122 503.5 76.5Q465 31 412 9.5Q359 -12 290 -12Q215 -12 163 9.5Q111 31 81 76.5Q51 122 43.5 194Q36 266 49 367L55 413Q68 514 93 586Q118 658 156.5 703.5Q195 749 248 770.5Q301 792 370 792ZM566 940Q559 886 530.5 862Q502 838 465 838Q443 838 424.5 846Q406 854 389.5 863.5Q373 873 358.5 881Q344 889 329 889Q316 889 304.5 880Q293 871 290 850H228Q235 904 263.5 928Q292 952 329 952Q351 952 369.5 944Q388 936 404.5 926.5Q421 917 435.5 909Q450 901 465 901Q478 901 489.5 910Q501 919 504 940Z" glyph-name="Otilde" horiz-adv-x="657" unicode="&#213;" /><glyph d="M122 0H18L120 780H344Q388 780 432.5 769.5Q477 759 511 733Q545 707 562.5 662.5Q580 618 571 550L568 528Q559 462 532.5 418.5Q506 375 469.5 349.5Q433 324 390.5 314Q348 304 308 304H162ZM306 395Q329 395 354.5 400.5Q380 406 402.5 421.5Q425 437 441.5 464Q458 491 463 534L464 542Q470 587 461 615.5Q452 644 434 660Q416 676 391.5 682Q367 688 342 688H212L174 395Z" glyph-name="P" horiz-adv-x="586" unicode="P" /><glyph d="M122 0H18L120 780H344Q388 780 432.5 769.5Q477 759 511 733Q545 707 562.5 662.5Q580 618 571 550L568 528Q559 462 532.5 418.5Q506 375 469.5 349.5Q433 324 390.5 314Q348 304 308 304H162ZM306 395Q329 395 354.5 400.5Q380 406 402.5 421.5Q425 437 441.5 464Q458 491 463 534L464 542Q470 587 461 615.5Q452 644 434 660Q416 676 391.5 682Q367 688 342 688H212L174 395ZM402 854H302L313 936H413Z" glyph-name="Pdotaccent" horiz-adv-x="586" unicode="&#7766;" /><glyph d="M304 80 265 239H348L383 102Q430 131 457.5 196Q485 261 499 367L505 413Q524 561 494 630.5Q464 700 374 700H366Q276 700 228 630.5Q180 561 161 413L155 367Q135 218 165.5 149Q196 80 286 80ZM370 792Q445 792 497 770.5Q549 749 579 703.5Q609 658 616.5 586Q624 514 611 413L605 367Q585 213 537 126Q489 39 407 8L435 -100H348L326 -10Q317 -11 308 -11.5Q299 -12 290 -12Q215 -12 163 9.5Q111 31 81 76.5Q51 122 43.5 194Q36 266 49 367L55 413Q68 514 93 586Q118 658 156.5 703.5Q195 749 248 770.5Q301 792 370 792Z" glyph-name="Q" horiz-adv-x="657" unicode="Q" /><glyph d="M306 395Q329 395 354.5 400.5Q380 406 402.5 421.5Q425 437 441.5 464Q458 491 463 534L464 542Q470 587 461 615.5Q452 644 434 660Q416 676 391.5 682Q367 688 342 688H212L174 395ZM122 0H18L120 780H344Q388 780 432.5 769.5Q477 759 511 733Q545 707 562.5 662.5Q580 618 571 550L568 528Q562 482 547 447.5Q532 413 511 387.5Q490 362 463.5 345.5Q437 329 409 320L499 0H386L308 304H162Z" glyph-name="R" horiz-adv-x="598" unicode="R" /><glyph d="M472 950 394 840H292L365 950ZM306 395Q329 395 354.5 400.5Q380 406 402.5 421.5Q425 437 441.5 464Q458 491 463 534L464 542Q470 587 461 615.5Q452 644 434 660Q416 676 391.5 682Q367 688 342 688H212L174 395ZM122 0H18L120 780H344Q388 780 432.5 769.5Q477 759 511 733Q545 707 562.5 662.5Q580 618 571 550L568 528Q562 482 547 447.5Q532 413 511 387.5Q490 362 463.5 345.5Q437 329 409 320L499 0H386L308 304H162Z" glyph-name="Racute" horiz-adv-x="598" unicode="&#340;" /><glyph d="M290 950 347 891 422 950H520L392 840H294L196 950ZM306 395Q329 395 354.5 400.5Q380 406 402.5 421.5Q425 437 441.5 464Q458 491 463 534L464 542Q470 587 461 615.5Q452 644 434 660Q416 676 391.5 682Q367 688 342 688H212L174 395ZM122 0H18L120 780H344Q388 780 432.5 769.5Q477 759 511 733Q545 707 562.5 662.5Q580 618 571 550L568 528Q562 482 547 447.5Q532 413 511 387.5Q490 362 463.5 345.5Q437 329 409 320L499 0H386L308 304H162Z" glyph-name="Rcaron" horiz-adv-x="598" unicode="&#344;" /><glyph d="M290 -105Q275 -219 155 -219L161 -172Q190 -172 211 -162Q232 -152 237 -129H184L194 -51H297ZM306 395Q329 395 354.5 400.5Q380 406 402.5 421.5Q425 437 441.5 464Q458 491 463 534L464 542Q470 587 461 615.5Q452 644 434 660Q416 676 391.5 682Q367 688 342 688H212L174 395ZM122 0H18L120 780H344Q388 780 432.5 769.5Q477 759 511 733Q545 707 562.5 662.5Q580 618 571 550L568 528Q562 482 547 447.5Q532 413 511 387.5Q490 362 463.5 345.5Q437 329 409 320L499 0H386L308 304H162Z" glyph-name="Rcommaaccent" horiz-adv-x="598" unicode="&#342;" /><glyph d="M283 355Q221 364 178.5 384Q136 404 111.5 432.5Q87 461 78.5 496Q70 531 75 570L78 592Q91 687 160.5 739.5Q230 792 341 792Q412 792 462 774Q512 756 542 723Q572 690 582.5 643Q593 596 584 538L580 511H476Q490 611 457 655.5Q424 700 346 700H336Q272 700 231 669.5Q190 639 183 586L182 578Q179 551 184.5 529Q190 507 207.5 490Q225 473 256 460.5Q287 448 335 440Q460 420 510.5 363.5Q561 307 549 218L546 196Q532 91 459.5 39.5Q387 -12 269 -12Q135 -12 69.5 50Q4 112 22 232L26 259H130Q122 208 128.5 174Q135 140 153.5 119Q172 98 200.5 89Q229 80 264 80H274Q346 80 389.5 111Q433 142 441 202L442 210Q450 270 413.5 305.5Q377 341 283 355Z" glyph-name="S" horiz-adv-x="611" unicode="S" /><glyph d="M283 355Q221 364 178.5 384Q136 404 111.5 432.5Q87 461 78.5 496Q70 531 75 570L78 592Q91 687 160.5 739.5Q230 792 341 792Q412 792 462 774Q512 756 542 723Q572 690 582.5 643Q593 596 584 538L580 511H476Q490 611 457 655.5Q424 700 346 700H336Q272 700 231 669.5Q190 639 183 586L182 578Q179 551 184.5 529Q190 507 207.5 490Q225 473 256 460.5Q287 448 335 440Q460 420 510.5 363.5Q561 307 549 218L546 196Q532 91 459.5 39.5Q387 -12 269 -12Q135 -12 69.5 50Q4 112 22 232L26 259H130Q122 208 128.5 174Q135 140 153.5 119Q172 98 200.5 89Q229 80 264 80H274Q346 80 389.5 111Q433 142 441 202L442 210Q450 270 413.5 305.5Q377 341 283 355ZM496 950 418 840H316L389 950Z" glyph-name="Sacute" horiz-adv-x="611" unicode="&#346;" /><glyph d="M283 355Q221 364 178.5 384Q136 404 111.5 432.5Q87 461 78.5 496Q70 531 75 570L78 592Q91 687 160.5 739.5Q230 792 341 792Q412 792 462 774Q512 756 542 723Q572 690 582.5 643Q593 596 584 538L580 511H476Q490 611 457 655.5Q424 700 346 700H336Q272 700 231 669.5Q190 639 183 586L182 578Q179 551 184.5 529Q190 507 207.5 490Q225 473 256 460.5Q287 448 335 440Q460 420 510.5 363.5Q561 307 549 218L546 196Q532 91 459.5 39.5Q387 -12 269 -12Q135 -12 69.5 50Q4 112 22 232L26 259H130Q122 208 128.5 174Q135 140 153.5 119Q172 98 200.5 89Q229 80 264 80H274Q346 80 389.5 111Q433 142 441 202L442 210Q450 270 413.5 305.5Q377 341 283 355ZM314 950 371 891 446 950H544L416 840H318L220 950Z" glyph-name="Scaron" horiz-adv-x="611" unicode="&#352;" /><glyph d="M283 355Q221 364 178.5 384Q136 404 111.5 432.5Q87 461 78.5 496Q70 531 75 570L78 592Q91 687 160.5 739.5Q230 792 341 792Q412 792 462 774Q512 756 542 723Q572 690 582.5 643Q593 596 584 538L580 511H476Q490 611 457 655.5Q424 700 346 700H336Q272 700 231 669.5Q190 639 183 586L182 578Q179 551 184.5 529Q190 507 207.5 490Q225 473 256 460.5Q287 448 335 440Q460 420 510.5 363.5Q561 307 549 218L546 196Q532 93 462.5 41.5Q393 -10 280 -12L260 -50Q297 -51 324.5 -68Q352 -85 352 -125Q352 -170 319 -191.5Q286 -213 236 -213Q201 -213 176 -205.5Q151 -198 137 -188L162 -136Q174 -144 193.5 -149.5Q213 -155 236 -155Q261 -155 274.5 -148.5Q288 -142 288 -125Q288 -111 274 -105Q260 -99 234 -99Q228 -99 222.5 -99.5Q217 -100 212 -101Q207 -102 202 -102L188 -77L223 -10Q111 1 58 62Q5 123 22 232L26 259H130Q122 208 128.5 174Q135 140 153.5 119Q172 98 200.5 89Q229 80 264 80H274Q346 80 389.5 111Q433 142 441 202L442 210Q450 270 413.5 305.5Q377 341 283 355Z" glyph-name="Scedilla" horiz-adv-x="611" unicode="&#350;" /><glyph d="M283 355Q221 364 178.5 384Q136 404 111.5 432.5Q87 461 78.5 496Q70 531 75 570L78 592Q91 687 160.5 739.5Q230 792 341 792Q412 792 462 774Q512 756 542 723Q572 690 582.5 643Q593 596 584 538L580 511H476Q490 611 457 655.5Q424 700 346 700H336Q272 700 231 669.5Q190 639 183 586L182 578Q179 551 184.5 529Q190 507 207.5 490Q225 473 256 460.5Q287 448 335 440Q460 420 510.5 363.5Q561 307 549 218L546 196Q532 91 459.5 39.5Q387 -12 269 -12Q135 -12 69.5 50Q4 112 22 232L26 259H130Q122 208 128.5 174Q135 140 153.5 119Q172 98 200.5 89Q229 80 264 80H274Q346 80 389.5 111Q433 142 441 202L442 210Q450 270 413.5 305.5Q377 341 283 355ZM435 840 378 899 303 840H205L333 950H431L529 840Z" glyph-name="Scircumflex" horiz-adv-x="611" unicode="&#348;" /><glyph d="M283 355Q221 364 178.5 384Q136 404 111.5 432.5Q87 461 78.5 496Q70 531 75 570L78 592Q91 687 160.5 739.5Q230 792 341 792Q412 792 462 774Q512 756 542 723Q572 690 582.5 643Q593 596 584 538L580 511H476Q490 611 457 655.5Q424 700 346 700H336Q272 700 231 669.5Q190 639 183 586L182 578Q179 551 184.5 529Q190 507 207.5 490Q225 473 256 460.5Q287 448 335 440Q460 420 510.5 363.5Q561 307 549 218L546 196Q532 91 459.5 39.5Q387 -12 269 -12Q135 -12 69.5 50Q4 112 22 232L26 259H130Q122 208 128.5 174Q135 140 153.5 119Q172 98 200.5 89Q229 80 264 80H274Q346 80 389.5 111Q433 142 441 202L442 210Q450 270 413.5 305.5Q377 341 283 355ZM294 -105Q279 -219 159 -219L165 -172Q194 -172 215 -162Q236 -152 241 -129H188L198 -51H301Z" glyph-name="Scommaaccent" horiz-adv-x="611" unicode="&#536;" /><glyph d="M268 0H164L254 688H62L74 780H562L550 688H358Z" glyph-name="T" horiz-adv-x="530" unicode="T" /><glyph d="M222 444 254 688H62L74 780H562L550 688H358L326 444H448L436 352H314L268 0H164L210 352H88L100 444Z" glyph-name="Tbar" horiz-adv-x="530" unicode="&#358;" /><glyph d="M268 0H164L254 688H62L74 780H562L550 688H358ZM274 950 331 889 406 950H503L375 840H277L179 950Z" glyph-name="Tcaron" horiz-adv-x="530" unicode="&#356;" /><glyph d="M268 0H164L254 688H62L74 780H562L550 688H358ZM253 -105Q238 -219 118 -219L124 -172Q153 -172 174 -162Q195 -152 200 -129H147L157 -51H260Z" glyph-name="Tcommaaccent" horiz-adv-x="530" unicode="&#354;" /><glyph d="M268 0H164L254 688H62L74 780H562L550 688H358ZM377 854H278L289 936H388Z" glyph-name="Tdotaccent" horiz-adv-x="530" unicode="&#7786;" /><glyph d="M204 628H324Q368 628 412.5 617.5Q457 607 491 581Q525 555 542.5 510.5Q560 466 551 398L548 376Q539 310 512.5 266.5Q486 223 449.5 197.5Q413 172 370.5 162Q328 152 288 152H142L122 0H18L120 780H224ZM286 243Q309 243 334.5 248.5Q360 254 382.5 269.5Q405 285 421.5 312Q438 339 443 382L444 390Q450 435 441 463.5Q432 492 414 508Q396 524 371.5 530Q347 536 322 536H192L154 243Z" glyph-name="Thorn" horiz-adv-x="586" unicode="&#222;" /><glyph d="M282 -12Q145 -12 86.5 48.5Q28 109 45 243L115 780H219L150 248Q138 156 169.5 118Q201 80 284 80Q367 80 409.5 118Q452 156 464 248L534 780H638L567 243Q558 176 538.5 128Q519 80 484.5 49Q450 18 400.5 3Q351 -12 282 -12Z" glyph-name="U" horiz-adv-x="647" unicode="U" /><glyph d="M282 -12Q145 -12 86.5 48.5Q28 109 45 243L115 780H219L150 248Q138 156 169.5 118Q201 80 284 80Q367 80 409.5 118Q452 156 464 248L534 780H638L567 243Q558 176 538.5 128Q519 80 484.5 49Q450 18 400.5 3Q351 -12 282 -12ZM514 950 436 840H334L407 950Z" glyph-name="Uacute" horiz-adv-x="647" unicode="&#218;" /><glyph d="M282 -12Q145 -12 86.5 48.5Q28 109 45 243L115 780H219L150 248Q138 156 169.5 118Q201 80 284 80Q367 80 409.5 118Q452 156 464 248L534 780H638L567 243Q558 176 538.5 128Q519 80 484.5 49Q450 18 400.5 3Q351 -12 282 -12ZM387 827Q342 827 312 836.5Q282 846 265 862.5Q248 879 242.5 901.5Q237 924 241 950H314Q310 922 327 906Q344 890 389 890Q435 890 456.5 904.5Q478 919 482 950H559Q555 924 543.5 901.5Q532 879 511.5 862.5Q491 846 460 836.5Q429 827 387 827Z" glyph-name="Ubreve" horiz-adv-x="647" unicode="&#364;" /><glyph d="M282 -12Q145 -12 86.5 48.5Q28 109 45 243L115 780H219L150 248Q138 156 169.5 118Q201 80 284 80Q367 80 409.5 118Q452 156 464 248L534 780H638L567 243Q558 176 538.5 128Q519 80 484.5 49Q450 18 400.5 3Q351 -12 282 -12ZM453 840 396 899 321 840H223L351 950H449L547 840Z" glyph-name="Ucircumflex" horiz-adv-x="647" unicode="&#219;" /><glyph d="M282 -12Q145 -12 86.5 48.5Q28 109 45 243L115 780H219L150 248Q138 156 169.5 118Q201 80 284 80Q367 80 409.5 118Q452 156 464 248L534 780H638L567 243Q558 176 538.5 128Q519 80 484.5 49Q450 18 400.5 3Q351 -12 282 -12ZM518 854H419L430 936H529ZM355 854H256L267 936H366Z" glyph-name="Udieresis" horiz-adv-x="647" unicode="&#220;" /><glyph d="M282 -12Q145 -12 86.5 48.5Q28 109 45 243L115 780H219L150 248Q138 156 169.5 118Q201 80 284 80Q367 80 409.5 118Q452 156 464 248L534 780H638L567 243Q558 176 538.5 128Q519 80 484.5 49Q450 18 400.5 3Q351 -12 282 -12ZM393 950 436 840H334L286 950Z" glyph-name="Ugrave" horiz-adv-x="647" unicode="&#217;" /><glyph d="M282 -12Q145 -12 86.5 48.5Q28 109 45 243L115 780H219L150 248Q138 156 169.5 118Q201 80 284 80Q367 80 409.5 118Q452 156 464 248L534 780H638L567 243Q558 176 538.5 128Q519 80 484.5 49Q450 18 400.5 3Q351 -12 282 -12ZM579 950 502 840H408L481 950ZM435 950 362 840H268L337 950Z" glyph-name="Uhungarumlaut" horiz-adv-x="647" unicode="&#368;" /><glyph d="M282 -12Q145 -12 86.5 48.5Q28 109 45 243L115 780H219L150 248Q138 156 169.5 118Q201 80 284 80Q367 80 409.5 118Q452 156 464 248L534 780H638L567 243Q558 176 538.5 128Q519 80 484.5 49Q450 18 400.5 3Q351 -12 282 -12ZM271 930H525L516 860H262Z" glyph-name="Umacron" horiz-adv-x="647" unicode="&#362;" /><glyph d="M390 0Q375 -4 359.5 -12Q344 -20 331 -32Q318 -44 310 -60Q302 -76 302 -95Q302 -112 312.5 -124Q323 -136 343 -136Q363 -136 378.5 -132Q394 -128 404 -123L420 -191Q403 -201 378.5 -207Q354 -213 328 -213Q274 -213 246 -187Q218 -161 218 -115Q218 -83 230 -57Q242 -31 262 -11Q136 -7 82 53.5Q28 114 45 243L115 780H219L150 248Q138 156 169.5 118Q201 80 284 80Q367 80 409.5 118Q452 156 464 248L534 780H638L567 243Q553 139 512 80Q471 21 390 0Z" glyph-name="Uogonek" horiz-adv-x="647" unicode="&#370;" /><glyph d="M282 -12Q145 -12 86.5 48.5Q28 109 45 243L115 780H219L150 248Q138 156 169.5 118Q201 80 284 80Q367 80 409.5 118Q452 156 464 248L534 780H638L567 243Q558 176 538.5 128Q519 80 484.5 49Q450 18 400.5 3Q351 -12 282 -12ZM334 857Q334 835 346.5 822Q359 809 380 809Q404 809 423 825Q442 841 442 870Q442 892 429.5 905Q417 918 396 918Q372 918 353 902Q334 886 334 857ZM487 870Q487 847 478 828Q469 809 454.5 795Q440 781 420.5 773Q401 765 380 765Q340 765 314.5 790Q289 815 289 857Q289 879 298 898.5Q307 918 321.5 932Q336 946 355.5 954Q375 962 396 962Q436 962 461.5 937Q487 912 487 870Z" glyph-name="Uring" horiz-adv-x="647" unicode="&#366;" /><glyph d="M282 -12Q145 -12 86.5 48.5Q28 109 45 243L115 780H219L150 248Q138 156 169.5 118Q201 80 284 80Q367 80 409.5 118Q452 156 464 248L534 780H638L567 243Q558 176 538.5 128Q519 80 484.5 49Q450 18 400.5 3Q351 -12 282 -12ZM561 940Q554 886 525.5 862Q497 838 460 838Q438 838 419.5 846Q401 854 384.5 863.5Q368 873 353.5 881Q339 889 324 889Q311 889 299.5 880Q288 871 285 850H223Q230 904 258.5 928Q287 952 324 952Q346 952 364.5 944Q383 936 399.5 926.5Q416 917 430.5 909Q445 901 460 901Q473 901 484.5 910Q496 919 499 940Z" glyph-name="Utilde" horiz-adv-x="647" unicode="&#360;" /><glyph d="M188 -6 76 780H186L274 111L537 780H651L333 -6Z" glyph-name="V" horiz-adv-x="621" unicode="V" /><glyph d="M495 664 262 -6H123L86 780H194L214 130L440 780H577L633 130L823 780H930L687 -6H552Z" glyph-name="W" horiz-adv-x="910" unicode="W" /><glyph d="M495 664 262 -6H123L86 780H194L214 130L440 780H577L633 130L823 780H930L687 -6H552ZM645 950 567 840H465L538 950Z" glyph-name="Wacute" horiz-adv-x="910" unicode="&#7810;" /><glyph d="M495 664 262 -6H123L86 780H194L214 130L440 780H577L633 130L823 780H930L687 -6H552ZM584 840 527 899 452 840H354L482 950H580L678 840Z" glyph-name="Wcircumflex" horiz-adv-x="910" unicode="&#372;" /><glyph d="M495 664 262 -6H123L86 780H194L214 130L440 780H577L633 130L823 780H930L687 -6H552ZM649 854H550L561 936H660ZM486 854H387L398 936H497Z" glyph-name="Wdieresis" horiz-adv-x="910" unicode="&#7812;" /><glyph d="M495 664 262 -6H123L86 780H194L214 130L440 780H577L633 130L823 780H930L687 -6H552ZM524 950 567 840H465L417 950Z" glyph-name="Wgrave" horiz-adv-x="910" unicode="&#7808;" /><glyph d="M251 395 82 780H199L326 486L529 780H652L379 391L550 0H435L304 300L97 0H-26Z" glyph-name="X" horiz-adv-x="626" unicode="X" /><glyph d="M300 0H196L227 237L69 780H180L294 366L516 780H631L331 237Z" glyph-name="Y" horiz-adv-x="594" unicode="Y" /><glyph d="M300 0H196L227 237L69 780H180L294 366L516 780H631L331 237ZM487 950 409 840H307L380 950Z" glyph-name="Yacute" horiz-adv-x="594" unicode="&#221;" /><glyph d="M300 0H196L227 237L69 780H180L294 366L516 780H631L331 237ZM426 840 369 899 294 840H196L324 950H422L520 840Z" glyph-name="Ycircumflex" horiz-adv-x="594" unicode="&#374;" /><glyph d="M300 0H196L227 237L69 780H180L294 366L516 780H631L331 237ZM491 854H392L403 936H502ZM328 854H229L240 936H339Z" glyph-name="Ydieresis" horiz-adv-x="594" unicode="&#376;" /><glyph d="M300 0H196L227 237L69 780H180L294 366L516 780H631L331 237ZM366 950 409 840H307L259 950Z" glyph-name="Ygrave" horiz-adv-x="594" unicode="&#7922;" /><glyph d="M300 0H196L227 237L69 780H180L294 366L516 780H631L331 237ZM244 930H498L489 860H235Z" glyph-name="Ymacron" horiz-adv-x="594" unicode="&#562;" /><glyph d="M437 691 305 688H90L102 780H577L568 710L130 89L262 92H497L485 0H-10L-1 70Z" glyph-name="Z" horiz-adv-x="575" unicode="Z" /><glyph d="M437 691 305 688H90L102 780H577L568 710L130 89L262 92H497L485 0H-10L-1 70ZM463 950 385 840H283L356 950Z" glyph-name="Zacute" horiz-adv-x="575" unicode="&#377;" /><glyph d="M437 691 305 688H90L102 780H577L568 710L130 89L262 92H497L485 0H-10L-1 70ZM281 950 338 891 413 950H511L383 840H285L187 950Z" glyph-name="Zcaron" horiz-adv-x="575" unicode="&#381;" /><glyph d="M437 691 305 688H90L102 780H577L568 710L130 89L262 92H497L485 0H-10L-1 70ZM387 854H287L298 936H398Z" glyph-name="Zdotaccent" horiz-adv-x="575" unicode="&#379;" /><glyph d="M187 72Q218 72 242 79.5Q266 87 284 98Q302 109 314.5 121.5Q327 134 335 144L352 270L218 249Q167 241 142 219.5Q117 198 112 162L111 154Q109 139 112.5 124.5Q116 110 125.5 98Q135 86 150.5 79Q166 72 187 72ZM338 67Q309 34 263 11Q217 -12 154 -12Q115 -12 86 0.5Q57 13 38.5 34.5Q20 56 12.5 84Q5 112 9 144L10 152Q15 194 32 222.5Q49 251 75 269.5Q101 288 135 298.5Q169 309 209 315L361 339L363 354Q367 383 364.5 403.5Q362 424 351 437Q340 450 320.5 456Q301 462 270 462Q237 462 215 453.5Q193 445 180 430Q167 415 161 395.5Q155 376 152 355H57L58 362Q63 396 75.5 428.5Q88 461 113 486Q138 511 176 526.5Q214 542 270 542Q329 542 369 528.5Q409 515 431.5 489.5Q454 464 461 428Q468 392 462 347L436 150L424 0H338Z" glyph-name="a" horiz-adv-x="525" unicode="a" /><glyph d="M187 72Q218 72 242 79.5Q266 87 284 98Q302 109 314.5 121.5Q327 134 335 144L352 270L218 249Q167 241 142 219.5Q117 198 112 162L111 154Q109 139 112.5 124.5Q116 110 125.5 98Q135 86 150.5 79Q166 72 187 72ZM338 67Q309 34 263 11Q217 -12 154 -12Q115 -12 86 0.5Q57 13 38.5 34.5Q20 56 12.5 84Q5 112 9 144L10 152Q15 194 32 222.5Q49 251 75 269.5Q101 288 135 298.5Q169 309 209 315L361 339L363 354Q367 383 364.5 403.5Q362 424 351 437Q340 450 320.5 456Q301 462 270 462Q237 462 215 453.5Q193 445 180 430Q167 415 161 395.5Q155 376 152 355H57L58 362Q63 396 75.5 428.5Q88 461 113 486Q138 511 176 526.5Q214 542 270 542Q329 542 369 528.5Q409 515 431.5 489.5Q454 464 461 428Q468 392 462 347L436 150L424 0H338ZM466 780 344 607H242L356 780Z" glyph-name="aacute" horiz-adv-x="525" unicode="&#225;" /><glyph d="M187 72Q218 72 242 79.5Q266 87 284 98Q302 109 314.5 121.5Q327 134 335 144L352 270L218 249Q167 241 142 219.5Q117 198 112 162L111 154Q109 139 112.5 124.5Q116 110 125.5 98Q135 86 150.5 79Q166 72 187 72ZM338 67Q309 34 263 11Q217 -12 154 -12Q115 -12 86 0.5Q57 13 38.5 34.5Q20 56 12.5 84Q5 112 9 144L10 152Q15 194 32 222.5Q49 251 75 269.5Q101 288 135 298.5Q169 309 209 315L361 339L363 354Q367 383 364.5 403.5Q362 424 351 437Q340 450 320.5 456Q301 462 270 462Q237 462 215 453.5Q193 445 180 430Q167 415 161 395.5Q155 376 152 355H57L58 362Q63 396 75.5 428.5Q88 461 113 486Q138 511 176 526.5Q214 542 270 542Q329 542 369 528.5Q409 515 431.5 489.5Q454 464 461 428Q468 392 462 347L436 150L424 0H338ZM298 595Q252 595 220 609Q188 623 169.5 647.5Q151 672 145.5 706Q140 740 146 780H221Q214 730 233 702.5Q252 675 298 675Q396 675 407 780H486Q481 738 468.5 703.5Q456 669 433.5 645Q411 621 377.5 608Q344 595 298 595Z" glyph-name="abreve" horiz-adv-x="525" unicode="&#259;" /><glyph d="M187 72Q218 72 242 79.5Q266 87 284 98Q302 109 314.5 121.5Q327 134 335 144L352 270L218 249Q167 241 142 219.5Q117 198 112 162L111 154Q109 139 112.5 124.5Q116 110 125.5 98Q135 86 150.5 79Q166 72 187 72ZM338 67Q309 34 263 11Q217 -12 154 -12Q115 -12 86 0.5Q57 13 38.5 34.5Q20 56 12.5 84Q5 112 9 144L10 152Q15 194 32 222.5Q49 251 75 269.5Q101 288 135 298.5Q169 309 209 315L361 339L363 354Q367 383 364.5 403.5Q362 424 351 437Q340 450 320.5 456Q301 462 270 462Q237 462 215 453.5Q193 445 180 430Q167 415 161 395.5Q155 376 152 355H57L58 362Q63 396 75.5 428.5Q88 461 113 486Q138 511 176 526.5Q214 542 270 542Q329 542 369 528.5Q409 515 431.5 489.5Q454 464 461 428Q468 392 462 347L436 150L424 0H338ZM114 607 269 780H363L472 607H380L309 708L210 607Z" glyph-name="acircumflex" horiz-adv-x="525" unicode="&#226;" /><glyph d="M453 780 331 607H229L343 780Z" glyph-name="acute" horiz-adv-x="500" unicode="&#180;" /><glyph d="M440 950 362 840H260L333 950Z" glyph-name="acute.cap" horiz-adv-x="500" unicode="&#58402;" /><glyph d="M187 72Q218 72 242 79.5Q266 87 284 98Q302 109 314.5 121.5Q327 134 335 144L352 270L218 249Q167 241 142 219.5Q117 198 112 162L111 154Q109 139 112.5 124.5Q116 110 125.5 98Q135 86 150.5 79Q166 72 187 72ZM338 67Q309 34 263 11Q217 -12 154 -12Q115 -12 86 0.5Q57 13 38.5 34.5Q20 56 12.5 84Q5 112 9 144L10 152Q15 194 32 222.5Q49 251 75 269.5Q101 288 135 298.5Q169 309 209 315L361 339L363 354Q367 383 364.5 403.5Q362 424 351 437Q340 450 320.5 456Q301 462 270 462Q237 462 215 453.5Q193 445 180 430Q167 415 161 395.5Q155 376 152 355H57L58 362Q63 396 75.5 428.5Q88 461 113 486Q138 511 176 526.5Q214 542 270 542Q329 542 369 528.5Q409 515 431.5 489.5Q454 464 461 428Q468 392 462 347L436 150L424 0H338ZM446 640H332L347 754H461ZM263 640H149L164 754H278Z" glyph-name="adieresis" horiz-adv-x="525" unicode="&#228;" /><glyph d="M608 460Q547 460 506.5 418Q466 376 456 303H718Q727 378 700.5 419Q674 460 608 460ZM187 72Q247 72 284.5 98Q322 124 347 159Q341 206 348 256L350 269L218 249Q167 241 142 219.5Q117 198 112 162L111 154Q109 139 112.5 124.5Q116 110 125.5 98Q135 86 150.5 79Q166 72 187 72ZM446 227Q439 151 468.5 110.5Q498 70 570 70Q637 70 668.5 100Q700 130 705 170H801L800 163Q795 128 778.5 96.5Q762 65 733 41Q704 17 663 2.5Q622 -12 568 -12Q493 -12 445.5 13Q398 38 373 81Q320 26 264.5 7Q209 -12 154 -12Q115 -12 86 0.5Q57 13 38.5 34.5Q20 56 12.5 84Q5 112 9 144L10 152Q15 194 32 222.5Q49 251 75 269.5Q101 288 135 298.5Q169 309 209 315L361 339L363 354Q367 383 364.5 403.5Q362 424 351 437Q340 450 320.5 456Q301 462 270 462Q237 462 215 453.5Q193 445 180 430Q167 415 161 395.5Q155 376 152 355H57L58 362Q63 396 75.5 428.5Q88 461 113 486Q138 511 176 526.5Q214 542 270 542Q344 542 383 521Q422 500 436 462Q464 500 506.5 521Q549 542 610 542Q671 542 714 521.5Q757 501 782 464.5Q807 428 815 378.5Q823 329 815 271L809 227Z" glyph-name="ae" horiz-adv-x="867" unicode="&#230;" /><glyph d="M187 72Q218 72 242 79.5Q266 87 284 98Q302 109 314.5 121.5Q327 134 335 144L352 270L218 249Q167 241 142 219.5Q117 198 112 162L111 154Q109 139 112.5 124.5Q116 110 125.5 98Q135 86 150.5 79Q166 72 187 72ZM338 67Q309 34 263 11Q217 -12 154 -12Q115 -12 86 0.5Q57 13 38.5 34.5Q20 56 12.5 84Q5 112 9 144L10 152Q15 194 32 222.5Q49 251 75 269.5Q101 288 135 298.5Q169 309 209 315L361 339L363 354Q367 383 364.5 403.5Q362 424 351 437Q340 450 320.5 456Q301 462 270 462Q237 462 215 453.5Q193 445 180 430Q167 415 161 395.5Q155 376 152 355H57L58 362Q63 396 75.5 428.5Q88 461 113 486Q138 511 176 526.5Q214 542 270 542Q329 542 369 528.5Q409 515 431.5 489.5Q454 464 461 428Q468 392 462 347L436 150L424 0H338ZM276 780 344 607H242L166 780Z" glyph-name="agrave" horiz-adv-x="525" unicode="&#224;" /><glyph d="M180 -155Q205 -155 218.5 -148.5Q232 -142 232 -125Q232 -111 218 -105Q204 -99 178 -99Q166 -99 151 -102Q136 -105 129 -108V-61Q142 -56 156.5 -53Q171 -50 196 -50Q240 -50 268 -67.5Q296 -85 296 -125Q296 -170 263 -191.5Q230 -213 180 -213Q145 -213 120 -205.5Q95 -198 81 -188L106 -136Q118 -144 137.5 -149.5Q157 -155 180 -155Z" glyph-name="altcedilla" horiz-adv-x="602" unicode="&#58390;" /><glyph d="M187 72Q218 72 242 79.5Q266 87 284 98Q302 109 314.5 121.5Q327 134 335 144L352 270L218 249Q167 241 142 219.5Q117 198 112 162L111 154Q109 139 112.5 124.5Q116 110 125.5 98Q135 86 150.5 79Q166 72 187 72ZM338 67Q309 34 263 11Q217 -12 154 -12Q115 -12 86 0.5Q57 13 38.5 34.5Q20 56 12.5 84Q5 112 9 144L10 152Q15 194 32 222.5Q49 251 75 269.5Q101 288 135 298.5Q169 309 209 315L361 339L363 354Q367 383 364.5 403.5Q362 424 351 437Q340 450 320.5 456Q301 462 270 462Q237 462 215 453.5Q193 445 180 430Q167 415 161 395.5Q155 376 152 355H57L58 362Q63 396 75.5 428.5Q88 461 113 486Q138 511 176 526.5Q214 542 270 542Q329 542 369 528.5Q409 515 431.5 489.5Q454 464 461 428Q468 392 462 347L436 150L424 0H338ZM183 742H440L428 652H171Z" glyph-name="amacron" horiz-adv-x="525" unicode="&#257;" /><glyph d="M202 613Q197 571 210.5 539Q224 507 247 476Q272 491 296 506Q320 521 339.5 537Q359 553 372 571.5Q385 590 388 613L389 621Q394 655 373.5 678Q353 701 308 701H300Q256 701 232 678Q208 655 203 621ZM240 79Q280 79 316 92.5Q352 106 385 131L213 356Q176 330 149.5 299Q123 268 117 220L116 212Q108 151 135.5 115Q163 79 232 79ZM225 -12Q108 -12 52.5 46Q-3 104 11 206L14 228Q19 264 33 293.5Q47 323 67 346.5Q87 370 111.5 388.5Q136 407 162 423Q144 447 130 468.5Q116 490 107.5 511.5Q99 533 96 556.5Q93 580 97 609L100 632Q109 702 160 747Q211 792 306 792Q361 792 399 777.5Q437 763 459 739.5Q481 716 489 686.5Q497 657 493 627L490 605Q485 570 468 543Q451 516 425 493.5Q399 471 366.5 451Q334 431 298 409L454 206Q476 238 492.5 286Q509 334 516 387L517 395H623Q617 348 606.5 310Q596 272 582.5 240.5Q569 209 551 181.5Q533 154 512 129L611 0H485L438 61Q390 26 340.5 7Q291 -12 225 -12Z" glyph-name="ampersand" horiz-adv-x="671" unicode="&amp;" /><glyph d="M142 357 240 -120H135L36 360L261 840H368Z" glyph-name="anglebracketleft" horiz-adv-x="334" unicode="&#12296;" /><glyph d="M332 780 148 387 228 0H122L42 390L225 780Z" glyph-name="anglebracketleft.cap" horiz-adv-x="334" unicode="&#58519;" /><glyph d="M188 363 90 840H195L294 360L69 -120H-38Z" glyph-name="anglebracketright" horiz-adv-x="334" unicode="&#12297;" /><glyph d="M6 0 190 393 110 780H216L296 390L113 0Z" glyph-name="anglebracketright.cap" horiz-adv-x="334" unicode="&#58520;" /><glyph d="M187 72Q218 72 242 79.5Q266 87 284 98Q302 109 314.5 121.5Q327 134 335 144L352 270L218 249Q167 241 142 219.5Q117 198 112 162L111 154Q109 139 112.5 124.5Q116 110 125.5 98Q135 86 150.5 79Q166 72 187 72ZM424 0Q409 -6 393.5 -14.5Q378 -23 365.5 -34.5Q353 -46 344.5 -61Q336 -76 336 -95Q336 -112 346.5 -124Q357 -136 377 -136Q397 -136 412.5 -132Q428 -128 438 -123L454 -191Q437 -201 412.5 -207Q388 -213 362 -213Q308 -213 280 -187Q252 -161 252 -115Q252 -67 277 -34Q302 -1 338 21V67Q309 34 263 11Q217 -12 154 -12Q115 -12 86 0.5Q57 13 38.5 34.5Q20 56 12.5 84Q5 112 9 144L10 152Q15 194 32 222.5Q49 251 75 269.5Q101 288 135 298.5Q169 309 209 315L361 339L363 354Q367 383 364.5 403.5Q362 424 351 437Q340 450 320.5 456Q301 462 270 462Q237 462 215 453.5Q193 445 180 430Q167 415 161 395.5Q155 376 152 355H57L58 362Q63 396 75.5 428.5Q88 461 113 486Q138 511 176 526.5Q214 542 270 542Q329 542 369 528.5Q409 515 431.5 489.5Q454 464 461 428Q468 392 462 347L436 150Z" glyph-name="aogonek" horiz-adv-x="525" unicode="&#261;" /><glyph d="M167 357Q210 357 241 346Q272 335 298.5 322.5Q325 310 350 299Q375 288 406 288Q438 288 464 306Q490 324 508 342L556 287Q551 282 538 269Q525 256 505 242Q485 228 460 217.5Q435 207 406 207Q363 207 332 218Q301 229 274.5 241.5Q248 254 223 265Q198 276 167 276Q135 276 109 258Q83 240 65 222L17 277Q22 282 35 295Q48 308 68 322Q88 336 113 346.5Q138 357 167 357ZM195 566Q238 566 269 555Q300 544 326.5 531.5Q353 519 378 508Q403 497 434 497Q466 497 492 515Q518 533 536 551L584 496Q579 491 566 478Q553 465 533 451Q513 437 488 426.5Q463 416 434 416Q391 416 360 427Q329 438 302.5 450.5Q276 463 251 474Q226 485 195 485Q163 485 137 467Q111 449 93 431L45 486Q50 491 63 504Q76 517 96 531Q116 545 141 555.5Q166 566 195 566Z" glyph-name="approxequal" horiz-adv-x="600" unicode="&#8776;" /><glyph d="M187 72Q218 72 242 79.5Q266 87 284 98Q302 109 314.5 121.5Q327 134 335 144L352 270L218 249Q167 241 142 219.5Q117 198 112 162L111 154Q109 139 112.5 124.5Q116 110 125.5 98Q135 86 150.5 79Q166 72 187 72ZM338 67Q309 34 263 11Q217 -12 154 -12Q115 -12 86 0.5Q57 13 38.5 34.5Q20 56 12.5 84Q5 112 9 144L10 152Q15 194 32 222.5Q49 251 75 269.5Q101 288 135 298.5Q169 309 209 315L361 339L363 354Q367 383 364.5 403.5Q362 424 351 437Q340 450 320.5 456Q301 462 270 462Q237 462 215 453.5Q193 445 180 430Q167 415 161 395.5Q155 376 152 355H57L58 362Q63 396 75.5 428.5Q88 461 113 486Q138 511 176 526.5Q214 542 270 542Q329 542 369 528.5Q409 515 431.5 489.5Q454 464 461 428Q468 392 462 347L436 150L424 0H338ZM251 687Q251 665 263.5 652Q276 639 297 639Q321 639 340 655Q359 671 359 700Q359 722 346.5 735Q334 748 313 748Q289 748 270 732Q251 716 251 687ZM404 700Q404 677 395 658Q386 639 371.5 625Q357 611 337.5 603Q318 595 297 595Q257 595 231.5 620Q206 645 206 687Q206 709 215 728.5Q224 748 238.5 762Q253 776 272.5 784Q292 792 313 792Q353 792 378.5 767Q404 742 404 700Z" glyph-name="aring" horiz-adv-x="525" unicode="&#229;" /><glyph d="M70 509 414 165V780H506V165L850 509V378L460 -12L70 378Z" glyph-name="arrowdown" horiz-adv-x="920" unicode="&#8595;" /><glyph d="M579 780 235 436H850V344H235L579 0H448L58 390L448 780Z" glyph-name="arrowleft" horiz-adv-x="920" unicode="&#8592;" /><glyph d="M472 780 862 390 472 0H341L685 344H70V436H685L341 780Z" glyph-name="arrowright" horiz-adv-x="920" unicode="&#8594;" /><glyph d="M70 402 460 792 850 402V271L506 615V0H414V615L70 271Z" glyph-name="arrowup" horiz-adv-x="920" unicode="&#8593;" /><glyph d="M561 271H461L341 676L115 271H11L303 780H403Z" glyph-name="asciicircum" horiz-adv-x="600" unicode="^" /><glyph d="M182 462Q225 462 256 451Q287 440 313.5 427.5Q340 415 365 404Q390 393 421 393Q453 393 479 411Q505 429 523 447L571 392Q566 387 553 374Q540 361 520 347Q500 333 475 322.5Q450 312 421 312Q378 312 347 323Q316 334 289.5 346.5Q263 359 238 370Q213 381 182 381Q150 381 124 363Q98 345 80 327L32 382Q37 387 50 400Q63 413 83 427Q103 441 128 451.5Q153 462 182 462Z" glyph-name="asciitilde" horiz-adv-x="600" unicode="~" /><glyph d="M291 438 228 556 277 588 349 477ZM423 638 281 599 271 652 411 701ZM74 477 176 588 217 556 122 438ZM72 701 198 652 174 599 42 638ZM287 800 263 659H208L222 800Z" glyph-name="asterisk" horiz-adv-x="397" unicode="*" /><glyph d="M587 391Q582 402 573 414Q564 426 550.5 436.5Q537 447 519 453.5Q501 460 478 460Q417 460 383 417.5Q349 375 340 306L337 284Q328 217 352.5 173.5Q377 130 435 130Q459 130 479.5 137Q500 144 516.5 154.5Q533 165 544.5 177Q556 189 562 199ZM452 -140Q543 -140 623.5 -114.5Q704 -89 787 -34L822 -90Q774 -125 726 -148.5Q678 -172 631 -186Q584 -200 538.5 -206Q493 -212 449 -212Q338 -212 251 -180Q164 -148 107 -86.5Q50 -25 26 64Q2 153 17 268L23 314Q38 429 82 518Q126 607 194 668Q262 729 351 760.5Q440 792 545 792Q637 792 716 767.5Q795 743 850.5 693.5Q906 644 931.5 568Q957 492 943 389L940 367Q928 277 899.5 218Q871 159 830.5 124Q790 89 738.5 74.5Q687 60 629 60H563V129Q554 114 538.5 99Q523 84 502.5 73Q482 62 458 55Q434 48 408 48Q356 48 321 67Q286 86 266 118.5Q246 151 240.5 193.5Q235 236 241 284L244 306Q250 354 267 396.5Q284 439 311 471.5Q338 504 376 523Q414 542 463 542Q522 542 557 517Q592 492 605 461L624 530H703L677 385L643 131Q688 132 725 143Q762 154 790 180.5Q818 207 837 252Q856 297 865 367L868 389Q880 480 858.5 543Q837 606 792 645.5Q747 685 683.5 702.5Q620 720 548 720H542Q452 720 376 693.5Q300 667 242 615.5Q184 564 147 488.5Q110 413 97 314L91 268Q78 167 99.5 90.5Q121 14 169.5 -37Q218 -88 289 -114Q360 -140 446 -140Z" glyph-name="at" horiz-adv-x="971" unicode="@" /><glyph d="M600 491Q595 502 586 514Q577 526 563.5 536.5Q550 547 532 553.5Q514 560 491 560Q430 560 396 517.5Q362 475 353 406L350 384Q341 317 365.5 273.5Q390 230 448 230Q472 230 492.5 237Q513 244 529.5 254.5Q546 265 557.5 277Q569 289 575 299ZM465 -40Q556 -40 636.5 -14.5Q717 11 800 66L835 10Q787 -25 739 -48.5Q691 -72 644 -86Q597 -100 551.5 -106Q506 -112 462 -112Q351 -112 264 -80Q177 -48 120 13.5Q63 75 39 164Q15 253 30 368L36 414Q51 529 95 618Q139 707 207 768Q275 829 364 860.5Q453 892 558 892Q650 892 729 867.5Q808 843 863.5 793.5Q919 744 944.5 668Q970 592 956 489L953 467Q941 377 912.5 318Q884 259 843.5 224Q803 189 751.5 174.5Q700 160 642 160H576V229Q567 214 551.5 199Q536 184 515.5 173Q495 162 471 155Q447 148 421 148Q369 148 334 167Q299 186 279 218.5Q259 251 253.5 293.5Q248 336 254 384L257 406Q263 454 280 496.5Q297 539 324 571.5Q351 604 389 623Q427 642 476 642Q535 642 570 617Q605 592 618 561L637 630H716L690 485L656 231Q701 232 738 243Q775 254 803 280.5Q831 307 850 352Q869 397 878 467L881 489Q893 580 871.5 643Q850 706 805 745.5Q760 785 696.5 802.5Q633 820 561 820H555Q465 820 389 793.5Q313 767 255 715.5Q197 664 160 588.5Q123 513 110 414L104 368Q91 267 112.5 190.5Q134 114 182.5 63Q231 12 302 -14Q373 -40 459 -40Z" glyph-name="at.cap" horiz-adv-x="971" unicode="&#58643;" /><glyph d="M187 72Q218 72 242 79.5Q266 87 284 98Q302 109 314.5 121.5Q327 134 335 144L352 270L218 249Q167 241 142 219.5Q117 198 112 162L111 154Q109 139 112.5 124.5Q116 110 125.5 98Q135 86 150.5 79Q166 72 187 72ZM338 67Q309 34 263 11Q217 -12 154 -12Q115 -12 86 0.5Q57 13 38.5 34.5Q20 56 12.5 84Q5 112 9 144L10 152Q15 194 32 222.5Q49 251 75 269.5Q101 288 135 298.5Q169 309 209 315L361 339L363 354Q367 383 364.5 403.5Q362 424 351 437Q340 450 320.5 456Q301 462 270 462Q237 462 215 453.5Q193 445 180 430Q167 415 161 395.5Q155 376 152 355H57L58 362Q63 396 75.5 428.5Q88 461 113 486Q138 511 176 526.5Q214 542 270 542Q329 542 369 528.5Q409 515 431.5 489.5Q454 464 461 428Q468 392 462 347L436 150L424 0H338ZM485 755Q482 694 451.5 663Q421 632 377 632Q352 632 333 640.5Q314 649 298 659Q282 669 267.5 677.5Q253 686 238 686Q224 686 212 677.5Q200 669 197 645H126Q129 706 159.5 737Q190 768 234 768Q259 768 278 759.5Q297 751 313 741Q329 731 343.5 722.5Q358 714 373 714Q387 714 399 722.5Q411 731 414 755Z" glyph-name="atilde" horiz-adv-x="525" unicode="&#227;" /><glyph d="M132 150Q137 139 146.5 126Q156 113 170 102Q184 91 203.5 83.5Q223 76 249 76Q306 76 343 123Q380 170 391 252L394 274Q405 355 383 404.5Q361 454 298 454Q271 454 250 447.5Q229 441 212 430.5Q195 420 183 407.5Q171 395 162 383ZM175 480Q184 490 198 501Q212 512 230 521Q248 530 270 536Q292 542 318 542Q376 542 413.5 521Q451 500 471.5 464Q492 428 497 379Q502 330 495 274L492 252Q475 126 417 57Q359 -12 253 -12Q201 -12 164.5 11Q128 34 111 69L92 0H5L31 145L117 800H217Z" glyph-name="b" horiz-adv-x="550" unicode="b" /><glyph d="M76 840H176L280 -120H180Z" glyph-name="backslash" horiz-adv-x="359" unicode="\" /><glyph d="M178 780 268 0H168L78 780Z" glyph-name="backslash.cap" horiz-adv-x="343" unicode="&#58466;" /><glyph d="M219 215 269 265 219 315 285 381 335 331 385 381 451 315 401 265 451 215 385 149 335 199 285 149ZM161 439V91H509V439ZM600 530V0H70V530Z" glyph-name="ballotboxwithx" horiz-adv-x="680" unicode="&#9746;" /><glyph d="M122 840H222L96 -120H-4Z" glyph-name="bar" horiz-adv-x="223" unicode="|" /><glyph d="M114 780H214L112 0H12Z" glyph-name="bar.cap" horiz-adv-x="223" unicode="&#58467;" /><glyph d="M225 854H125L136 936H236ZM132 150Q137 139 146.5 126Q156 113 170 102Q184 91 203.5 83.5Q223 76 249 76Q306 76 343 123Q380 170 391 252L394 274Q405 355 383 404.5Q361 454 298 454Q271 454 250 447.5Q229 441 212 430.5Q195 420 183 407.5Q171 395 162 383ZM175 480Q184 490 198 501Q212 512 230 521Q248 530 270 536Q292 542 318 542Q376 542 413.5 521Q451 500 471.5 464Q492 428 497 379Q502 330 495 274L492 252Q475 126 417 57Q359 -12 253 -12Q201 -12 164.5 11Q128 34 111 69L92 0H5L31 145L117 800H217Z" glyph-name="bdotaccent" horiz-adv-x="550" unicode="&#7683;" /><glyph d="M58 390Q58 473 89.5 546.5Q121 620 175.5 674.5Q230 729 303.5 760.5Q377 792 460 792Q543 792 616.5 760.5Q690 729 744.5 674.5Q799 620 830.5 546.5Q862 473 862 390Q862 307 830.5 233.5Q799 160 744.5 105.5Q690 51 616.5 19.5Q543 -12 460 -12Q377 -12 303.5 19.5Q230 51 175.5 105.5Q121 160 89.5 233.5Q58 307 58 390Z" glyph-name="blackcircle" horiz-adv-x="920" unicode="&#9679;" /><glyph d="M70 0V530H600V0Z" glyph-name="blacksmallsquare" horiz-adv-x="680" unicode="&#9642;" /><glyph d="M70 0V780H850V0Z" glyph-name="blacksquare" horiz-adv-x="920" unicode="&#9632;" /><glyph d="M345 749Q324 749 307 745.5Q290 742 277 732.5Q264 723 256 705Q248 687 244 658L219 466Q213 421 196 396Q179 371 150 360Q174 347 186 322.5Q198 298 192 253L166 57Q159 7 178.5 -11Q198 -29 243 -29L231 -120H209Q175 -120 145.5 -112.5Q116 -105 95 -87.5Q74 -70 64.5 -40.5Q55 -11 61 33L86 218Q93 274 75 294Q57 314 17 314L29 406Q70 406 92 422.5Q114 439 121 489L147 687Q153 731 170 760.5Q187 790 212.5 807.5Q238 825 269.5 832.5Q301 840 335 840H357Z" glyph-name="braceleft" horiz-adv-x="334" unicode="{" /><glyph d="M337 689Q316 689 299 685.5Q282 682 269 672.5Q256 663 248 645Q240 627 236 598L223 496Q217 451 200 426Q183 401 154 390Q178 377 190 352.5Q202 328 196 283L182 177Q175 127 194.5 109Q214 91 259 91L247 0H225Q191 0 161.5 7.5Q132 15 111 32.5Q90 50 80.5 79.5Q71 109 77 153L90 248Q97 304 79 324Q61 344 21 344L33 436Q74 436 96 452.5Q118 469 125 519L139 627Q145 671 162 700.5Q179 730 204.5 747.5Q230 765 261.5 772.5Q293 780 327 780H349Z" glyph-name="braceleft.cap" horiz-adv-x="334" unicode="&#58517;" /><glyph d="M-14 -29Q7 -29 24 -25.5Q41 -22 54 -12.5Q67 -3 75 15Q83 33 87 62L112 254Q118 299 135 324Q152 349 181 360Q157 373 145 397.5Q133 422 139 467L165 663Q172 713 152.5 731Q133 749 88 749L100 840H122Q156 840 185.5 832.5Q215 825 236 807.5Q257 790 266.5 760.5Q276 731 270 687L245 502Q237 446 255 426Q273 406 314 406L302 314Q261 314 239 297.5Q217 281 210 231L184 33Q178 -11 161 -40.5Q144 -70 118.5 -87.5Q93 -105 61.5 -112.5Q30 -120 -4 -120H-26Z" glyph-name="braceright" horiz-adv-x="334" unicode="}" /><glyph d="M2 91Q23 91 40 94.5Q57 98 70 107.5Q83 117 91 135Q99 153 103 182L116 284Q122 329 139 354Q156 379 185 390Q161 403 149 427.5Q137 452 143 497L157 603Q164 653 144.5 671Q125 689 80 689L92 780H114Q148 780 177.5 772.5Q207 765 228 747.5Q249 730 258.5 700.5Q268 671 262 627L249 532Q241 476 259 456Q277 436 318 436L306 344Q265 344 243 327.5Q221 311 214 261L200 153Q194 109 177 79.5Q160 50 134.5 32.5Q109 15 77.5 7.5Q46 0 12 0H-10Z" glyph-name="braceright.cap" horiz-adv-x="334" unicode="&#58518;" /><glyph d="M357 840 345 749H214L112 -29H243L231 -120H-1L125 840Z" glyph-name="bracketleft" horiz-adv-x="334" unicode="[" /><glyph d="M349 780 337 689H206L128 91H259L247 0H15L117 780Z" glyph-name="bracketleft.cap" horiz-adv-x="334" unicode="&#58515;" /><glyph d="M-26 -120 -14 -29H117L219 749H88L100 840H332L206 -120Z" glyph-name="bracketright" horiz-adv-x="334" unicode="]" /><glyph d="M-10 0 2 91H133L211 689H80L92 780H324L222 0Z" glyph-name="bracketright.cap" horiz-adv-x="334" unicode="&#58516;" /><glyph d="M285 595Q239 595 207 609Q175 623 156.5 647.5Q138 672 132.5 706Q127 740 133 780H208Q201 730 220 702.5Q239 675 285 675Q383 675 394 780H473Q468 738 455.5 703.5Q443 669 420.5 645Q398 621 364.5 608Q331 595 285 595Z" glyph-name="breve" horiz-adv-x="500" unicode="&#728;" /><glyph d="M313 827Q268 827 238 836.5Q208 846 191 862.5Q174 879 168.5 901.5Q163 924 167 950H240Q236 922 253 906Q270 890 315 890Q361 890 382.5 904.5Q404 919 408 950H485Q481 924 469.5 901.5Q458 879 437.5 862.5Q417 846 386 836.5Q355 827 313 827Z" glyph-name="breve.cap" horiz-adv-x="500" unicode="&#58406;" /><glyph d="M55 329H155L96 -120H-4ZM122 840H222L163 391H63Z" glyph-name="brokenbar" horiz-adv-x="223" unicode="&#166;" /><glyph d="M59 359H159L112 0H12ZM114 780H214L167 421H67Z" glyph-name="brokenbar.cap" horiz-adv-x="223" unicode="&#58469;" /><glyph d="M326 209H44L81 491H363Z" glyph-name="bullet" horiz-adv-x="414" unicode="&#8226;" /><glyph d="M331 249H49L86 531H368Z" glyph-name="bullet.cap" horiz-adv-x="414" unicode="&#58470;" /><glyph d="M127 256Q116 173 138.5 124.5Q161 76 230 76Q260 76 283.5 85.5Q307 95 323.5 110.5Q340 126 349.5 146Q359 166 362 188H457L456 181Q450 142 435 106.5Q420 71 392.5 45Q365 19 324.5 3.5Q284 -12 228 -12Q167 -12 125 9Q83 30 58.5 66Q34 102 26 151Q18 200 26 256L29 278Q37 335 56.5 383Q76 431 108.5 466.5Q141 502 186 522Q231 542 290 542Q350 542 388.5 525Q427 508 448.5 480Q470 452 476.5 415Q483 378 477 339L476 332H382Q384 357 381.5 379.5Q379 402 368.5 418.5Q358 435 338.5 444.5Q319 454 288 454Q222 454 181.5 407Q141 360 130 278Z" glyph-name="c" horiz-adv-x="523" unicode="c" /><glyph d="M127 256Q116 173 138.5 124.5Q161 76 230 76Q260 76 283.5 85.5Q307 95 323.5 110.5Q340 126 349.5 146Q359 166 362 188H457L456 181Q450 142 435 106.5Q420 71 392.5 45Q365 19 324.5 3.5Q284 -12 228 -12Q167 -12 125 9Q83 30 58.5 66Q34 102 26 151Q18 200 26 256L29 278Q37 335 56.5 383Q76 431 108.5 466.5Q141 502 186 522Q231 542 290 542Q350 542 388.5 525Q427 508 448.5 480Q470 452 476.5 415Q483 378 477 339L476 332H382Q384 357 381.5 379.5Q379 402 368.5 418.5Q358 435 338.5 444.5Q319 454 288 454Q222 454 181.5 407Q141 360 130 278ZM472 780 350 607H248L362 780Z" glyph-name="cacute" horiz-adv-x="523" unicode="&#263;" /><glyph d="M482 780 327 607H233L124 780H216L287 679L386 780Z" glyph-name="caron" horiz-adv-x="500" unicode="&#711;" /><glyph d="M258 950 315 891 390 950H488L360 840H262L164 950Z" glyph-name="caron.cap" horiz-adv-x="500" unicode="&#58413;" /><glyph d="M444 800 399 607H347L373 800Z" glyph-name="caronSlovak" horiz-adv-x="500" unicode="&#58387;" /><glyph d="M127 256Q116 173 138.5 124.5Q161 76 230 76Q260 76 283.5 85.5Q307 95 323.5 110.5Q340 126 349.5 146Q359 166 362 188H457L456 181Q450 142 435 106.5Q420 71 392.5 45Q365 19 324.5 3.5Q284 -12 228 -12Q167 -12 125 9Q83 30 58.5 66Q34 102 26 151Q18 200 26 256L29 278Q37 335 56.5 383Q76 431 108.5 466.5Q141 502 186 522Q231 542 290 542Q350 542 388.5 525Q427 508 448.5 480Q470 452 476.5 415Q483 378 477 339L476 332H382Q384 357 381.5 379.5Q379 402 368.5 418.5Q358 435 338.5 444.5Q319 454 288 454Q222 454 181.5 407Q141 360 130 278ZM501 780 346 607H252L143 780H235L306 679L405 780Z" glyph-name="ccaron" horiz-adv-x="523" unicode="&#269;" /><glyph d="M127 256Q116 173 138.5 124.5Q161 76 230 76Q260 76 283.5 85.5Q307 95 323.5 110.5Q340 126 349.5 146Q359 166 362 188H457L456 181Q451 143 436.5 109.5Q422 76 397.5 50.5Q373 25 336.5 8.5Q300 -8 251 -11L231 -50Q268 -51 295.5 -68Q323 -85 323 -125Q323 -170 290 -191.5Q257 -213 207 -213Q172 -213 147 -205.5Q122 -198 108 -188L133 -136Q145 -144 164.5 -149.5Q184 -155 207 -155Q232 -155 245.5 -148.5Q259 -142 259 -125Q259 -111 245 -105Q231 -99 205 -99Q199 -99 193.5 -99.5Q188 -100 183 -101Q178 -102 173 -102L159 -77L194 -10Q143 -4 107.5 18.5Q72 41 51.5 76.5Q31 112 25 158Q19 204 26 256L29 278Q37 335 56.5 383Q76 431 108.5 466.5Q141 502 186 522Q231 542 290 542Q350 542 388.5 525Q427 508 448.5 480Q470 452 476.5 415Q483 378 477 339L476 332H382Q384 357 381.5 379.5Q379 402 368.5 418.5Q358 435 338.5 444.5Q319 454 288 454Q222 454 181.5 407Q141 360 130 278Z" glyph-name="ccedilla" horiz-adv-x="523" unicode="&#231;" /><glyph d="M127 256Q116 173 138.5 124.5Q161 76 230 76Q260 76 283.5 85.5Q307 95 323.5 110.5Q340 126 349.5 146Q359 166 362 188H457L456 181Q450 142 435 106.5Q420 71 392.5 45Q365 19 324.5 3.5Q284 -12 228 -12Q167 -12 125 9Q83 30 58.5 66Q34 102 26 151Q18 200 26 256L29 278Q37 335 56.5 383Q76 431 108.5 466.5Q141 502 186 522Q231 542 290 542Q350 542 388.5 525Q427 508 448.5 480Q470 452 476.5 415Q483 378 477 339L476 332H382Q384 357 381.5 379.5Q379 402 368.5 418.5Q358 435 338.5 444.5Q319 454 288 454Q222 454 181.5 407Q141 360 130 278ZM120 607 275 780H369L478 607H386L315 708L216 607Z" glyph-name="ccircumflex" horiz-adv-x="523" unicode="&#265;" /><glyph d="M127 256Q116 173 138.5 124.5Q161 76 230 76Q260 76 283.5 85.5Q307 95 323.5 110.5Q340 126 349.5 146Q359 166 362 188H457L456 181Q450 142 435 106.5Q420 71 392.5 45Q365 19 324.5 3.5Q284 -12 228 -12Q167 -12 125 9Q83 30 58.5 66Q34 102 26 151Q18 200 26 256L29 278Q37 335 56.5 383Q76 431 108.5 466.5Q141 502 186 522Q231 542 290 542Q350 542 388.5 525Q427 508 448.5 480Q470 452 476.5 415Q483 378 477 339L476 332H382Q384 357 381.5 379.5Q379 402 368.5 418.5Q358 435 338.5 444.5Q319 454 288 454Q222 454 181.5 407Q141 360 130 278ZM361 640H247L262 754H376Z" glyph-name="cdotaccent" horiz-adv-x="523" unicode="&#267;" /><glyph d="M180 -213Q145 -213 120 -205.5Q95 -198 81 -188L106 -136Q118 -144 137.5 -149.5Q157 -155 180 -155Q205 -155 218.5 -148.5Q232 -142 232 -125Q232 -111 218 -105Q204 -99 178 -99Q172 -99 166.5 -99.5Q161 -100 156 -101Q151 -102 146 -102L132 -77L172 0H230L204 -50Q241 -51 268.5 -68Q296 -85 296 -125Q296 -170 263 -191.5Q230 -213 180 -213Z" glyph-name="cedilla" horiz-adv-x="602" unicode="&#184;" /><glyph d="M156 367Q139 241 180 185L348 640Q318 640 288.5 630Q259 620 234 594.5Q209 569 190 525Q171 481 162 413ZM89 -60 142 84Q109 103 89 133Q69 163 59 199.5Q49 236 48 279Q47 322 53 367L59 413Q71 507 100 568Q129 629 169 665Q209 701 256 715Q303 729 352 729Q359 729 366 728.5Q373 728 380 728L422 840H505L457 711Q515 689 545.5 637.5Q576 586 563 500L559 473H454Q462 535 455 570.5Q448 606 425 623L247 143Q254 142 260 141.5Q266 141 274 141H282Q309 141 333.5 148Q358 155 377.5 171.5Q397 188 410.5 216.5Q424 245 430 287H534L533 277Q528 228 510 186.5Q492 145 460 115Q428 85 382 68.5Q336 52 276 52Q259 52 244 53.5Q229 55 215 57L172 -60Z" glyph-name="cent" horiz-adv-x="600" unicode="&#162;" /><glyph d="M101 607 256 780H350L459 607H367L296 708L197 607Z" glyph-name="circumflex" horiz-adv-x="500" unicode="&#710;" /><glyph d="M379 840 322 899 247 840H149L277 950H375L473 840Z" glyph-name="circumflex.cap" horiz-adv-x="500" unicode="&#58403;" /><glyph d="M349 0Q368 37 381.5 73Q395 109 404.5 147Q414 185 420.5 227Q427 269 431 320L428 321Q415 290 396 261Q377 232 352 209.5Q327 187 296 173.5Q265 160 228 160Q191 160 159 173.5Q127 187 103 210.5Q79 234 65.5 265.5Q52 297 52 334Q52 373 64.5 406Q77 439 100 463Q123 487 155 500.5Q187 514 226 514Q252 514 272.5 507Q293 500 310 491L312 493Q295 518 284.5 547.5Q274 577 274 610Q274 647 287.5 680Q301 713 324.5 737.5Q348 762 380 776Q412 790 450 790Q488 790 520 776Q552 762 575.5 737.5Q599 713 612.5 680Q626 647 626 610Q626 577 615.5 547.5Q605 518 588 493L590 491Q607 500 627.5 507Q648 514 674 514Q713 514 745 500.5Q777 487 800 463Q823 439 835.5 406Q848 373 848 334Q848 297 834.5 265.5Q821 234 797 210.5Q773 187 741 173.5Q709 160 672 160Q635 160 604 173.5Q573 187 548 209.5Q523 232 504 261Q485 290 472 321L469 320Q473 269 479.5 227Q486 185 495.5 147Q505 109 518.5 73Q532 37 551 0Z" glyph-name="club" horiz-adv-x="900" unicode="&#9827;" /><glyph d="M168 333H54L69 447H183ZM125 0H11L26 114H140Z" glyph-name="colon" horiz-adv-x="234" unicode=":" /><glyph d="M201 333H87L102 447H216ZM158 0H44L59 114H173Z" glyph-name="colon.T" horiz-adv-x="300" unicode="&#61828;" /><glyph d="M128 24Q107 -127 -24 -127L-17 -71Q17 -71 38 -54.5Q59 -38 69 0H11L26 114H140Z" glyph-name="comma" horiz-adv-x="234" unicode="," /><glyph d="M161 24Q140 -127 9 -127L16 -71Q50 -71 71 -54.5Q92 -38 102 0H44L59 114H173Z" glyph-name="comma.T" horiz-adv-x="300" unicode="&#61827;" /><glyph d="M238 -105Q223 -219 103 -219L109 -172Q138 -172 159 -162Q180 -152 185 -129H132L142 -51H245Z" glyph-name="commaaccent" horiz-adv-x="602" unicode="&#58388;" /><glyph d="M267 878Q278 964 387 964L382 930Q359 930 341 923.5Q323 917 318 900H369L361 840H262Z" glyph-name="commaaccent.cap" horiz-adv-x="500" unicode="&#58414;" /><glyph d="M462 226Q492 226 512 234.5Q532 243 544.5 256Q557 269 562 285Q567 301 567 317H656V301Q656 274 645 245.5Q634 217 610.5 194.5Q587 172 550 157.5Q513 143 460 143Q403 143 363 163Q323 183 297.5 215.5Q272 248 260.5 290Q249 332 249 377V403Q249 448 260.5 490Q272 532 297.5 564.5Q323 597 363 617Q403 637 460 637Q513 637 550 622Q587 607 610.5 583.5Q634 560 645 530.5Q656 501 656 472V454H567Q567 473 561.5 491.5Q556 510 543.5 523.5Q531 537 511 545.5Q491 554 462 554Q429 554 406.5 541.5Q384 529 370 508Q356 487 349.5 459.5Q343 432 343 403V377Q343 348 349.5 320.5Q356 293 370 272Q384 251 406.5 238.5Q429 226 462 226ZM106 390Q106 316 133.5 251.5Q161 187 209 139Q257 91 321.5 63.5Q386 36 460 36Q533 36 597.5 63.5Q662 91 710 139Q758 187 786 251.5Q814 316 814 390Q814 463 786 527.5Q758 592 710 640Q662 688 597.5 716Q533 744 460 744Q386 744 321.5 716Q257 688 209 640Q161 592 133.5 527.5Q106 463 106 390ZM58 390Q58 473 89.5 546.5Q121 620 175.5 674.5Q230 729 303.5 760.5Q377 792 460 792Q543 792 616.5 760.5Q690 729 744.5 674.5Q799 620 830.5 546.5Q862 473 862 390Q862 307 830.5 233.5Q799 160 744.5 105.5Q690 51 616.5 19.5Q543 -12 460 -12Q377 -12 303.5 19.5Q230 51 175.5 105.5Q121 160 89.5 233.5Q58 307 58 390Z" glyph-name="copyright" horiz-adv-x="920" unicode="&#169;" /><glyph d="M393 380Q388 391 378.5 404Q369 417 355 428Q341 439 321.5 446.5Q302 454 276 454Q219 454 182 407Q145 360 134 278L131 256Q120 175 142 125.5Q164 76 227 76Q254 76 275 82.5Q296 89 313 99.5Q330 110 342 123Q354 136 363 149ZM272 542Q324 542 357.5 521Q391 500 405 472L449 800H549L463 150L451 0H364L365 71Q345 36 302 12Q259 -12 207 -12Q149 -12 111.5 9Q74 30 53.5 66Q33 102 27.5 151Q22 200 30 256L33 278Q50 404 108 473Q166 542 272 542Z" glyph-name="d" horiz-adv-x="554" unicode="d" /><glyph d="M58 651 194 646 186 590 50 585ZM403 585 267 590 275 646 411 651ZM287 800 263 659H208L222 800ZM198 577H253L241 450L219 323H164L176 450Z" glyph-name="dagger" horiz-adv-x="397" unicode="&#8224;" /><glyph d="M29 428 165 423 157 367 21 362ZM374 362 238 367 246 423 382 428ZM169 354H224L212 227L190 100H135L147 227ZM58 651 194 646 186 590 50 585ZM403 585 267 590 275 646 411 651ZM287 800 263 659H208L222 800ZM198 577H253L246 506L234 436H179L186 506Z" glyph-name="daggerdbl" horiz-adv-x="397" unicode="&#8225;" /><glyph d="M687 800 642 607H590L616 800ZM393 380Q388 391 378.5 404Q369 417 355 428Q341 439 321.5 446.5Q302 454 276 454Q219 454 182 407Q145 360 134 278L131 256Q120 175 142 125.5Q164 76 227 76Q254 76 275 82.5Q296 89 313 99.5Q330 110 342 123Q354 136 363 149ZM272 542Q324 542 357.5 521Q391 500 405 472L449 800H549L463 150L451 0H364L365 71Q345 36 302 12Q259 -12 207 -12Q149 -12 111.5 9Q74 30 53.5 66Q33 102 27.5 151Q22 200 30 256L33 278Q50 404 108 473Q166 542 272 542Z" glyph-name="dcaron" horiz-adv-x="554" unicode="&#271;" /><glyph d="M393 380Q388 391 378.5 404Q369 417 355 428Q341 439 321.5 446.5Q302 454 276 454Q219 454 182 407Q145 360 134 278L131 256Q120 175 142 125.5Q164 76 227 76Q254 76 275 82.5Q296 89 313 99.5Q330 110 342 123Q354 136 363 149ZM309 703H436L449 800H549L536 703H619L609 627H526L463 150L451 0H364L365 71Q345 36 302 12Q259 -12 207 -12Q149 -12 111.5 9Q74 30 53.5 66Q33 102 27.5 151Q22 200 30 256L33 278Q50 404 108 473Q166 542 272 542Q324 542 357.5 521Q391 500 405 472L426 627H299Z" glyph-name="dcroat" horiz-adv-x="554" unicode="&#273;" /><glyph d="M557 854H457L468 936H568ZM393 380Q388 391 378.5 404Q369 417 355 428Q341 439 321.5 446.5Q302 454 276 454Q219 454 182 407Q145 360 134 278L131 256Q120 175 142 125.5Q164 76 227 76Q254 76 275 82.5Q296 89 313 99.5Q330 110 342 123Q354 136 363 149ZM272 542Q324 542 357.5 521Q391 500 405 472L449 800H549L463 150L451 0H364L365 71Q345 36 302 12Q259 -12 207 -12Q149 -12 111.5 9Q74 30 53.5 66Q33 102 27.5 151Q22 200 30 256L33 278Q50 404 108 473Q166 542 272 542Z" glyph-name="ddotaccent" horiz-adv-x="554" unicode="&#7691;" /><glyph d="M244 792Q317 792 358.5 751.5Q400 711 391 639L390 631Q381 556 336.5 517Q292 478 224 478Q151 478 109.5 518.5Q68 559 77 631L78 639Q87 714 131.5 753Q176 792 244 792ZM227 548Q264 548 290 568.5Q316 589 321 631L322 639Q327 674 306.5 698Q286 722 247 722H241Q204 722 178 701.5Q152 681 147 639L146 631Q141 596 161.5 572Q182 548 221 548Z" glyph-name="degree" horiz-adv-x="400" unicode="&#176;" /><glyph d="M817 390Q764 348 712.5 300.5Q661 253 614 201.5Q567 150 525.5 96.5Q484 43 451 -10H449Q416 43 374.5 96.5Q333 150 286 201.5Q239 253 187.5 300.5Q136 348 83 390Q136 432 187.5 479.5Q239 527 286 578.5Q333 630 374.5 683.5Q416 737 449 790H451Q484 737 525.5 683.5Q567 630 614 578.5Q661 527 712.5 479.5Q764 432 817 390Z" glyph-name="diamond" horiz-adv-x="900" unicode="&#9830;" /><glyph d="M433 640H319L334 754H448ZM250 640H136L151 754H265Z" glyph-name="dieresis" horiz-adv-x="500" unicode="&#168;" /><glyph d="M444 854H345L356 936H455ZM281 854H182L193 936H292Z" glyph-name="dieresis.cap" horiz-adv-x="500" unicode="&#58409;" /><glyph d="M223 234H337L322 120H208ZM379 546H265L280 660H394ZM53 436H561L549 344H41Z" glyph-name="divide" horiz-adv-x="600" unicode="&#247;" /><glyph d="M188 544Q186 528 188.5 513Q191 498 201 485Q211 472 230 461.5Q249 451 281 444L353 639Q348 640 338 640H332Q273 640 234 620.5Q195 601 189 552ZM422 243Q427 284 405.5 309Q384 334 328 348L252 142Q257 141 262.5 141Q268 141 274 141H282Q336 141 375 162Q414 183 421 235ZM94 -60 145 77Q86 103 59 153Q32 203 42 269L43 276H144Q139 234 148.5 207.5Q158 181 178 166L250 361Q198 370 164 387.5Q130 405 110.5 429Q91 453 85 482Q79 511 84 544L85 552Q96 639 162 684Q228 729 335 729Q361 729 385 726L427 840H510L460 706Q523 678 544 623.5Q565 569 555 502L554 495H453Q461 542 453.5 570.5Q446 599 427 615L359 431Q400 423 433.5 408.5Q467 394 489 371.5Q511 349 521 317Q531 285 526 243L525 235Q520 192 499 158Q478 124 445 100.5Q412 77 369 64.5Q326 52 278 52Q262 52 248 53Q234 54 220 56L177 -60Z" glyph-name="dollar" horiz-adv-x="600" unicode="$" /><glyph d="M342 640H228L243 754H357Z" glyph-name="dotaccent" horiz-adv-x="500" unicode="&#729;" /><glyph d="M364 854H264L275 936H375Z" glyph-name="dotaccent.cap" horiz-adv-x="500" unicode="&#58408;" /><glyph d="M233 -183H119L134 -69H248Z" glyph-name="dotbelow" horiz-adv-x="602" unicode="&#58389;" /><glyph d="M87 530H187L118 0H18Z" glyph-name="dotlessi" horiz-adv-x="234" unicode="&#305;" /><glyph d="M87 530H187L112 -39Q106 -88 88.5 -121Q71 -154 45.5 -174.5Q20 -195 -13 -203.5Q-46 -212 -83 -212Q-116 -212 -134.5 -207Q-153 -202 -157 -200L-146 -116Q-140 -118 -123 -121Q-106 -124 -88 -124Q-68 -124 -51 -120.5Q-34 -117 -21 -106.5Q-8 -96 0.5 -78Q9 -60 13 -31Z" glyph-name="dotlessj" horiz-adv-x="234" unicode="&#567;" /><glyph d="M272 840H372L246 -120H146ZM122 840H222L96 -120H-4Z" glyph-name="doublebar" horiz-adv-x="374" unicode="&#8214;" /><glyph d="M264 780H364L262 0H162ZM114 780H214L112 0H12Z" glyph-name="doublebar.cap" horiz-adv-x="374" unicode="&#58468;" /><glyph d="M187 780 255 607H170L94 780ZM336 780 391 607H306L242 780Z" glyph-name="doublegrave" horiz-adv-x="500" unicode="&#58386;" /><glyph d="M245 950 288 840H194L147 950ZM389 950 428 840H334L291 950Z" glyph-name="doublegrave.cap" horiz-adv-x="500" unicode="&#58412;" /><glyph d="M286 460Q225 460 184.5 418Q144 376 134 303H396Q405 378 378.5 419Q352 460 286 460ZM124 227Q117 151 146.5 110.5Q176 70 248 70Q315 70 346.5 100Q378 130 383 170H479L478 163Q473 128 456.5 96.5Q440 65 411 41Q382 17 341 2.5Q300 -12 246 -12Q179 -12 133.5 9Q88 30 61.5 66.5Q35 103 26.5 151.5Q18 200 26 256L29 278Q37 335 56.5 383Q76 431 107.5 466.5Q139 502 184 522Q229 542 288 542Q349 542 392 521.5Q435 501 460 464.5Q485 428 493 378.5Q501 329 493 271L487 227Z" glyph-name="e" horiz-adv-x="548" unicode="e" /><glyph d="M286 460Q225 460 184.5 418Q144 376 134 303H396Q405 378 378.5 419Q352 460 286 460ZM124 227Q117 151 146.5 110.5Q176 70 248 70Q315 70 346.5 100Q378 130 383 170H479L478 163Q473 128 456.5 96.5Q440 65 411 41Q382 17 341 2.5Q300 -12 246 -12Q179 -12 133.5 9Q88 30 61.5 66.5Q35 103 26.5 151.5Q18 200 26 256L29 278Q37 335 56.5 383Q76 431 107.5 466.5Q139 502 184 522Q229 542 288 542Q349 542 392 521.5Q435 501 460 464.5Q485 428 493 378.5Q501 329 493 271L487 227ZM479 780 357 607H255L369 780Z" glyph-name="eacute" horiz-adv-x="548" unicode="&#233;" /><glyph d="M286 460Q225 460 184.5 418Q144 376 134 303H396Q405 378 378.5 419Q352 460 286 460ZM124 227Q117 151 146.5 110.5Q176 70 248 70Q315 70 346.5 100Q378 130 383 170H479L478 163Q473 128 456.5 96.5Q440 65 411 41Q382 17 341 2.5Q300 -12 246 -12Q179 -12 133.5 9Q88 30 61.5 66.5Q35 103 26.5 151.5Q18 200 26 256L29 278Q37 335 56.5 383Q76 431 107.5 466.5Q139 502 184 522Q229 542 288 542Q349 542 392 521.5Q435 501 460 464.5Q485 428 493 378.5Q501 329 493 271L487 227ZM311 595Q265 595 233 609Q201 623 182.5 647.5Q164 672 158.5 706Q153 740 159 780H234Q227 730 246 702.5Q265 675 311 675Q409 675 420 780H499Q494 738 481.5 703.5Q469 669 446.5 645Q424 621 390.5 608Q357 595 311 595Z" glyph-name="ebreve" horiz-adv-x="548" unicode="&#277;" /><glyph d="M286 460Q225 460 184.5 418Q144 376 134 303H396Q405 378 378.5 419Q352 460 286 460ZM124 227Q117 151 146.5 110.5Q176 70 248 70Q315 70 346.5 100Q378 130 383 170H479L478 163Q473 128 456.5 96.5Q440 65 411 41Q382 17 341 2.5Q300 -12 246 -12Q179 -12 133.5 9Q88 30 61.5 66.5Q35 103 26.5 151.5Q18 200 26 256L29 278Q37 335 56.5 383Q76 431 107.5 466.5Q139 502 184 522Q229 542 288 542Q349 542 392 521.5Q435 501 460 464.5Q485 428 493 378.5Q501 329 493 271L487 227ZM508 780 353 607H259L150 780H242L313 679L412 780Z" glyph-name="ecaron" horiz-adv-x="548" unicode="&#283;" /><glyph d="M286 460Q225 460 184.5 418Q144 376 134 303H396Q405 378 378.5 419Q352 460 286 460ZM124 227Q117 151 146.5 110.5Q176 70 248 70Q315 70 346.5 100Q378 130 383 170H479L478 163Q473 128 456.5 96.5Q440 65 411 41Q382 17 341 2.5Q300 -12 246 -12Q179 -12 133.5 9Q88 30 61.5 66.5Q35 103 26.5 151.5Q18 200 26 256L29 278Q37 335 56.5 383Q76 431 107.5 466.5Q139 502 184 522Q229 542 288 542Q349 542 392 521.5Q435 501 460 464.5Q485 428 493 378.5Q501 329 493 271L487 227ZM127 607 282 780H376L485 607H393L322 708L223 607Z" glyph-name="ecircumflex" horiz-adv-x="548" unicode="&#234;" /><glyph d="M286 460Q225 460 184.5 418Q144 376 134 303H396Q405 378 378.5 419Q352 460 286 460ZM124 227Q117 151 146.5 110.5Q176 70 248 70Q315 70 346.5 100Q378 130 383 170H479L478 163Q473 128 456.5 96.5Q440 65 411 41Q382 17 341 2.5Q300 -12 246 -12Q179 -12 133.5 9Q88 30 61.5 66.5Q35 103 26.5 151.5Q18 200 26 256L29 278Q37 335 56.5 383Q76 431 107.5 466.5Q139 502 184 522Q229 542 288 542Q349 542 392 521.5Q435 501 460 464.5Q485 428 493 378.5Q501 329 493 271L487 227ZM459 640H345L360 754H474ZM276 640H162L177 754H291Z" glyph-name="edieresis" horiz-adv-x="548" unicode="&#235;" /><glyph d="M286 460Q225 460 184.5 418Q144 376 134 303H396Q405 378 378.5 419Q352 460 286 460ZM124 227Q117 151 146.5 110.5Q176 70 248 70Q315 70 346.5 100Q378 130 383 170H479L478 163Q473 128 456.5 96.5Q440 65 411 41Q382 17 341 2.5Q300 -12 246 -12Q179 -12 133.5 9Q88 30 61.5 66.5Q35 103 26.5 151.5Q18 200 26 256L29 278Q37 335 56.5 383Q76 431 107.5 466.5Q139 502 184 522Q229 542 288 542Q349 542 392 521.5Q435 501 460 464.5Q485 428 493 378.5Q501 329 493 271L487 227ZM368 640H254L269 754H383Z" glyph-name="edotaccent" horiz-adv-x="548" unicode="&#279;" /><glyph d="M286 460Q225 460 184.5 418Q144 376 134 303H396Q405 378 378.5 419Q352 460 286 460ZM124 227Q117 151 146.5 110.5Q176 70 248 70Q315 70 346.5 100Q378 130 383 170H479L478 163Q473 128 456.5 96.5Q440 65 411 41Q382 17 341 2.5Q300 -12 246 -12Q179 -12 133.5 9Q88 30 61.5 66.5Q35 103 26.5 151.5Q18 200 26 256L29 278Q37 335 56.5 383Q76 431 107.5 466.5Q139 502 184 522Q229 542 288 542Q349 542 392 521.5Q435 501 460 464.5Q485 428 493 378.5Q501 329 493 271L487 227ZM289 780 357 607H255L179 780Z" glyph-name="egrave" horiz-adv-x="548" unicode="&#232;" /><glyph d="M339 701Q273 701 231 667.5Q189 634 181 573L180 565Q176 535 184 512Q192 489 208 474Q224 459 247.5 451Q271 443 299 443H316Q378 443 420 470.5Q462 498 470 560L471 568Q479 633 444.5 667Q410 701 347 701ZM287 353Q257 353 230 344.5Q203 336 182 318.5Q161 301 147.5 275.5Q134 250 130 217L129 209Q125 176 133.5 151.5Q142 127 160.5 111Q179 95 205 87Q231 79 262 79H272Q300 79 326.5 87Q353 95 374 111.5Q395 128 409 153Q423 178 427 212L428 220Q436 285 403.5 319Q371 353 308 353ZM262 -12Q200 -12 153 4Q106 20 75 48.5Q44 77 31 115.5Q18 154 24 199L27 221Q38 300 82 342.5Q126 385 187 402Q163 408 141 422Q119 436 103 457.5Q87 479 79.5 506.5Q72 534 77 567L80 589Q86 631 104 668Q122 705 154.5 732.5Q187 760 234.5 776Q282 792 345 792Q409 792 455 775.5Q501 759 530 730Q559 701 570.5 662Q582 623 576 578L573 556Q564 488 524.5 451.5Q485 415 426 400Q483 383 513 336Q543 289 533 218L530 196Q524 153 504 115Q484 77 450 49Q416 21 369 4.5Q322 -12 262 -12Z" glyph-name="eight" horiz-adv-x="600" unicode="8" /><glyph d="M114 126Q70 126 64 84L63 76Q61 56 72.5 45Q84 34 101 34H106Q128 34 142 43.5Q156 53 159 76L160 84Q162 104 150.5 115Q139 126 120 126ZM91 -36Q71 -36 57 -47.5Q43 -59 40 -83L39 -91Q36 -114 49 -125.5Q62 -137 82 -137H88Q107 -137 121.5 -127Q136 -117 139 -91L140 -83Q146 -36 98 -36ZM82 -207Q48 -207 23.5 -197.5Q-1 -188 -16 -172.5Q-31 -157 -37.5 -136.5Q-44 -116 -41 -94L-40 -86Q-35 -51 -18 -31Q-1 -11 25 -2Q5 4 -7.5 29.5Q-20 55 -16 84L-15 92Q-13 110 -5 128.5Q3 147 18.5 162Q34 177 58 186.5Q82 196 118 196Q154 196 179 186.5Q204 177 218.5 161Q233 145 238 125.5Q243 106 241 87L240 79Q236 48 219.5 26.5Q203 5 179 -2Q202 -9 213.5 -32.5Q225 -56 220 -91L219 -99Q217 -118 208 -137Q199 -156 182.5 -171.5Q166 -187 141 -197Q116 -207 82 -207Z" glyph-name="eight.inf" horiz-adv-x="300" unicode="&#58745;" /><glyph d="M1170 146Q1168 141 1167 133Q1166 125 1166 118Q1166 89 1179 76Q1192 63 1209 63H1215Q1238 63 1251 75.5Q1264 88 1268 117L1269 125Q1272 150 1259.5 163Q1247 176 1228 176H1223Q1209 176 1195 168.5Q1181 161 1170 146ZM1356 325Q1313 325 1282.5 316Q1252 307 1226 284Q1214 273 1204 256.5Q1194 240 1189 223Q1214 246 1257 246Q1305 246 1330.5 213.5Q1356 181 1349 127L1348 119Q1340 61 1307 27Q1274 -7 1212 -7Q1177 -7 1152 4Q1127 15 1112 35Q1097 55 1092 82.5Q1087 110 1091 142L1092 150Q1094 169 1099.5 193Q1105 217 1114 241.5Q1123 266 1137.5 289.5Q1152 313 1172 332Q1212 370 1259 383Q1306 396 1365 396ZM782 0 791 70H876L905 291L838 250L806 308L939 390H998L956 70H1042L1033 0ZM312 0 990 780H1092L414 0ZM332 390 341 460H426L455 681L388 640L356 698L489 780H548L506 460H592L583 390ZM32 390 41 460H126L155 681L88 640L56 698L189 780H248L206 460H292L283 390Z" glyph-name="elevensixteenths" horiz-adv-x="1400" unicode="&#61984;" /><glyph d="M508 0H394L409 114H523ZM831 0H717L732 114H846ZM185 0H71L86 114H200Z" glyph-name="ellipsis" horiz-adv-x="1000" unicode="&#8230;" /><glyph d="M286 460Q225 460 184.5 418Q144 376 134 303H396Q405 378 378.5 419Q352 460 286 460ZM124 227Q117 151 146.5 110.5Q176 70 248 70Q315 70 346.5 100Q378 130 383 170H479L478 163Q473 128 456.5 96.5Q440 65 411 41Q382 17 341 2.5Q300 -12 246 -12Q179 -12 133.5 9Q88 30 61.5 66.5Q35 103 26.5 151.5Q18 200 26 256L29 278Q37 335 56.5 383Q76 431 107.5 466.5Q139 502 184 522Q229 542 288 542Q349 542 392 521.5Q435 501 460 464.5Q485 428 493 378.5Q501 329 493 271L487 227ZM196 742H453L441 652H184Z" glyph-name="emacron" horiz-adv-x="548" unicode="&#275;" /><glyph d="M43 395H963L951 305H31Z" glyph-name="emdash" horiz-adv-x="1000" unicode="&#8212;" /><glyph d="M48 435H968L956 345H36Z" glyph-name="emdash.cap" horiz-adv-x="1000" unicode="&#58502;" /><glyph glyph-name="emspace" horiz-adv-x="1000" unicode="&#8195;" /><glyph d="M43 395H463L451 305H31Z" glyph-name="endash" horiz-adv-x="500" unicode="&#8211;" /><glyph d="M48 435H468L456 345H36Z" glyph-name="endash.cap" horiz-adv-x="500" unicode="&#58500;" /><glyph d="M435 -39Q429 -88 411.5 -121Q394 -154 368.5 -174.5Q343 -195 310 -203.5Q277 -212 240 -212Q207 -212 188.5 -207Q170 -202 166 -200L177 -116Q183 -118 200 -121Q217 -124 235 -124Q255 -124 272 -120.5Q289 -117 302 -106.5Q315 -96 323.5 -78Q332 -60 336 -31L386 350Q392 397 371 425.5Q350 454 298 454Q272 454 251 446.5Q230 439 213 428Q196 417 183.5 404.5Q171 392 163 381L113 0H13L63 380L75 530H161V459Q190 496 234.5 519Q279 542 340 542Q383 542 413 527.5Q443 513 461 488.5Q479 464 485.5 432Q492 400 488 365Z" glyph-name="eng" horiz-adv-x="545" unicode="&#331;" /><glyph glyph-name="enspace" horiz-adv-x="500" unicode="&#8194;" /><glyph d="M286 460Q225 460 184.5 418Q144 376 134 303H396Q405 378 378.5 419Q352 460 286 460ZM124 227Q117 151 146.5 110.5Q176 70 248 70Q315 70 346.5 100Q378 130 383 170H479L478 163Q470 108 434.5 64Q399 20 333 0Q318 -5 302.5 -13Q287 -21 274.5 -33Q262 -45 254 -60.5Q246 -76 246 -95Q246 -112 256.5 -124Q267 -136 287 -136Q307 -136 322.5 -132Q338 -128 348 -123L364 -191Q347 -201 322.5 -207Q298 -213 272 -213Q218 -213 190 -187Q162 -161 162 -115Q162 -82 174.5 -56Q187 -30 207 -10Q151 -4 113 19Q75 42 53.5 77.5Q32 113 25.5 159Q19 205 26 256L29 278Q37 335 56.5 383Q76 431 107.5 466.5Q139 502 184 522Q229 542 288 542Q349 542 392 521.5Q435 501 460 464.5Q485 428 493 378.5Q501 329 493 271L487 227Z" glyph-name="eogonek" horiz-adv-x="548" unicode="&#281;" /><glyph d="M39 332H547L535 240H27ZM67 540H575L563 448H55Z" glyph-name="equal" horiz-adv-x="600" unicode="=" /><glyph d="M-30 -23H228L218 -97H-40ZM-16 86H242L232 12H-26Z" glyph-name="equal.inf" horiz-adv-x="300" unicode="&#58749;" /><glyph d="M25 228H533L521 136H13ZM53 436H561L549 344H41ZM81 644H589L577 552H69Z" glyph-name="equivalence" horiz-adv-x="600" unicode="&#8801;" /><glyph d="M236 76Q302 76 340.5 123Q379 170 390 252L393 274Q404 357 378 405.5Q352 454 284 454Q218 454 179.5 407Q141 360 130 278L127 256Q116 173 141.5 124.5Q167 76 236 76ZM99 812Q166 807 227 792Q288 777 339 745L466 812L458 745L388 708Q412 686 431 659Q459 621 475 573Q491 525 497 474Q503 423 501.5 371.5Q500 320 494 274L491 252Q483 195 464 147Q445 99 413.5 63.5Q382 28 337.5 8Q293 -12 234 -12Q173 -12 130 9Q87 30 61.5 66Q36 102 27 151Q18 200 26 256L29 278Q37 335 56 383Q75 431 106.5 466.5Q138 502 182.5 522Q227 542 286 542Q324 542 347.5 534.5Q371 527 388 513Q372 565 345 601Q330 621 315.5 633.5Q301 646 287 655L101 557L109 624L230 688Q198 702 162 709Q126 716 87 721Z" glyph-name="eth" horiz-adv-x="548" unicode="&#240;" /><glyph d="M125 0H11L26 114H140ZM232 780 129 203H59L108 780Z" glyph-name="exclam" horiz-adv-x="234" unicode="!" /><glyph d="M179 416H65L80 530H194ZM-21 -200 76 327H146L103 -200Z" glyph-name="exclamdown" horiz-adv-x="234" unicode="&#161;" /><glyph d="M212 666H98L113 780H227ZM6 0 108 577H178L130 0Z" glyph-name="exclamdown.cap" horiz-adv-x="234" unicode="&#58433;" /><glyph d="M231 530H368L356 441H219L161 0H61L119 441H35L47 530H131L145 639Q151 688 168.5 721Q186 754 211.5 774.5Q237 795 269.5 803.5Q302 812 340 812Q373 812 391.5 807Q410 802 414 800L403 716Q397 718 380 721Q363 724 345 724Q325 724 308 720.5Q291 717 278 706.5Q265 696 256.5 678Q248 660 244 631Z" glyph-name="f" horiz-adv-x="391" unicode="f" /><glyph d="M356 854H256L267 936H367ZM231 530H368L356 441H219L161 0H61L119 441H35L47 530H131L145 639Q151 688 168.5 721Q186 754 211.5 774.5Q237 795 269.5 803.5Q302 812 340 812Q373 812 391.5 807Q410 802 414 800L403 716Q397 718 380 721Q363 724 345 724Q325 724 308 720.5Q291 717 278 706.5Q265 696 256.5 678Q248 660 244 631Z" glyph-name="fdotaccent" horiz-adv-x="391" unicode="&#7711;" /><glyph d="M600 640H486L501 754H615ZM478 530H578L509 0H409ZM231 530H368L356 441H219L161 0H61L119 441H35L47 530H131L145 639Q151 688 168.5 721Q186 754 211.5 774.5Q237 795 269.5 803.5Q302 812 340 812Q373 812 391.5 807Q410 802 414 800L403 716Q397 718 380 721Q363 724 345 724Q325 724 308 720.5Q291 717 278 706.5Q265 696 256.5 678Q248 660 244 631Z" glyph-name="fi" horiz-adv-x="625" unicode="&#64257;" /><glyph d="M1170 146Q1168 141 1167 133Q1166 125 1166 118Q1166 89 1179 76Q1192 63 1209 63H1215Q1238 63 1251 75.5Q1264 88 1268 117L1269 125Q1272 150 1259.5 163Q1247 176 1228 176H1223Q1209 176 1195 168.5Q1181 161 1170 146ZM1356 325Q1313 325 1282.5 316Q1252 307 1226 284Q1214 273 1204 256.5Q1194 240 1189 223Q1214 246 1257 246Q1305 246 1330.5 213.5Q1356 181 1349 127L1348 119Q1340 61 1307 27Q1274 -7 1212 -7Q1177 -7 1152 4Q1127 15 1112 35Q1097 55 1092 82.5Q1087 110 1091 142L1092 150Q1094 169 1099.5 193Q1105 217 1114 241.5Q1123 266 1137.5 289.5Q1152 313 1172 332Q1212 370 1259 383Q1306 396 1365 396ZM782 0 791 70H876L905 291L838 250L806 308L939 390H998L956 70H1042L1033 0ZM312 0 990 780H1092L414 0ZM417 515Q412 477 425 465Q438 453 458 453H464Q483 453 498 466Q513 479 517 509L518 517Q522 548 507.5 560.5Q493 573 474 573H468Q452 573 437 566Q422 559 412 543L346 566L384 780H627L618 710H442L426 623Q452 643 492 643Q549 643 577 607Q605 571 598 517L597 509Q589 451 554.5 417Q520 383 461 383Q390 383 359.5 417.5Q329 452 336 507L337 515ZM32 390 41 460H126L155 681L88 640L56 698L189 780H248L206 460H292L283 390Z" glyph-name="fifteensixteenths" horiz-adv-x="1400" unicode="&#61986;" /><glyph d="M43 395H563L551 305H31Z" glyph-name="figuredash" horiz-adv-x="600" unicode="&#8210;" /><glyph d="M48 435H568L556 345H36Z" glyph-name="figuredash.cap" horiz-adv-x="600" unicode="&#58503;" /><glyph glyph-name="figurespace" horiz-adv-x="600" unicode="&#8199;" /><glyph d="M132 250Q121 154 155 116.5Q189 79 259 79H267Q295 79 322.5 87.5Q350 96 372.5 115Q395 134 410.5 162.5Q426 191 431 232L432 240Q442 321 408 364.5Q374 408 311 408H303Q243 408 202.5 387Q162 366 133 321L49 349L124 780H597L585 688H200L157 441Q182 470 226 484.5Q270 499 315 499Q372 499 416.5 482Q461 465 490.5 433Q520 401 532.5 354.5Q545 308 537 250L534 228Q517 108 448.5 48Q380 -12 264 -12Q130 -12 70.5 57Q11 126 28 243L29 250Z" glyph-name="five" horiz-adv-x="600" unicode="5" /><glyph d="M41 -75Q36 -113 49 -125Q62 -137 82 -137H88Q107 -137 122 -124Q137 -111 141 -81L142 -73Q146 -42 131.5 -29.5Q117 -17 98 -17H92Q76 -17 61 -24Q46 -31 36 -47L-30 -24L8 190H251L242 120H66L50 33Q76 53 116 53Q173 53 201 17Q229 -19 222 -73L221 -81Q213 -139 178.5 -173Q144 -207 85 -207Q14 -207 -16.5 -172.5Q-47 -138 -40 -83L-39 -75Z" glyph-name="five.inf" horiz-adv-x="300" unicode="&#58742;" /><glyph d="M870 146Q868 141 867 133Q866 125 866 118Q866 89 879 76Q892 63 909 63H915Q938 63 951 75.5Q964 88 968 117L969 125Q972 150 959.5 163Q947 176 928 176H923Q909 176 895 168.5Q881 161 870 146ZM1056 325Q1013 325 982.5 316Q952 307 926 284Q914 273 904 256.5Q894 240 889 223Q914 246 957 246Q1005 246 1030.5 213.5Q1056 181 1049 127L1048 119Q1040 61 1007 27Q974 -7 912 -7Q877 -7 852 4Q827 15 812 35Q797 55 792 82.5Q787 110 791 142L792 150Q794 169 799.5 193Q805 217 814 241.5Q823 266 837.5 289.5Q852 313 872 332Q912 370 959 383Q1006 396 1065 396ZM482 0 491 70H576L605 291L538 250L506 308L639 390H698L656 70H742L733 0ZM12 0 690 780H792L114 0ZM117 515Q112 477 125 465Q138 453 158 453H164Q183 453 198 466Q213 479 217 509L218 517Q222 548 207.5 560.5Q193 573 174 573H168Q152 573 137 566Q122 559 112 543L46 566L84 780H327L318 710H142L126 623Q152 643 192 643Q249 643 277 607Q305 571 298 517L297 509Q289 451 254.5 417Q220 383 161 383Q90 383 59.5 417.5Q29 452 36 507L37 515Z" glyph-name="fivesixteenths" horiz-adv-x="1100" unicode="&#61975;" /><glyph d="M514 800H614L509 0H409ZM231 530H368L356 441H219L161 0H61L119 441H35L47 530H131L145 639Q151 688 168.5 721Q186 754 211.5 774.5Q237 795 269.5 803.5Q302 812 340 812Q373 812 391.5 807Q410 802 414 800L403 716Q397 718 380 721Q363 724 345 724Q325 724 308 720.5Q291 717 278 706.5Q265 696 256.5 678Q248 660 244 631Z" glyph-name="fl" horiz-adv-x="625" unicode="&#64258;" /><glyph d="M138 285 213 286H342L373 527L386 610ZM304 0 329 194H7L16 264L411 780H508L443 286H557L545 194H431L406 0Z" glyph-name="four" horiz-adv-x="600" unicode="4" /><glyph d="M42 -46 68 -45H110L120 33L124 62ZM89 -200 101 -115H-51L-43 -57L145 190H221L190 -45H232L223 -115H181L169 -200Z" glyph-name="four.inf" horiz-adv-x="300" unicode="&#58741;" /><glyph glyph-name="fourperemspace" horiz-adv-x="250" unicode="&#8197;" /><glyph d="M-288 0 390 780H492L-186 0Z" glyph-name="fraction" horiz-adv-x="200" unicode="&#8260;" /><glyph d="M391 379Q386 390 376.5 403Q367 416 353 427.5Q339 439 319.5 446.5Q300 454 274 454Q245 454 221.5 441Q198 428 180 406.5Q162 385 150 356.5Q138 328 134 298L131 276Q126 244 129 215Q132 186 144 164Q156 142 176.5 129Q197 116 229 116Q256 116 277 122.5Q298 129 315 139.5Q332 150 344 162.5Q356 175 365 187ZM352 90Q343 80 329 69Q315 58 297 49Q279 40 257 34Q235 28 209 28Q151 28 113.5 49.5Q76 71 55.5 105.5Q35 140 29.5 184.5Q24 229 30 276L33 298Q40 349 58 393.5Q76 438 105.5 471Q135 504 175.5 523Q216 542 269 542Q322 542 358.5 519Q395 496 412 461L431 530H518L492 385L440 -8Q426 -109 370 -160.5Q314 -212 200 -212Q138 -212 97.5 -194Q57 -176 34 -147Q11 -118 4.5 -81.5Q-2 -45 3 -7L4 0H98Q81 -128 200 -128Q237 -128 262.5 -120Q288 -112 304 -96.5Q320 -81 328.5 -57.5Q337 -34 341 -3Z" glyph-name="g" horiz-adv-x="550" unicode="g" /><glyph d="M391 379Q386 390 376.5 403Q367 416 353 427.5Q339 439 319.5 446.5Q300 454 274 454Q245 454 221.5 441Q198 428 180 406.5Q162 385 150 356.5Q138 328 134 298L131 276Q126 244 129 215Q132 186 144 164Q156 142 176.5 129Q197 116 229 116Q256 116 277 122.5Q298 129 315 139.5Q332 150 344 162.5Q356 175 365 187ZM352 90Q343 80 329 69Q315 58 297 49Q279 40 257 34Q235 28 209 28Q151 28 113.5 49.5Q76 71 55.5 105.5Q35 140 29.5 184.5Q24 229 30 276L33 298Q40 349 58 393.5Q76 438 105.5 471Q135 504 175.5 523Q216 542 269 542Q322 542 358.5 519Q395 496 412 461L431 530H518L492 385L440 -8Q426 -109 370 -160.5Q314 -212 200 -212Q138 -212 97.5 -194Q57 -176 34 -147Q11 -118 4.5 -81.5Q-2 -45 3 -7L4 0H98Q81 -128 200 -128Q237 -128 262.5 -120Q288 -112 304 -96.5Q320 -81 328.5 -57.5Q337 -34 341 -3ZM305 595Q259 595 227 609Q195 623 176.5 647.5Q158 672 152.5 706Q147 740 153 780H228Q221 730 240 702.5Q259 675 305 675Q403 675 414 780H493Q488 738 475.5 703.5Q463 669 440.5 645Q418 621 384.5 608Q351 595 305 595Z" glyph-name="gbreve" horiz-adv-x="550" unicode="&#287;" /><glyph d="M391 379Q386 390 376.5 403Q367 416 353 427.5Q339 439 319.5 446.5Q300 454 274 454Q245 454 221.5 441Q198 428 180 406.5Q162 385 150 356.5Q138 328 134 298L131 276Q126 244 129 215Q132 186 144 164Q156 142 176.5 129Q197 116 229 116Q256 116 277 122.5Q298 129 315 139.5Q332 150 344 162.5Q356 175 365 187ZM352 90Q343 80 329 69Q315 58 297 49Q279 40 257 34Q235 28 209 28Q151 28 113.5 49.5Q76 71 55.5 105.5Q35 140 29.5 184.5Q24 229 30 276L33 298Q40 349 58 393.5Q76 438 105.5 471Q135 504 175.5 523Q216 542 269 542Q322 542 358.5 519Q395 496 412 461L431 530H518L492 385L440 -8Q426 -109 370 -160.5Q314 -212 200 -212Q138 -212 97.5 -194Q57 -176 34 -147Q11 -118 4.5 -81.5Q-2 -45 3 -7L4 0H98Q81 -128 200 -128Q237 -128 262.5 -120Q288 -112 304 -96.5Q320 -81 328.5 -57.5Q337 -34 341 -3ZM121 607 276 780H370L479 607H387L316 708L217 607Z" glyph-name="gcircumflex" horiz-adv-x="550" unicode="&#285;" /><glyph d="M255 668Q263 725 297.5 758.5Q332 792 392 792L386 745Q357 745 335 730Q313 715 308 692H361L349 607H246ZM391 379Q386 390 376.5 403Q367 416 353 427.5Q339 439 319.5 446.5Q300 454 274 454Q245 454 221.5 441Q198 428 180 406.5Q162 385 150 356.5Q138 328 134 298L131 276Q126 244 129 215Q132 186 144 164Q156 142 176.5 129Q197 116 229 116Q256 116 277 122.5Q298 129 315 139.5Q332 150 344 162.5Q356 175 365 187ZM352 90Q343 80 329 69Q315 58 297 49Q279 40 257 34Q235 28 209 28Q151 28 113.5 49.5Q76 71 55.5 105.5Q35 140 29.5 184.5Q24 229 30 276L33 298Q40 349 58 393.5Q76 438 105.5 471Q135 504 175.5 523Q216 542 269 542Q322 542 358.5 519Q395 496 412 461L431 530H518L492 385L440 -8Q426 -109 370 -160.5Q314 -212 200 -212Q138 -212 97.5 -194Q57 -176 34 -147Q11 -118 4.5 -81.5Q-2 -45 3 -7L4 0H98Q81 -128 200 -128Q237 -128 262.5 -120Q288 -112 304 -96.5Q320 -81 328.5 -57.5Q337 -34 341 -3Z" glyph-name="gcommaaccent" horiz-adv-x="550" unicode="&#291;" /><glyph d="M391 379Q386 390 376.5 403Q367 416 353 427.5Q339 439 319.5 446.5Q300 454 274 454Q245 454 221.5 441Q198 428 180 406.5Q162 385 150 356.5Q138 328 134 298L131 276Q126 244 129 215Q132 186 144 164Q156 142 176.5 129Q197 116 229 116Q256 116 277 122.5Q298 129 315 139.5Q332 150 344 162.5Q356 175 365 187ZM352 90Q343 80 329 69Q315 58 297 49Q279 40 257 34Q235 28 209 28Q151 28 113.5 49.5Q76 71 55.5 105.5Q35 140 29.5 184.5Q24 229 30 276L33 298Q40 349 58 393.5Q76 438 105.5 471Q135 504 175.5 523Q216 542 269 542Q322 542 358.5 519Q395 496 412 461L431 530H518L492 385L440 -8Q426 -109 370 -160.5Q314 -212 200 -212Q138 -212 97.5 -194Q57 -176 34 -147Q11 -118 4.5 -81.5Q-2 -45 3 -7L4 0H98Q81 -128 200 -128Q237 -128 262.5 -120Q288 -112 304 -96.5Q320 -81 328.5 -57.5Q337 -34 341 -3ZM362 640H248L263 754H377Z" glyph-name="gdotaccent" horiz-adv-x="550" unicode="&#289;" /><glyph d="M276 422Q317 442 346.5 463Q376 484 394.5 508Q413 532 422 559.5Q431 587 431 621Q431 667 405.5 694.5Q380 722 325 722Q261 722 228 686.5Q195 651 188 597L110 0H10L89 604Q95 649 112 687.5Q129 726 158.5 753.5Q188 781 229.5 796.5Q271 812 325 812Q386 812 427.5 795.5Q469 779 493.5 751Q518 723 526.5 685Q535 647 530 604L529 596Q520 525 484 480Q448 435 382 397L418 370Q485 320 516.5 273.5Q548 227 540 163L539 155Q535 123 523 93Q511 63 488.5 39.5Q466 16 431 2Q396 -12 345 -12Q289 -12 255 2Q221 16 203.5 39Q186 62 182.5 93Q179 124 184 157L185 164H277Q274 142 274.5 124.5Q275 107 282.5 94.5Q290 82 305.5 75Q321 68 348 68Q373 68 390.5 76Q408 84 419 98Q430 112 435 130Q440 148 440 169Q440 206 416 236Q392 266 342 303L268 358Z" glyph-name="germandbls" horiz-adv-x="592" unicode="&#223;" /><glyph d="M263 780 331 607H229L153 780Z" glyph-name="grave" horiz-adv-x="500" unicode="`" /><glyph d="M319 950 362 840H260L212 950Z" glyph-name="grave.cap" horiz-adv-x="500" unicode="&#58401;" /><glyph d="M10 115 24 221 446 394 69 567 82 665 562 440 549 340Z" glyph-name="greater" horiz-adv-x="600" unicode="&gt;" /><glyph d="M18 171 549 340 540 272 9 103ZM419 462 71 579 85 677 571 508 558 408 27 239 41 345Z" glyph-name="greaterequal" horiz-adv-x="600" unicode="&#8805;" /><glyph d="M492 440 342 336 465 232 453 142 264 293 276 387 505 538ZM267 440 117 336 240 232 228 142 39 293 51 387 280 538Z" glyph-name="guillemotleft" horiz-adv-x="534" unicode="&#171;" /><glyph d="M499 490 349 386 472 282 460 192 271 343 283 437 512 588ZM274 490 124 386 247 282 235 192 46 343 58 437 287 588Z" glyph-name="guillemotleft.cap" horiz-adv-x="534" unicode="&#58451;" /><glyph d="M32 240 182 344 59 448 71 538 260 387 248 293 19 142ZM257 240 407 344 284 448 296 538 485 387 473 293 244 142Z" glyph-name="guillemotright" horiz-adv-x="534" unicode="&#187;" /><glyph d="M39 290 189 394 66 498 78 588 267 437 255 343 26 192ZM264 290 414 394 291 498 303 588 492 437 480 343 251 192Z" glyph-name="guillemotright.cap" horiz-adv-x="534" unicode="&#58452;" /><glyph d="M267 440 117 336 240 232 228 142 39 293 51 387 280 538Z" glyph-name="guilsinglleft" horiz-adv-x="309" unicode="&#8249;" /><glyph d="M274 490 124 386 247 282 235 192 46 343 58 437 287 588Z" glyph-name="guilsinglleft.cap" horiz-adv-x="309" unicode="&#58449;" /><glyph d="M32 240 182 344 59 448 71 538 260 387 248 293 19 142Z" glyph-name="guilsinglright" horiz-adv-x="309" unicode="&#8250;" /><glyph d="M39 290 189 394 66 498 78 588 267 437 255 343 26 192Z" glyph-name="guilsinglright.cap" horiz-adv-x="309" unicode="&#58450;" /><glyph d="M118 800H218L175 475Q204 505 245 523.5Q286 542 340 542Q383 542 413 527.5Q443 513 461 488.5Q479 464 485.5 432Q492 400 488 365L440 0H340L386 350Q392 397 371 425.5Q350 454 298 454Q272 454 251 446.5Q230 439 213 428Q196 417 183.5 404.5Q171 392 163 381L113 0H13Z" glyph-name="h" horiz-adv-x="545" unicode="h" /><glyph glyph-name="hairspace" horiz-adv-x="50" unicode="&#8202;" /><glyph d="M95 627H12L22 703H105L118 800H218L205 703H332L322 627H195L175 475Q204 505 245 523.5Q286 542 340 542Q383 542 413 527.5Q443 513 461 488.5Q479 464 485.5 432Q492 400 488 365L440 0H340L386 350Q392 397 371 425.5Q350 454 298 454Q272 454 251 446.5Q230 439 213 428Q196 417 183.5 404.5Q171 392 163 381L113 0H13Z" glyph-name="hbar" horiz-adv-x="545" unicode="&#295;" /><glyph d="M241 840 184 899 109 840H11L139 950H237L335 840ZM118 800H218L175 475Q204 505 245 523.5Q286 542 340 542Q383 542 413 527.5Q443 513 461 488.5Q479 464 485.5 432Q492 400 488 365L440 0H340L386 350Q392 397 371 425.5Q350 454 298 454Q272 454 251 446.5Q230 439 213 428Q196 417 183.5 404.5Q171 392 163 381L113 0H13Z" glyph-name="hcircumflex" horiz-adv-x="545" unicode="&#293;" /><glyph d="M449 -10Q437 9 414 40Q391 71 360 110Q329 149 292.5 193.5Q256 238 216 283Q190 312 161 348Q132 384 108 423.5Q84 463 68 504Q52 545 52 584Q52 628 65 666Q78 704 103 731.5Q128 759 163.5 774.5Q199 790 243 790Q289 790 323 777Q357 764 381 742.5Q405 721 421 692.5Q437 664 448 633H452Q463 664 479 692.5Q495 721 519 742.5Q543 764 576.5 777Q610 790 657 790Q701 790 736.5 774.5Q772 759 796.5 731.5Q821 704 834.5 666Q848 628 848 584Q848 545 832 504Q816 463 792 423.5Q768 384 739 348Q710 312 684 283Q644 238 607.5 193.5Q571 149 540 110Q509 71 486 40Q463 9 451 -10Z" glyph-name="heart" horiz-adv-x="900" unicode="&#9829;" /><glyph d="M70 0V450L425 790L780 450V0Z" glyph-name="house" horiz-adv-x="850" unicode="&#8962;" /><glyph d="M512 780 390 607H305L419 780ZM364 780 254 607H169L270 780Z" glyph-name="hungarumlaut" horiz-adv-x="500" unicode="&#733;" /><glyph d="M505 950 428 840H334L407 950ZM361 950 288 840H194L263 950Z" glyph-name="hungarumlaut.cap" horiz-adv-x="500" unicode="&#58411;" /><glyph d="M43 395H300L288 305H31Z" glyph-name="hyphen" horiz-adv-x="337" unicode="-" /><glyph d="M48 435H305L293 345H36Z" glyph-name="hyphen.cap" horiz-adv-x="320" unicode="&#58498;" /><glyph d="M209 640H95L110 754H224ZM87 530H187L118 0H18Z" glyph-name="i" horiz-adv-x="234" unicode="i" /><glyph d="M87 530H187L118 0H18ZM320 780 198 607H96L210 780Z" glyph-name="iacute" horiz-adv-x="234" unicode="&#237;" /><glyph d="M87 530H187L118 0H18ZM152 595Q106 595 74 609Q42 623 23.5 647.5Q5 672 -0.5 706Q-6 740 0 780H75Q68 730 87 702.5Q106 675 152 675Q250 675 261 780H340Q335 738 322.5 703.5Q310 669 287.5 645Q265 621 231.5 608Q198 595 152 595Z" glyph-name="ibreve" horiz-adv-x="234" unicode="&#301;" /><glyph d="M87 530H187L118 0H18ZM-32 607 123 780H217L326 607H234L163 708L64 607Z" glyph-name="icircumflex" horiz-adv-x="234" unicode="&#238;" /><glyph d="M87 530H187L118 0H18ZM300 640H186L201 754H315ZM117 640H3L18 754H132Z" glyph-name="idieresis" horiz-adv-x="234" unicode="&#239;" /><glyph d="M209 640H95L110 754H224ZM87 530H187L118 0H18Z" glyph-name="idotaccent" horiz-adv-x="234" unicode="&#59269;" /><glyph d="M87 530H187L118 0H18ZM130 780 198 607H96L20 780Z" glyph-name="igrave" horiz-adv-x="234" unicode="&#236;" /><glyph d="M270 530H370L295 -39Q289 -88 271.5 -121Q254 -154 228.5 -174.5Q203 -195 170 -203.5Q137 -212 100 -212Q67 -212 48.5 -207Q30 -202 26 -200L37 -116Q43 -118 60 -121Q77 -124 95 -124Q115 -124 132 -120.5Q149 -117 162 -106.5Q175 -96 183.5 -78Q192 -60 196 -31ZM392 640H278L293 754H407ZM209 640H95L110 754H224ZM87 530H187L118 0H18Z" glyph-name="ij" horiz-adv-x="417" unicode="&#307;" /><glyph d="M87 530H187L118 0H18ZM37 742H294L282 652H25Z" glyph-name="imacron" horiz-adv-x="234" unicode="&#299;" /><glyph d="M190 203 232 694Q194 676 173.5 631.5Q153 587 145 509H42L43 516Q52 580 67 631Q82 682 108.5 718Q135 754 175 773Q215 792 275 792Q331 792 369.5 780Q408 768 431.5 745.5Q455 723 465.5 690Q476 657 476 615Q476 563 461 526Q446 489 423 459.5Q400 430 372 404.5Q344 379 318.5 350.5Q293 322 272.5 287Q252 252 244 203ZM371 608Q371 617 369.5 629Q368 641 363.5 652.5Q359 664 350.5 674.5Q342 685 327 691L277 409Q291 434 307.5 457.5Q324 481 338 504Q352 527 361.5 552.5Q371 578 371 608ZM241 0H127L142 114H256Z" glyph-name="interrobang" horiz-adv-x="470" unicode="&#8253;" /><glyph d="M168 146Q156 126 140 105.5Q124 85 109 62Q94 39 84 13.5Q74 -12 74 -40Q74 -69 84.5 -87Q95 -105 119 -114ZM200 530H314L299 416H185ZM403 60 402 53Q393 -8 377 -57Q361 -106 333.5 -140.5Q306 -175 265 -193.5Q224 -212 165 -212Q112 -212 75 -200Q38 -188 14.5 -167.5Q-9 -147 -19.5 -118.5Q-30 -90 -30 -57Q-30 -8 -15.5 27.5Q-1 63 21.5 91.5Q44 120 71 144.5Q98 169 123 195Q148 221 168 252.5Q188 284 196 327H251L215 -112Q253 -95 272.5 -52Q292 -9 301 60Z" glyph-name="interrobangdown" horiz-adv-x="470" unicode="&#59701;" /><glyph d="M284 577 242 86Q280 104 300.5 148.5Q321 193 329 271H432L431 264Q422 200 407 149Q392 98 365.5 62Q339 26 299 7Q259 -12 199 -12Q143 -12 104.5 0Q66 12 42.5 34.5Q19 57 8.5 90Q-2 123 -2 165Q-2 217 13 254Q28 291 51 320.5Q74 350 102 375.5Q130 401 155.5 429.5Q181 458 201.5 493Q222 528 230 577ZM103 172Q103 163 104 151Q105 139 109.5 127.5Q114 116 123 105.5Q132 95 147 89L197 371Q183 345 166.5 322Q150 299 136 276Q122 253 112.5 227.5Q103 202 103 172ZM233 780H347L332 666H218Z" glyph-name="interrobangdown.cap" horiz-adv-x="470" unicode="&#59803;" /><glyph d="M298 792Q344 792 376 778Q408 764 426.5 739.5Q445 715 450.5 681Q456 647 450 607H375Q382 657 363 684.5Q344 712 298 712Q200 712 189 607H110Q115 649 127.5 683.5Q140 718 162.5 742Q185 766 218.5 779Q252 792 298 792Z" glyph-name="invertedbreve" horiz-adv-x="500" unicode="&#58385;" /><glyph d="M324 963Q369 963 399 953.5Q429 944 446 927.5Q463 911 468.5 888.5Q474 866 470 840H397Q401 868 384 884Q367 900 322 900Q276 900 254.5 885.5Q233 871 229 840H152Q156 866 167.5 888.5Q179 911 199.5 927.5Q220 944 251 953.5Q282 963 324 963Z" glyph-name="invertedbreve.cap" horiz-adv-x="500" unicode="&#58407;" /><glyph d="M209 640H95L110 754H224ZM118 0Q103 -6 87.5 -14.5Q72 -23 59.5 -34.5Q47 -46 38.5 -61Q30 -76 30 -95Q30 -112 40.5 -124Q51 -136 71 -136Q91 -136 106.5 -132Q122 -128 132 -123L148 -191Q131 -201 106.5 -207Q82 -213 56 -213Q2 -213 -26 -187Q-54 -161 -54 -115Q-54 -71 -33 -40Q-12 -9 19 13L87 530H187Z" glyph-name="iogonek" horiz-adv-x="234" unicode="&#303;" /><glyph d="M87 530H187L118 0H18ZM339 755Q336 694 305.5 663Q275 632 231 632Q206 632 187 640.5Q168 649 152 659Q136 669 121.5 677.5Q107 686 92 686Q78 686 66 677.5Q54 669 51 645H-20Q-17 706 13.5 737Q44 768 88 768Q113 768 132 759.5Q151 751 167 741Q183 731 197.5 722.5Q212 714 227 714Q241 714 253 722.5Q265 731 268 755Z" glyph-name="itilde" horiz-adv-x="234" unicode="&#297;" /><glyph d="M209 640H95L110 754H224ZM87 530H187L112 -39Q106 -88 88.5 -121Q71 -154 45.5 -174.5Q20 -195 -13 -203.5Q-46 -212 -83 -212Q-116 -212 -134.5 -207Q-153 -202 -157 -200L-146 -116Q-140 -118 -123 -121Q-106 -124 -88 -124Q-68 -124 -51 -120.5Q-34 -117 -21 -106.5Q-8 -96 0.5 -78Q9 -60 13 -31Z" glyph-name="j" horiz-adv-x="234" unicode="j" /><glyph d="M87 530H187L112 -39Q106 -88 88.5 -121Q71 -154 45.5 -174.5Q20 -195 -13 -203.5Q-46 -212 -83 -212Q-116 -212 -134.5 -207Q-153 -202 -157 -200L-146 -116Q-140 -118 -123 -121Q-106 -124 -88 -124Q-68 -124 -51 -120.5Q-34 -117 -21 -106.5Q-8 -96 0.5 -78Q9 -60 13 -31ZM-32 607 123 780H217L326 607H234L163 708L64 607Z" glyph-name="jcircumflex" horiz-adv-x="234" unicode="&#309;" /><glyph d="M116 800H216L149 290L393 530H518L312 330L449 0H339L236 256L130 153L111 0H11Z" glyph-name="k" horiz-adv-x="522" unicode="k" /><glyph d="M256 -105Q241 -219 121 -219L127 -172Q156 -172 177 -162Q198 -152 203 -129H150L160 -51H263ZM116 800H216L149 290L393 530H518L312 330L449 0H339L236 256L130 153L111 0H11Z" glyph-name="kcommaaccent" horiz-adv-x="522" unicode="&#311;" /><glyph d="M181 530 149 290 393 530H518L312 330L449 0H339L236 256L130 153L111 0H11L81 530Z" glyph-name="kgreenlandic" horiz-adv-x="522" unicode="&#312;" /><glyph d="M123 800H223L118 0H18Z" glyph-name="l" horiz-adv-x="234" unicode="l" /><glyph d="M307 950 229 840H127L200 950ZM123 800H223L118 0H18Z" glyph-name="lacute" horiz-adv-x="234" unicode="&#314;" /><glyph d="M361 800 316 607H264L290 800ZM123 800H223L118 0H18Z" glyph-name="lcaron" horiz-adv-x="234" unicode="&#318;" /><glyph d="M106 -105Q91 -219 -29 -219L-23 -172Q6 -172 27 -162Q48 -152 53 -129H0L10 -51H113ZM123 800H223L118 0H18Z" glyph-name="lcommaaccent" horiz-adv-x="234" unicode="&#316;" /><glyph d="M348 293H234L249 407H363ZM123 800H223L118 0H18Z" glyph-name="ldot" horiz-adv-x="371" unicode="&#320;" /><glyph d="M592 665 578 559 156 386 533 213 520 115 40 340 53 440Z" glyph-name="less" horiz-adv-x="600" unicode="&lt;" /><glyph d="M518 103 31 271 40 339 527 171ZM201 454 548 336 536 239 49 408 62 508 593 677 579 572Z" glyph-name="lessequal" horiz-adv-x="600" unicode="&#8804;" /><glyph d="M70 564H578L531 206H439L474 472H58Z" glyph-name="logicalnot" horiz-adv-x="600" unicode="&#172;" /><glyph d="M9 90H237L225 0H-3Z" glyph-name="lowline" horiz-adv-x="320" unicode="&#58641;" /><glyph d="M23 329 124 395 177 800H277L233 465L351 542L339 451L221 374L172 0H72L112 304L11 238Z" glyph-name="lslash" horiz-adv-x="348" unicode="&#322;" /><glyph d="M619 0 666 358Q673 407 652 430.5Q631 454 588 454Q567 454 548 446.5Q529 439 513.5 428Q498 417 486 404.5Q474 392 466 381L416 0H316L363 358Q370 407 349 430.5Q328 454 285 454Q264 454 245 446.5Q226 439 210.5 428Q195 417 183 404.5Q171 392 163 381L113 0H13L63 380L75 530H161V459Q187 493 229.5 517.5Q272 542 328 542Q386 542 418 518Q450 494 461 456Q489 492 531.5 517Q574 542 631 542Q706 542 742.5 499Q779 456 769 381L719 0Z" glyph-name="m" horiz-adv-x="825" unicode="m" /><glyph d="M170 742H427L415 652H158Z" glyph-name="macron" horiz-adv-x="500" unicode="&#175;" /><glyph d="M197 930H451L442 860H188Z" glyph-name="macron.cap" horiz-adv-x="500" unicode="&#58405;" /><glyph d="M507 640H393L408 754H522ZM619 0 666 358Q673 407 652 430.5Q631 454 588 454Q567 454 548 446.5Q529 439 513.5 428Q498 417 486 404.5Q474 392 466 381L416 0H316L363 358Q370 407 349 430.5Q328 454 285 454Q264 454 245 446.5Q226 439 210.5 428Q195 417 183 404.5Q171 392 163 381L113 0H13L63 380L75 530H161V459Q187 493 229.5 517.5Q272 542 328 542Q386 542 418 518Q450 494 461 456Q489 492 531.5 517Q574 542 631 542Q706 542 742.5 499Q779 456 769 381L719 0Z" glyph-name="mdotaccent" horiz-adv-x="825" unicode="&#7745;" /><glyph d="M58 265Q58 322 80 372.5Q102 423 139.5 460.5Q177 498 227.5 520Q278 542 335 542Q392 542 442.5 520Q493 498 530.5 460.5Q568 423 590 372.5Q612 322 612 265Q612 208 590 157.5Q568 107 530.5 69.5Q493 32 442.5 10Q392 -12 335 -12Q278 -12 227.5 10Q177 32 139.5 69.5Q102 107 80 157.5Q58 208 58 265Z" glyph-name="mediumblackcircle" horiz-adv-x="670" unicode="&#9899;" /><glyph d="M149 265Q149 226 163.5 192.5Q178 159 203.5 133.5Q229 108 262.5 93.5Q296 79 335 79Q374 79 407.5 93.5Q441 108 466.5 133.5Q492 159 506.5 192.5Q521 226 521 265Q521 304 506.5 337.5Q492 371 466.5 396.5Q441 422 407.5 436.5Q374 451 335 451Q296 451 262.5 436.5Q229 422 203.5 396.5Q178 371 163.5 337.5Q149 304 149 265ZM58 265Q58 322 80 372.5Q102 423 139.5 460.5Q177 498 227.5 520Q278 542 335 542Q392 542 442.5 520Q493 498 530.5 460.5Q568 423 590 372.5Q612 322 612 265Q612 208 590 157.5Q568 107 530.5 69.5Q493 32 442.5 10Q392 -12 335 -12Q278 -12 227.5 10Q177 32 139.5 69.5Q102 107 80 157.5Q58 208 58 265Z" glyph-name="mediumwhitecircle" horiz-adv-x="670" unicode="&#9898;" /><glyph d="M53 436H561L549 344H41Z" glyph-name="minus" horiz-adv-x="600" unicode="&#8722;" /><glyph d="M-23 32H235L225 -42H-33Z" glyph-name="minus.inf" horiz-adv-x="300" unicode="&#58748;" /><glyph d="M65 123 8 189 235 390 61 591 136 657 310 456 538 657 595 591 368 390 542 189 467 123 293 324Z" glyph-name="multiply" horiz-adv-x="600" unicode="&#215;" /><glyph d="M340 0 386 350Q392 397 371 425.5Q350 454 298 454Q272 454 251 446.5Q230 439 213 428Q196 417 183.5 404.5Q171 392 163 381L113 0H13L63 380L75 530H161V459Q190 496 234.5 519Q279 542 340 542Q383 542 413 527.5Q443 513 461 488.5Q479 464 485.5 432Q492 400 488 365L440 0Z" glyph-name="n" horiz-adv-x="545" unicode="n" /><glyph d="M340 0 386 350Q392 397 371 425.5Q350 454 298 454Q272 454 251 446.5Q230 439 213 428Q196 417 183.5 404.5Q171 392 163 381L113 0H13L63 380L75 530H161V459Q190 496 234.5 519Q279 542 340 542Q383 542 413 527.5Q443 513 461 488.5Q479 464 485.5 432Q492 400 488 365L440 0ZM479 780 357 607H255L369 780Z" glyph-name="nacute" horiz-adv-x="545" unicode="&#324;" /><glyph d="M340 0 386 350Q392 397 371 425.5Q350 454 298 454Q272 454 251 446.5Q230 439 213 428Q196 417 183.5 404.5Q171 392 163 381L113 0H13L63 380L75 530H161V459Q190 496 234.5 519Q279 542 340 542Q383 542 413 527.5Q443 513 461 488.5Q479 464 485.5 432Q492 400 488 365L440 0ZM508 780 353 607H259L150 780H242L313 679L412 780Z" glyph-name="ncaron" horiz-adv-x="545" unicode="&#328;" /><glyph d="M340 0 386 350Q392 397 371 425.5Q350 454 298 454Q272 454 251 446.5Q230 439 213 428Q196 417 183.5 404.5Q171 392 163 381L113 0H13L63 380L75 530H161V459Q190 496 234.5 519Q279 542 340 542Q383 542 413 527.5Q443 513 461 488.5Q479 464 485.5 432Q492 400 488 365L440 0ZM264 -105Q249 -219 129 -219L135 -172Q164 -172 185 -162Q206 -152 211 -129H158L168 -51H271Z" glyph-name="ncommaaccent" horiz-adv-x="545" unicode="&#326;" /><glyph d="M300 381Q349 381 390 404Q431 427 459 473Q464 491 467 509Q470 527 470 553Q470 591 459.5 618.5Q449 646 431 664Q413 682 388.5 691Q364 700 336 700H330Q263 700 220.5 660Q178 620 169 546L168 538Q163 500 170 471Q177 442 194 422Q211 402 236.5 391.5Q262 381 294 381ZM42 81Q79 81 118.5 86.5Q158 92 197 105.5Q236 119 273 141.5Q310 164 343 198Q376 232 399 274.5Q422 317 436 361Q410 330 367.5 309.5Q325 289 273 289Q227 289 185.5 304Q144 319 114 348.5Q84 378 69.5 423Q55 468 63 528L66 550Q83 671 152.5 731.5Q222 792 335 792Q396 792 443.5 771Q491 750 521 711.5Q551 673 563.5 620Q576 567 567 503L564 481Q558 434 547.5 390Q537 346 520 303Q503 260 476.5 218.5Q450 177 412 137Q372 94 326 65.5Q280 37 230.5 19.5Q181 2 130 -5Q79 -12 29 -12Z" glyph-name="nine" horiz-adv-x="600" unicode="9" /><glyph d="M158 43Q160 48 161 56Q162 64 162 71Q162 100 149 113Q136 126 119 126H113Q90 126 77 113.5Q64 101 60 72L59 64Q56 39 68.5 26Q81 13 100 13H105Q119 13 133 20.5Q147 28 158 43ZM-28 -136Q15 -136 45.5 -127Q76 -118 102 -95Q114 -84 124 -67.5Q134 -51 139 -34Q114 -57 71 -57Q23 -57 -2.5 -24.5Q-28 8 -21 62L-20 70Q-12 128 21 162Q54 196 116 196Q151 196 176 185Q201 174 216 154Q231 134 236 106.5Q241 79 237 47L236 39Q234 19 228.5 -4.5Q223 -28 214 -52.5Q205 -77 190.5 -100.5Q176 -124 156 -143Q116 -181 69 -194Q22 -207 -37 -207Z" glyph-name="nine.inf" horiz-adv-x="300" unicode="&#58746;" /><glyph d="M870 146Q868 141 867 133Q866 125 866 118Q866 89 879 76Q892 63 909 63H915Q938 63 951 75.5Q964 88 968 117L969 125Q972 150 959.5 163Q947 176 928 176H923Q909 176 895 168.5Q881 161 870 146ZM1056 325Q1013 325 982.5 316Q952 307 926 284Q914 273 904 256.5Q894 240 889 223Q914 246 957 246Q1005 246 1030.5 213.5Q1056 181 1049 127L1048 119Q1040 61 1007 27Q974 -7 912 -7Q877 -7 852 4Q827 15 812 35Q797 55 792 82.5Q787 110 791 142L792 150Q794 169 799.5 193Q805 217 814 241.5Q823 266 837.5 289.5Q852 313 872 332Q912 370 959 383Q1006 396 1065 396ZM482 0 491 70H576L605 291L538 250L506 308L639 390H698L656 70H742L733 0ZM12 0 690 780H792L114 0ZM234 633Q236 638 237 646Q238 654 238 661Q238 690 225 703Q212 716 195 716H189Q166 716 153 703.5Q140 691 136 662L135 654Q132 629 144.5 616Q157 603 176 603H181Q195 603 209 610.5Q223 618 234 633ZM48 454Q91 454 121.5 463Q152 472 178 495Q190 506 200 522.5Q210 539 215 556Q190 533 147 533Q99 533 73.5 565.5Q48 598 55 652L56 660Q64 718 97 752Q130 786 192 786Q227 786 252 775Q277 764 292 744Q307 724 312 696.5Q317 669 313 637L312 629Q310 609 304.5 585.5Q299 562 290 537.5Q281 513 266.5 489.5Q252 466 232 447Q192 409 145 396Q98 383 39 383Z" glyph-name="ninesixteenths" horiz-adv-x="1100" unicode="&#61977;" /><glyph glyph-name="nonbreakingspace" horiz-adv-x="200" unicode="&#160;" /><glyph d="M67 540H359L440 657H529L448 540H575L563 448H385L305 332H547L535 240H242L162 123H73L153 240H27L39 332H216L296 448H55Z" glyph-name="notequal" horiz-adv-x="600" unicode="&#8800;" /><glyph d="M340 0 386 350Q392 397 371 425.5Q350 454 298 454Q272 454 251 446.5Q230 439 213 428Q196 417 183.5 404.5Q171 392 163 381L113 0H13L63 380L75 530H161V459Q190 496 234.5 519Q279 542 340 542Q383 542 413 527.5Q443 513 461 488.5Q479 464 485.5 432Q492 400 488 365L440 0ZM498 755Q495 694 464.5 663Q434 632 390 632Q365 632 346 640.5Q327 649 311 659Q295 669 280.5 677.5Q266 686 251 686Q237 686 225 677.5Q213 669 210 645H139Q142 706 172.5 737Q203 768 247 768Q272 768 291 759.5Q310 751 326 741Q342 731 356.5 722.5Q371 714 386 714Q400 714 412 722.5Q424 731 427 755Z" glyph-name="ntilde" horiz-adv-x="545" unicode="&#241;" /><glyph d="M212 311H336L390 469H266ZM297 560H421L496 780H587L512 560H594L582 469H481L427 311H508L496 220H396L322 0H231L305 220H181L107 0H16L90 220H9L21 311H121L175 469H95L107 560H206L281 780H372Z" glyph-name="numbersign" horiz-adv-x="600" unicode="#" /><glyph d="M997 595Q1005 650 988.5 682.5Q972 715 924 715Q881 715 855.5 684.5Q830 654 822 597L819 575Q811 520 827.5 487.5Q844 455 892 455Q935 455 960.5 485.5Q986 516 994 573ZM699 279H1036L1026 202H689ZM1083 573Q1070 481 1020 429.5Q970 378 889 378Q839 378 806 393Q773 408 754 434Q735 460 729.5 496.5Q724 533 730 575L733 597Q746 689 796 740.5Q846 792 927 792Q977 792 1010 777Q1043 762 1062 736Q1081 710 1086.5 673.5Q1092 637 1086 595ZM551 0H442L193 596L174 423L119 0H18L120 780H229L478 184L497 357L552 780H653Z" glyph-name="numero" horiz-adv-x="1094" unicode="&#8470;" /><glyph d="M286 542Q347 542 390 521Q433 500 458.5 464Q484 428 492.5 379Q501 330 494 274L491 252Q483 195 464 147Q445 99 413.5 63.5Q382 28 337.5 8Q293 -12 234 -12Q173 -12 130 9Q87 30 61.5 66Q36 102 27 151Q18 200 26 256L29 278Q37 335 56 383Q75 431 106.5 466.5Q138 502 182.5 522Q227 542 286 542ZM236 76Q302 76 340.5 123Q379 170 390 252L393 274Q404 357 378.5 405.5Q353 454 284 454Q218 454 179.5 407Q141 360 130 278L127 256Q116 173 141.5 124.5Q167 76 236 76Z" glyph-name="o" horiz-adv-x="548" unicode="o" /><glyph d="M286 542Q347 542 390 521Q433 500 458.5 464Q484 428 492.5 379Q501 330 494 274L491 252Q483 195 464 147Q445 99 413.5 63.5Q382 28 337.5 8Q293 -12 234 -12Q173 -12 130 9Q87 30 61.5 66Q36 102 27 151Q18 200 26 256L29 278Q37 335 56 383Q75 431 106.5 466.5Q138 502 182.5 522Q227 542 286 542ZM236 76Q302 76 340.5 123Q379 170 390 252L393 274Q404 357 378.5 405.5Q353 454 284 454Q218 454 179.5 407Q141 360 130 278L127 256Q116 173 141.5 124.5Q167 76 236 76ZM477 780 355 607H253L367 780Z" glyph-name="oacute" horiz-adv-x="548" unicode="&#243;" /><glyph d="M286 542Q347 542 390 521Q433 500 458.5 464Q484 428 492.5 379Q501 330 494 274L491 252Q483 195 464 147Q445 99 413.5 63.5Q382 28 337.5 8Q293 -12 234 -12Q173 -12 130 9Q87 30 61.5 66Q36 102 27 151Q18 200 26 256L29 278Q37 335 56 383Q75 431 106.5 466.5Q138 502 182.5 522Q227 542 286 542ZM236 76Q302 76 340.5 123Q379 170 390 252L393 274Q404 357 378.5 405.5Q353 454 284 454Q218 454 179.5 407Q141 360 130 278L127 256Q116 173 141.5 124.5Q167 76 236 76ZM309 595Q263 595 231 609Q199 623 180.5 647.5Q162 672 156.5 706Q151 740 157 780H232Q225 730 244 702.5Q263 675 309 675Q407 675 418 780H497Q492 738 479.5 703.5Q467 669 444.5 645Q422 621 388.5 608Q355 595 309 595Z" glyph-name="obreve" horiz-adv-x="548" unicode="&#335;" /><glyph d="M286 542Q347 542 390 521Q433 500 458.5 464Q484 428 492.5 379Q501 330 494 274L491 252Q483 195 464 147Q445 99 413.5 63.5Q382 28 337.5 8Q293 -12 234 -12Q173 -12 130 9Q87 30 61.5 66Q36 102 27 151Q18 200 26 256L29 278Q37 335 56 383Q75 431 106.5 466.5Q138 502 182.5 522Q227 542 286 542ZM236 76Q302 76 340.5 123Q379 170 390 252L393 274Q404 357 378.5 405.5Q353 454 284 454Q218 454 179.5 407Q141 360 130 278L127 256Q116 173 141.5 124.5Q167 76 236 76ZM125 607 280 780H374L483 607H391L320 708L221 607Z" glyph-name="ocircumflex" horiz-adv-x="548" unicode="&#244;" /><glyph d="M286 542Q347 542 390 521Q433 500 458.5 464Q484 428 492.5 379Q501 330 494 274L491 252Q483 195 464 147Q445 99 413.5 63.5Q382 28 337.5 8Q293 -12 234 -12Q173 -12 130 9Q87 30 61.5 66Q36 102 27 151Q18 200 26 256L29 278Q37 335 56 383Q75 431 106.5 466.5Q138 502 182.5 522Q227 542 286 542ZM236 76Q302 76 340.5 123Q379 170 390 252L393 274Q404 357 378.5 405.5Q353 454 284 454Q218 454 179.5 407Q141 360 130 278L127 256Q116 173 141.5 124.5Q167 76 236 76ZM457 640H343L358 754H472ZM274 640H160L175 754H289Z" glyph-name="odieresis" horiz-adv-x="548" unicode="&#246;" /><glyph d="M647 460Q586 460 545.5 418Q505 376 495 303H757Q766 378 739.5 419Q713 460 647 460ZM236 76Q302 76 340.5 123Q379 170 390 252L393 274Q404 357 378.5 405.5Q353 454 284 454Q218 454 179.5 407Q141 360 130 278L127 256Q116 173 141.5 124.5Q167 76 236 76ZM485 227Q478 151 507.5 110.5Q537 70 609 70Q676 70 707.5 100Q739 130 744 170H840L839 163Q834 128 817.5 96.5Q801 65 772 41Q743 17 702 2.5Q661 -12 607 -12Q529 -12 484.5 15Q440 42 420 89Q392 42 347.5 15Q303 -12 234 -12Q173 -12 130 9Q87 30 61.5 66Q36 102 27 151Q18 200 26 256L29 278Q37 335 56 383Q75 431 106.5 466.5Q138 502 182.5 522Q227 542 286 542Q357 542 399 514.5Q441 487 460 440Q489 488 534.5 515Q580 542 649 542Q710 542 753 521.5Q796 501 821 464.5Q846 428 854 378.5Q862 329 854 271L848 227Z" glyph-name="oe" horiz-adv-x="911" unicode="&#339;" /><glyph d="M237 0Q222 -6 206.5 -14.5Q191 -23 178.5 -34.5Q166 -46 157.5 -61Q149 -76 149 -95Q149 -112 159.5 -124Q170 -136 190 -136Q210 -136 225.5 -132Q241 -128 251 -123L267 -191Q250 -201 225.5 -207Q201 -213 175 -213Q121 -213 93 -187Q65 -161 65 -115Q65 -81 78.5 -54Q92 -27 114 -7Q136 13 163.5 27.5Q191 42 219 51Z" glyph-name="ogonek" horiz-adv-x="602" unicode="&#731;" /><glyph d="M286 542Q347 542 390 521Q433 500 458.5 464Q484 428 492.5 379Q501 330 494 274L491 252Q483 195 464 147Q445 99 413.5 63.5Q382 28 337.5 8Q293 -12 234 -12Q173 -12 130 9Q87 30 61.5 66Q36 102 27 151Q18 200 26 256L29 278Q37 335 56 383Q75 431 106.5 466.5Q138 502 182.5 522Q227 542 286 542ZM236 76Q302 76 340.5 123Q379 170 390 252L393 274Q404 357 378.5 405.5Q353 454 284 454Q218 454 179.5 407Q141 360 130 278L127 256Q116 173 141.5 124.5Q167 76 236 76ZM287 780 355 607H253L177 780Z" glyph-name="ograve" horiz-adv-x="548" unicode="&#242;" /><glyph d="M286 542Q347 542 390 521Q433 500 458.5 464Q484 428 492.5 379Q501 330 494 274L491 252Q483 195 464 147Q445 99 413.5 63.5Q382 28 337.5 8Q293 -12 234 -12Q173 -12 130 9Q87 30 61.5 66Q36 102 27 151Q18 200 26 256L29 278Q37 335 56 383Q75 431 106.5 466.5Q138 502 182.5 522Q227 542 286 542ZM236 76Q302 76 340.5 123Q379 170 390 252L393 274Q404 357 378.5 405.5Q353 454 284 454Q218 454 179.5 407Q141 360 130 278L127 256Q116 173 141.5 124.5Q167 76 236 76ZM536 780 414 607H329L443 780ZM388 780 278 607H193L294 780Z" glyph-name="ohungarumlaut" horiz-adv-x="548" unicode="&#337;" /><glyph d="M286 542Q347 542 390 521Q433 500 458.5 464Q484 428 492.5 379Q501 330 494 274L491 252Q483 195 464 147Q445 99 413.5 63.5Q382 28 337.5 8Q293 -12 234 -12Q173 -12 130 9Q87 30 61.5 66Q36 102 27 151Q18 200 26 256L29 278Q37 335 56 383Q75 431 106.5 466.5Q138 502 182.5 522Q227 542 286 542ZM236 76Q302 76 340.5 123Q379 170 390 252L393 274Q404 357 378.5 405.5Q353 454 284 454Q218 454 179.5 407Q141 360 130 278L127 256Q116 173 141.5 124.5Q167 76 236 76ZM194 742H451L439 652H182Z" glyph-name="omacron" horiz-adv-x="548" unicode="&#333;" /><glyph d="M17 0 29 92H222L295 648L120 539L77 617L344 783H415L324 92H516L504 0Z" glyph-name="one" horiz-adv-x="600" unicode="1" /><glyph d="M-44 -200 -35 -130H50L79 91L12 50L-20 108L113 190H172L130 -130H216L207 -200Z" glyph-name="one.inf" horiz-adv-x="300" unicode="&#58738;" /><glyph d="M738 70 729 0H473L480 50L651 216Q668 233 675 244Q682 255 684 269L685 277Q688 303 677.5 314.5Q667 326 647 326H641Q618 326 604 312Q590 298 587 260H507L508 268Q516 331 548.5 363.5Q581 396 644 396Q680 396 705 386Q730 376 744 360.5Q758 345 763.5 324.5Q769 304 766 283L765 275Q761 245 748.5 225Q736 205 709 179L595 69L631 70ZM12 0 690 780H792L114 0ZM32 390 41 460H126L155 681L88 640L56 698L189 780H248L206 460H292L283 390Z" glyph-name="onehalf" horiz-adv-x="800" unicode="&#189;" /><glyph d="M568 154 594 155H636L646 233L650 262ZM615 0 627 85H475L483 143L671 390H747L716 155H758L749 85H707L695 0ZM12 0 690 780H792L114 0ZM32 390 41 460H126L155 681L88 640L56 698L189 780H248L206 460H292L283 390Z" glyph-name="onequarter" horiz-adv-x="800" unicode="&#188;" /><glyph d="M870 146Q868 141 867 133Q866 125 866 118Q866 89 879 76Q892 63 909 63H915Q938 63 951 75.5Q964 88 968 117L969 125Q972 150 959.5 163Q947 176 928 176H923Q909 176 895 168.5Q881 161 870 146ZM1056 325Q1013 325 982.5 316Q952 307 926 284Q914 273 904 256.5Q894 240 889 223Q914 246 957 246Q1005 246 1030.5 213.5Q1056 181 1049 127L1048 119Q1040 61 1007 27Q974 -7 912 -7Q877 -7 852 4Q827 15 812 35Q797 55 792 82.5Q787 110 791 142L792 150Q794 169 799.5 193Q805 217 814 241.5Q823 266 837.5 289.5Q852 313 872 332Q912 370 959 383Q1006 396 1065 396ZM482 0 491 70H576L605 291L538 250L506 308L639 390H698L656 70H742L733 0ZM12 0 690 780H792L114 0ZM32 390 41 460H126L155 681L88 640L56 698L189 780H248L206 460H292L283 390Z" glyph-name="onesixteenth" horiz-adv-x="1100" unicode="&#61973;" /><glyph d="M32 390 41 460H126L155 681L88 640L56 698L189 780H248L206 460H292L283 390Z" glyph-name="onesuperior" horiz-adv-x="300" unicode="&#185;" /><glyph d="M31 305 43 395H296L284 305Z" glyph-name="onethirdemdash" horiz-adv-x="333" unicode="&#58481;" /><glyph d="M41 345 53 435H301L289 345Z" glyph-name="onethirdemdash.cap" horiz-adv-x="333" unicode="&#58499;" /><glyph d="M193 451Q231 451 255.5 466Q280 481 291 495L303 585L214 571Q147 560 141 511L140 503Q138 483 149.5 467Q161 451 193 451ZM22 202 32 279H355L345 202ZM293 437Q273 413 240.5 395.5Q208 378 163 378Q129 378 106 387Q83 396 69.5 411.5Q56 427 51.5 447.5Q47 468 50 492L51 500Q55 532 69 553.5Q83 575 103 588.5Q123 602 148.5 609.5Q174 617 203 622L310 639L311 646Q316 683 304.5 703Q293 723 252 723Q230 723 215.5 717Q201 711 191.5 701.5Q182 692 177 679Q172 666 170 652H86L87 659Q91 685 101 709Q111 733 130.5 751.5Q150 770 179.5 781Q209 792 252 792Q301 792 331.5 781.5Q362 771 378.5 752Q395 733 399 705Q403 677 399 643L380 499L371 388H293Z" glyph-name="ordfeminine" horiz-adv-x="403" unicode="&#170;" /><glyph d="M330 595Q338 650 321.5 682.5Q305 715 257 715Q214 715 188.5 684.5Q163 654 155 597L152 575Q144 520 160.5 487.5Q177 455 225 455Q268 455 293.5 485.5Q319 516 327 573ZM32 279H369L359 202H22ZM416 573Q403 481 353 429.5Q303 378 222 378Q172 378 139 393Q106 408 87 434Q68 460 62.5 496.5Q57 533 63 575L66 597Q79 689 129 740.5Q179 792 260 792Q310 792 343 777Q376 762 395 736Q414 710 419.5 673.5Q425 637 419 595Z" glyph-name="ordmasculine" horiz-adv-x="427" unicode="&#186;" /><glyph d="M236 76Q302 76 340.5 123Q379 170 390 252L393 274Q397 303 396.5 328Q396 353 391 373L157 105Q184 76 236 76ZM127 256Q123 227 123.5 202Q124 177 129 157L363 425Q336 454 284 454Q218 454 179.5 407Q141 360 130 278ZM-7 0 57 73Q11 147 26 256L29 278Q37 335 56 383Q75 431 106.5 466.5Q138 502 182.5 522Q227 542 286 542Q331 542 365.5 530.5Q400 519 426 498L454 530H527L463 457Q509 383 494 274L491 252Q483 195 464 147Q445 99 413.5 63.5Q382 28 337.5 8Q293 -12 234 -12Q189 -12 154.5 -0.5Q120 11 94 32L66 0Z" glyph-name="oslash" horiz-adv-x="548" unicode="&#248;" /><glyph d="M286 542Q347 542 390 521Q433 500 458.5 464Q484 428 492.5 379Q501 330 494 274L491 252Q483 195 464 147Q445 99 413.5 63.5Q382 28 337.5 8Q293 -12 234 -12Q173 -12 130 9Q87 30 61.5 66Q36 102 27 151Q18 200 26 256L29 278Q37 335 56 383Q75 431 106.5 466.5Q138 502 182.5 522Q227 542 286 542ZM236 76Q302 76 340.5 123Q379 170 390 252L393 274Q404 357 378.5 405.5Q353 454 284 454Q218 454 179.5 407Q141 360 130 278L127 256Q116 173 141.5 124.5Q167 76 236 76ZM496 755Q493 694 462.5 663Q432 632 388 632Q363 632 344 640.5Q325 649 309 659Q293 669 278.5 677.5Q264 686 249 686Q235 686 223 677.5Q211 669 208 645H137Q140 706 170.5 737Q201 768 245 768Q270 768 289 759.5Q308 751 324 741Q340 731 354.5 722.5Q369 714 384 714Q398 714 410 722.5Q422 731 425 755Z" glyph-name="otilde" horiz-adv-x="548" unicode="&#245;" /><glyph d="M132 150Q137 139 146.5 126Q156 113 170 102Q184 91 203.5 83.5Q223 76 249 76Q306 76 343 123Q380 170 391 252L394 274Q405 355 383 404.5Q361 454 298 454Q271 454 250 447.5Q229 441 212 430.5Q195 420 183 407Q171 394 162 381ZM253 -12Q201 -12 167.5 9Q134 30 120 58L85 -200H-15L62 380L74 530H161L160 459Q180 494 223 518Q266 542 318 542Q376 542 413.5 521Q451 500 471.5 464Q492 428 497 379Q502 330 495 274L492 252Q475 126 417 57Q359 -12 253 -12Z" glyph-name="p" horiz-adv-x="550" unicode="p" /><glyph d="M159 542Q154 503 160.5 476.5Q167 450 181 433.5Q195 417 214 408.5Q233 400 253 397L291 687Q270 684 248.5 676.5Q227 669 209 653.5Q191 638 178 613Q165 588 160 550ZM401 688H355L265 0H201L241 306Q211 308 174.5 318.5Q138 329 107.5 354Q77 379 60 422.5Q43 466 52 534L55 556Q64 622 90.5 665Q117 708 153.5 733.5Q190 759 232 769.5Q274 780 315 780H517L415 0H311Z" glyph-name="paragraph" horiz-adv-x="526" unicode="&#182;" /><glyph d="M46 371Q58 461 80 533.5Q102 606 129.5 663.5Q157 721 189 764.5Q221 808 254 840H370Q331 797 295.5 748.5Q260 700 231 643Q202 586 180.5 518.5Q159 451 148 371L145 349Q134 269 140 198.5Q146 128 161 68.5Q176 9 197.5 -38.5Q219 -86 240 -120H133Q113 -90 92.5 -44Q72 2 57 62Q42 122 37 194Q32 266 43 349Z" glyph-name="parenleft" horiz-adv-x="334" unicode="(" /><glyph d="M57 401Q66 465 83 520.5Q100 576 123 623.5Q146 671 172.5 710.5Q199 750 227 780H338Q310 746 281.5 706Q253 666 229 619.5Q205 573 186.5 518.5Q168 464 159 401L156 379Q148 322 152.5 268Q157 214 169 165.5Q181 117 198.5 75Q216 33 233 0H127Q110 30 93 70.5Q76 111 65 159.5Q54 208 50 263.5Q46 319 54 379Z" glyph-name="parenleft.cap" horiz-adv-x="334" unicode="&#58513;" /><glyph d="M-27 -1Q-19 67 3.5 113Q26 159 57 190H147Q119 158 91.5 109.5Q64 61 56 -1L55 -9Q51 -38 53.5 -67Q56 -96 62 -121Q68 -146 76 -166.5Q84 -187 92 -200H10Q2 -187 -6.5 -167Q-15 -147 -21 -122Q-27 -97 -29.5 -68Q-32 -39 -28 -9Z" glyph-name="parenleft.inf" horiz-adv-x="185" unicode="&#58750;" /><glyph d="M284 349Q272 259 250 186.5Q228 114 200 56.5Q172 -1 140.5 -44.5Q109 -88 76 -120H-40Q-1 -77 34 -28.5Q69 20 98.5 77Q128 134 149.5 201.5Q171 269 182 349L185 371Q196 450 190 521Q184 592 169 651.5Q154 711 132.5 758.5Q111 806 90 840H197Q217 810 237.5 764Q258 718 273 658Q288 598 293 525.5Q298 453 287 371Z" glyph-name="parenright" horiz-adv-x="334" unicode=")" /><glyph d="M280 379Q271 315 254 259.5Q237 204 214 156.5Q191 109 164.5 69.5Q138 30 110 0H-1Q27 34 55.5 74Q84 114 108 160.5Q132 207 150.5 261.5Q169 316 178 379L181 401Q189 458 184.5 512Q180 566 168 614.5Q156 663 138.5 705Q121 747 104 780H210Q227 750 244 709.5Q261 669 272 620.5Q283 572 287 516.5Q291 461 283 401Z" glyph-name="parenright.cap" horiz-adv-x="334" unicode="&#58514;" /><glyph d="M114 -9Q106 -77 83.5 -123Q61 -169 30 -200H-60Q-32 -168 -4.5 -119.5Q23 -71 31 -9L32 -1Q36 28 33.5 57Q31 86 25 111Q19 136 10.5 156.5Q2 177 -5 190H77Q85 177 93.5 157Q102 137 108 112Q114 87 116.5 58Q119 29 115 -1Z" glyph-name="parenright.inf" horiz-adv-x="185" unicode="&#58751;" /><glyph d="M132 150Q137 139 146.5 126Q156 113 170 102Q184 91 203.5 83.5Q223 76 249 76Q306 76 343 123Q380 170 391 252L394 274Q405 355 383 404.5Q361 454 298 454Q271 454 250 447.5Q229 441 212 430.5Q195 420 183 407Q171 394 162 381ZM253 -12Q201 -12 167.5 9Q134 30 120 58L85 -200H-15L62 380L74 530H161L160 459Q180 494 223 518Q266 542 318 542Q376 542 413.5 521Q451 500 471.5 464Q492 428 497 379Q502 330 495 274L492 252Q475 126 417 57Q359 -12 253 -12ZM374 640H260L275 754H389Z" glyph-name="pdotaccent" horiz-adv-x="550" unicode="&#7767;" /><glyph d="M247 712Q204 712 177.5 687Q151 662 145 613L144 605Q139 560 162 533Q185 506 227 506H233Q276 506 302.5 531Q329 556 335 605L336 613Q341 658 318 685Q295 712 253 712ZM250 792Q276 792 297.5 786.5Q319 781 340 773Q378 758 419.5 754Q461 750 505 750Q536 750 568 753.5Q600 757 627.5 761.5Q655 766 676.5 771.5Q698 777 709 782L701 721L306 0H214L585 678Q575 674 551.5 670Q528 666 499 666Q470 666 449.5 669Q429 672 414 674Q416 664 417 646Q418 628 416 611L415 603Q404 520 354.5 473Q305 426 230 426Q190 426 157 438Q124 450 101.5 473Q79 496 69 529.5Q59 563 64 607L65 615Q76 698 125.5 745Q175 792 250 792ZM713 274Q670 274 643.5 249Q617 224 611 175L610 167Q605 122 628 95Q651 68 693 68H699Q742 68 768.5 93Q795 118 801 167L802 175Q807 220 784 247Q761 274 719 274ZM696 -12Q656 -12 623 0Q590 12 567.5 35Q545 58 535 91.5Q525 125 530 169L531 177Q542 260 591.5 307Q641 354 716 354Q756 354 788.5 342Q821 330 843.5 307Q866 284 876.5 250Q887 216 882 173L881 165Q870 82 820.5 35Q771 -12 696 -12Z" glyph-name="percent" horiz-adv-x="943" unicode="%" /><glyph d="M125 0H11L26 114H140Z" glyph-name="period" horiz-adv-x="234" unicode="." /><glyph d="M158 0H44L59 114H173Z" glyph-name="period.T" horiz-adv-x="300" unicode="&#61826;" /><glyph d="M163 293H49L64 407H178Z" glyph-name="periodcentered" horiz-adv-x="234" unicode="&#183;" /><glyph d="M168 333H54L69 447H183Z" glyph-name="periodcentered.cap" horiz-adv-x="234" unicode="&#58497;" /><glyph d="M1113 274Q1070 274 1043.5 249Q1017 224 1011 175L1010 167Q1005 122 1028 95Q1051 68 1093 68H1099Q1142 68 1168.5 93Q1195 118 1201 167L1202 175Q1207 220 1184 247Q1161 274 1119 274ZM1096 -12Q1056 -12 1023 0Q990 12 967.5 35Q945 58 935 91.5Q925 125 930 169L931 177Q942 260 991.5 307Q1041 354 1116 354Q1156 354 1188.5 342Q1221 330 1243.5 307Q1266 284 1276.5 250Q1287 216 1282 173L1281 165Q1270 82 1220.5 35Q1171 -12 1096 -12ZM247 712Q204 712 177.5 687Q151 662 145 613L144 605Q139 560 162 533Q185 506 227 506H233Q276 506 302.5 531Q329 556 335 605L336 613Q341 658 318 685Q295 712 253 712ZM250 792Q276 792 297.5 786.5Q319 781 340 773Q378 758 419.5 754Q461 750 505 750Q536 750 568 753.5Q600 757 627.5 761.5Q655 766 676.5 771.5Q698 777 709 782L701 721L306 0H214L585 678Q575 674 551.5 670Q528 666 499 666Q470 666 449.5 669Q429 672 414 674Q416 664 417 646Q418 628 416 611L415 603Q404 520 354.5 473Q305 426 230 426Q190 426 157 438Q124 450 101.5 473Q79 496 69 529.5Q59 563 64 607L65 615Q76 698 125.5 745Q175 792 250 792ZM713 274Q670 274 643.5 249Q617 224 611 175L610 167Q605 122 628 95Q651 68 693 68H699Q742 68 768.5 93Q795 118 801 167L802 175Q807 220 784 247Q761 274 719 274ZM696 -12Q656 -12 623 0Q590 12 567.5 35Q545 58 535 91.5Q525 125 530 169L531 177Q542 260 591.5 307Q641 354 716 354Q756 354 788.5 342Q821 330 843.5 307Q866 284 876.5 250Q887 216 882 173L881 165Q870 82 820.5 35Q771 -12 696 -12Z" glyph-name="perthousand" horiz-adv-x="1342" unicode="&#8240;" /><glyph d="M380 644 353 436H561L549 344H341L314 136H222L249 344H41L53 436H261L288 644Z" glyph-name="plus" horiz-adv-x="600" unicode="+" /><glyph d="M155 124 143 32H235L225 -42H133L121 -134H47L59 -42H-33L-23 32H69L81 124Z" glyph-name="plus.inf" horiz-adv-x="300" unicode="&#58747;" /><glyph d="M28 245H536L524 153H16ZM336 309H244L261 437H53L65 529H273L290 657H382L365 529H573L561 437H353Z" glyph-name="plusminus" horiz-adv-x="600" unicode="&#177;" /><glyph d="M478 401Q491 401 504.5 404Q518 407 529.5 415Q541 423 548 437Q555 451 555 474V481Q555 503 548 517.5Q541 532 529.5 540Q518 548 504.5 551Q491 554 478 554H384V401ZM384 155H291V625H495Q522 625 549.5 619Q577 613 598.5 597Q620 581 634 553.5Q648 526 648 483V472Q648 429 634 401.5Q620 374 598.5 358Q577 342 549.5 336Q522 330 495 330H384ZM106 390Q106 316 133.5 251.5Q161 187 209 139Q257 91 321.5 63.5Q386 36 460 36Q533 36 597.5 63.5Q662 91 710 139Q758 187 786 251.5Q814 316 814 390Q814 463 786 527.5Q758 592 710 640Q662 688 597.5 716Q533 744 460 744Q386 744 321.5 716Q257 688 209 640Q161 592 133.5 527.5Q106 463 106 390ZM58 390Q58 473 89.5 546.5Q121 620 175.5 674.5Q230 729 303.5 760.5Q377 792 460 792Q543 792 616.5 760.5Q690 729 744.5 674.5Q799 620 830.5 546.5Q862 473 862 390Q862 307 830.5 233.5Q799 160 744.5 105.5Q690 51 616.5 19.5Q543 -12 460 -12Q377 -12 303.5 19.5Q230 51 175.5 105.5Q121 160 89.5 233.5Q58 307 58 390Z" glyph-name="published" horiz-adv-x="920" unicode="&#8471;" /><glyph glyph-name="punctuationspace" horiz-adv-x="180" unicode="&#8200;" /><glyph d="M391 380Q386 391 376.5 404Q367 417 353 428Q339 439 319.5 446.5Q300 454 274 454Q217 454 180 407Q143 360 132 278L129 256Q118 175 140 125.5Q162 76 225 76Q252 76 273 82.5Q294 89 311 99.5Q328 110 340 122.5Q352 135 361 147ZM348 50Q339 40 325 29Q311 18 293 9Q275 0 253 -6Q231 -12 205 -12Q147 -12 109.5 9Q72 30 51.5 66Q31 102 25.5 151Q20 200 28 256L31 278Q48 404 106 473Q164 542 270 542Q322 542 358.5 519Q395 496 412 461L431 530H518L492 385L415 -200H315Z" glyph-name="q" horiz-adv-x="553" unicode="q" /><glyph d="M275 792Q331 792 369.5 780Q408 768 431.5 745.5Q455 723 465.5 690Q476 657 476 615Q476 563 461 526Q446 489 423 459.5Q400 430 372 404.5Q344 379 318.5 350.5Q293 322 272.5 287Q252 252 244 203H175Q179 256 195.5 296.5Q212 337 233.5 369.5Q255 402 279.5 429.5Q304 457 324 484.5Q344 512 357.5 541.5Q371 571 371 608Q371 650 349.5 675.5Q328 701 275 701Q241 701 218 686.5Q195 672 180 646.5Q165 621 157 586Q149 551 145 509H42L43 516Q52 580 67 631Q82 682 108.5 718Q135 754 175 773Q215 792 275 792ZM241 0H127L142 114H256Z" glyph-name="question" horiz-adv-x="470" unicode="?" /><glyph d="M299 416H185L200 530H314ZM165 -121Q230 -121 261 -73.5Q292 -26 300 60H403L402 53Q393 -8 377 -57Q361 -106 333.5 -140.5Q306 -175 265 -193.5Q224 -212 165 -212Q112 -212 75 -200Q38 -188 14.5 -167.5Q-9 -147 -19.5 -118.5Q-30 -90 -30 -57Q-30 -8 -15.5 27.5Q-1 63 21.5 91.5Q44 120 71 144.5Q98 169 123 195Q148 221 168 252.5Q188 284 196 327H266Q262 282 246.5 247Q231 212 209.5 182.5Q188 153 164.5 127.5Q141 102 120.5 76Q100 50 87 22.5Q74 -5 74 -39Q74 -77 95 -99Q116 -121 165 -121Z" glyph-name="questiondown" horiz-adv-x="470" unicode="&#191;" /><glyph d="M199 -12Q143 -12 104.5 0Q66 12 42.5 34.5Q19 57 8.5 90Q-2 123 -2 165Q-2 217 13 254Q28 291 51 320.5Q74 350 102 375.5Q130 401 155.5 429.5Q181 458 201.5 493Q222 528 230 577H299Q295 524 278.5 483.5Q262 443 240.5 410.5Q219 378 194.5 350.5Q170 323 150 295.5Q130 268 116.5 238.5Q103 209 103 172Q103 130 124.5 104.5Q146 79 199 79Q233 79 256 93.5Q279 108 294 133.5Q309 159 317 194Q325 229 329 271H432L431 264Q422 200 407 149Q392 98 365.5 62Q339 26 299 7Q259 -12 199 -12ZM233 780H347L332 666H218Z" glyph-name="questiondown.cap" horiz-adv-x="470" unicode="&#58436;" /><glyph d="M369 780 312 492H237L265 780ZM217 780 170 492H94L114 780Z" glyph-name="quotedbl" horiz-adv-x="377" unicode="&quot;" /><glyph d="M298 24Q277 -127 146 -127L153 -71Q187 -71 208 -54.5Q229 -38 239 0H181L196 114H310ZM128 24Q107 -127 -24 -127L-17 -71Q17 -71 38 -54.5Q59 -38 69 0H11L26 114H140Z" glyph-name="quotedblbase" horiz-adv-x="404" unicode="&#8222;" /><glyph d="M96 648Q117 799 248 799L241 743Q207 743 186 726.5Q165 710 155 672H213L198 558H84ZM266 648Q287 799 418 799L411 743Q377 743 356 726.5Q335 710 325 672H383L368 558H254Z" glyph-name="quotedblleft" horiz-adv-x="404" unicode="&#8220;" /><glyph d="M385 690Q364 539 233 539L240 595Q274 595 295 611.5Q316 628 326 666H268L283 780H397ZM215 690Q194 539 63 539L70 595Q104 595 125 611.5Q146 628 156 666H98L113 780H227Z" glyph-name="quotedblright" horiz-adv-x="404" unicode="&#8221;" /><glyph d="M96 648Q117 799 248 799L241 743Q207 743 186 726.5Q165 710 155 672H213L198 558H84Z" glyph-name="quoteleft" horiz-adv-x="234" unicode="&#8216;" /><glyph d="M215 690Q194 539 63 539L70 595Q104 595 125 611.5Q146 628 156 666H98L113 780H227Z" glyph-name="quoteright" horiz-adv-x="234" unicode="&#8217;" /><glyph d="M128 24Q107 -127 -24 -127L-17 -71Q17 -71 38 -54.5Q59 -38 69 0H11L26 114H140Z" glyph-name="quotesinglbase" horiz-adv-x="234" unicode="&#8218;" /><glyph d="M226 780 170 492H94L114 780Z" glyph-name="quotesingle" horiz-adv-x="234" unicode="&apos;" /><glyph d="M319 542Q321 542 324 541.5Q327 541 329 541H334L321 441H302Q278 441 256.5 434.5Q235 428 216.5 418.5Q198 409 184 397Q170 385 162 373L113 0H13L63 380L75 530H161V459Q184 496 225.5 519Q267 542 319 542Z" glyph-name="r" horiz-adv-x="350" unicode="r" /><glyph d="M319 542Q321 542 324 541.5Q327 541 329 541H334L321 441H302Q278 441 256.5 434.5Q235 428 216.5 418.5Q198 409 184 397Q170 385 162 373L113 0H13L63 380L75 530H161V459Q184 496 225.5 519Q267 542 319 542ZM390 780 268 607H166L280 780Z" glyph-name="racute" horiz-adv-x="350" unicode="&#341;" /><glyph d="M319 542Q321 542 324 541.5Q327 541 329 541H334L321 441H302Q278 441 256.5 434.5Q235 428 216.5 418.5Q198 409 184 397Q170 385 162 373L113 0H13L63 380L75 530H161V459Q184 496 225.5 519Q267 542 319 542ZM419 780 264 607H170L61 780H153L224 679L323 780Z" glyph-name="rcaron" horiz-adv-x="350" unicode="&#345;" /><glyph d="M319 542Q321 542 324 541.5Q327 541 329 541H334L321 441H302Q278 441 256.5 434.5Q235 428 216.5 418.5Q198 409 184 397Q170 385 162 373L113 0H13L63 380L75 530H161V459Q184 496 225.5 519Q267 542 319 542ZM102 -105Q87 -219 -33 -219L-27 -172Q2 -172 23 -162Q44 -152 49 -129H-4L6 -51H109Z" glyph-name="rcommaaccent" horiz-adv-x="350" unicode="&#343;" /><glyph d="M191 696Q191 717 167 717H139V672H167Q191 672 191 693ZM234 691Q234 671 226 659.5Q218 648 204 643L234 579H190L165 638H139V579H96V751H176Q199 751 216.5 739Q234 727 234 698ZM42 665Q42 639 51.5 617Q61 595 78 578Q95 561 117 551.5Q139 542 165 542Q190 542 212.5 551.5Q235 561 252 578Q269 595 278.5 617Q288 639 288 665Q288 690 278.5 712.5Q269 735 252 752Q235 769 212.5 778.5Q190 788 165 788Q139 788 117 778.5Q95 769 78 752Q61 735 51.5 712.5Q42 690 42 665ZM18 665Q18 695 29.5 722Q41 749 61 769Q81 789 108 800.5Q135 812 165 812Q195 812 222 800.5Q249 789 269 769Q289 749 300.5 722Q312 695 312 665Q312 635 300.5 608Q289 581 269 561Q249 541 222 529.5Q195 518 165 518Q135 518 108 529.5Q81 541 61 561Q41 581 29.5 608Q18 635 18 665Z" glyph-name="registered" horiz-adv-x="330" unicode="&#174;" /><glyph d="M470 401Q483 401 496.5 404Q510 407 521.5 415Q533 423 540 437Q547 451 547 474V481Q547 503 540 517.5Q533 532 521.5 540Q510 548 496.5 551Q483 554 470 554H376V401ZM376 155H283V625H486Q513 625 540.5 619Q568 613 590 597Q612 581 626 553.5Q640 526 640 483V472Q640 417 618.5 387.5Q597 358 565 344L640 155H541L480 330H376ZM106 390Q106 316 133.5 251.5Q161 187 209 139Q257 91 321.5 63.5Q386 36 460 36Q533 36 597.5 63.5Q662 91 710 139Q758 187 786 251.5Q814 316 814 390Q814 463 786 527.5Q758 592 710 640Q662 688 597.5 716Q533 744 460 744Q386 744 321.5 716Q257 688 209 640Q161 592 133.5 527.5Q106 463 106 390ZM58 390Q58 473 89.5 546.5Q121 620 175.5 674.5Q230 729 303.5 760.5Q377 792 460 792Q543 792 616.5 760.5Q690 729 744.5 674.5Q799 620 830.5 546.5Q862 473 862 390Q862 307 830.5 233.5Q799 160 744.5 105.5Q690 51 616.5 19.5Q543 -12 460 -12Q377 -12 303.5 19.5Q230 51 175.5 105.5Q121 160 89.5 233.5Q58 307 58 390Z" glyph-name="registered.cap" horiz-adv-x="920" unicode="&#59804;" /><glyph d="M283 780H397L382 666H324Q324 626 340 610.5Q356 595 390 595L383 539Q251 539 271 690ZM113 780H227L212 666H154Q154 626 170 610.5Q186 595 220 595L213 539Q81 539 101 690Z" glyph-name="reversequotedblleft" horiz-adv-x="404" unicode="&#8223;" /><glyph d="M113 780H227L212 666H154Q154 626 170 610.5Q186 595 220 595L213 539Q81 539 101 690Z" glyph-name="reversequoteleft" horiz-adv-x="234" unicode="&#8219;" /><glyph d="M238 687Q238 665 250.5 652Q263 639 284 639Q308 639 327 655Q346 671 346 700Q346 722 333.5 735Q321 748 300 748Q276 748 257 732Q238 716 238 687ZM391 700Q391 677 382 658Q373 639 358.5 625Q344 611 324.5 603Q305 595 284 595Q244 595 218.5 620Q193 645 193 687Q193 709 202 728.5Q211 748 225.5 762Q240 776 259.5 784Q279 792 300 792Q340 792 365.5 767Q391 742 391 700Z" glyph-name="ring" horiz-adv-x="500" unicode="&#730;" /><glyph d="M260 857Q260 835 272.5 822Q285 809 306 809Q330 809 349 825Q368 841 368 870Q368 892 355.5 905Q343 918 322 918Q298 918 279 902Q260 886 260 857ZM413 870Q413 847 404 828Q395 809 380.5 795Q366 781 346.5 773Q327 765 306 765Q266 765 240.5 790Q215 815 215 857Q215 879 224 898.5Q233 918 247.5 932Q262 946 281.5 954Q301 962 322 962Q362 962 387.5 937Q413 912 413 870Z" glyph-name="ring.cap" horiz-adv-x="500" unicode="&#58410;" /><glyph d="M316 395Q339 395 364.5 400.5Q390 406 412.5 421.5Q435 437 451.5 464Q468 491 473 534L474 542Q480 587 471 615.5Q462 644 444 660Q426 676 401.5 682Q377 688 352 688H248L210 395ZM191 250H390L378 159H179L158 0H54L75 159H-8L4 250H87L94 304H12L24 395H106L156 780H354Q398 780 442.5 769.5Q487 759 521 733Q555 707 572.5 662.5Q590 618 581 550L578 528Q569 462 542.5 418.5Q516 375 479.5 349.5Q443 324 400.5 314Q358 304 318 304H198Z" glyph-name="ruble" horiz-adv-x="600" unicode="&#8381;" /><glyph d="M226 68Q250 68 271.5 73Q293 78 309 88.5Q325 99 334 115.5Q343 132 343 155Q343 193 318.5 208Q294 223 233 231Q132 244 90.5 282Q49 320 57 387L58 395Q67 465 125.5 503.5Q184 542 272 542Q330 542 370 529.5Q410 517 433.5 493.5Q457 470 465 437.5Q473 405 467 365L466 358H370Q377 406 355.5 434Q334 462 272 462Q252 462 231.5 458Q211 454 194.5 444Q178 434 167 418Q156 402 156 378Q156 348 180.5 332Q205 316 267 309Q357 298 405.5 260Q454 222 444 146L443 138Q435 71 377 29.5Q319 -12 222 -12Q162 -12 121 1Q80 14 56.5 37Q33 60 25 90.5Q17 121 22 157L23 164H121Q115 122 138 95Q161 68 226 68Z" glyph-name="s" horiz-adv-x="524" unicode="s" /><glyph d="M226 68Q250 68 271.5 73Q293 78 309 88.5Q325 99 334 115.5Q343 132 343 155Q343 193 318.5 208Q294 223 233 231Q132 244 90.5 282Q49 320 57 387L58 395Q67 465 125.5 503.5Q184 542 272 542Q330 542 370 529.5Q410 517 433.5 493.5Q457 470 465 437.5Q473 405 467 365L466 358H370Q377 406 355.5 434Q334 462 272 462Q252 462 231.5 458Q211 454 194.5 444Q178 434 167 418Q156 402 156 378Q156 348 180.5 332Q205 316 267 309Q357 298 405.5 260Q454 222 444 146L443 138Q435 71 377 29.5Q319 -12 222 -12Q162 -12 121 1Q80 14 56.5 37Q33 60 25 90.5Q17 121 22 157L23 164H121Q115 122 138 95Q161 68 226 68ZM465 780 343 607H241L355 780Z" glyph-name="sacute" horiz-adv-x="524" unicode="&#347;" /><glyph d="M226 68Q250 68 271.5 73Q293 78 309 88.5Q325 99 334 115.5Q343 132 343 155Q343 193 318.5 208Q294 223 233 231Q132 244 90.5 282Q49 320 57 387L58 395Q67 465 125.5 503.5Q184 542 272 542Q330 542 370 529.5Q410 517 433.5 493.5Q457 470 465 437.5Q473 405 467 365L466 358H370Q377 406 355.5 434Q334 462 272 462Q252 462 231.5 458Q211 454 194.5 444Q178 434 167 418Q156 402 156 378Q156 348 180.5 332Q205 316 267 309Q357 298 405.5 260Q454 222 444 146L443 138Q435 71 377 29.5Q319 -12 222 -12Q162 -12 121 1Q80 14 56.5 37Q33 60 25 90.5Q17 121 22 157L23 164H121Q115 122 138 95Q161 68 226 68ZM494 780 339 607H245L136 780H228L299 679L398 780Z" glyph-name="scaron" horiz-adv-x="524" unicode="&#353;" /><glyph d="M226 68Q250 68 271.5 73Q293 78 309 88.5Q325 99 334 115.5Q343 132 343 155Q343 193 318.5 208Q294 223 233 231Q132 244 90.5 282Q49 320 57 387L58 395Q67 465 125.5 503.5Q184 542 272 542Q330 542 370 529.5Q410 517 433.5 493.5Q457 470 465 437.5Q473 405 467 365L466 358H370Q377 406 355.5 434Q334 462 272 462Q252 462 231.5 458Q211 454 194.5 444Q178 434 167 418Q156 402 156 378Q156 348 180.5 332Q205 316 267 309Q357 298 405.5 260Q454 222 444 146L443 138Q435 73 381 32.5Q327 -8 236 -12L216 -50Q253 -51 280.5 -68Q308 -85 308 -125Q308 -170 275 -191.5Q242 -213 192 -213Q157 -213 132 -205.5Q107 -198 93 -188L118 -136Q130 -144 149.5 -149.5Q169 -155 192 -155Q217 -155 230.5 -148.5Q244 -142 244 -125Q244 -111 230 -105Q216 -99 190 -99Q184 -99 178.5 -99.5Q173 -100 168 -101Q163 -102 158 -102L144 -77L178 -10Q130 -6 98 9Q66 24 47.5 46Q29 68 23 96.5Q17 125 22 157L23 164H121Q115 122 138 95Q161 68 226 68Z" glyph-name="scedilla" horiz-adv-x="524" unicode="&#351;" /><glyph d="M226 68Q250 68 271.5 73Q293 78 309 88.5Q325 99 334 115.5Q343 132 343 155Q343 193 318.5 208Q294 223 233 231Q132 244 90.5 282Q49 320 57 387L58 395Q67 465 125.5 503.5Q184 542 272 542Q330 542 370 529.5Q410 517 433.5 493.5Q457 470 465 437.5Q473 405 467 365L466 358H370Q377 406 355.5 434Q334 462 272 462Q252 462 231.5 458Q211 454 194.5 444Q178 434 167 418Q156 402 156 378Q156 348 180.5 332Q205 316 267 309Q357 298 405.5 260Q454 222 444 146L443 138Q435 71 377 29.5Q319 -12 222 -12Q162 -12 121 1Q80 14 56.5 37Q33 60 25 90.5Q17 121 22 157L23 164H121Q115 122 138 95Q161 68 226 68ZM113 607 268 780H362L471 607H379L308 708L209 607Z" glyph-name="scircumflex" horiz-adv-x="524" unicode="&#349;" /><glyph d="M226 68Q250 68 271.5 73Q293 78 309 88.5Q325 99 334 115.5Q343 132 343 155Q343 193 318.5 208Q294 223 233 231Q132 244 90.5 282Q49 320 57 387L58 395Q67 465 125.5 503.5Q184 542 272 542Q330 542 370 529.5Q410 517 433.5 493.5Q457 470 465 437.5Q473 405 467 365L466 358H370Q377 406 355.5 434Q334 462 272 462Q252 462 231.5 458Q211 454 194.5 444Q178 434 167 418Q156 402 156 378Q156 348 180.5 332Q205 316 267 309Q357 298 405.5 260Q454 222 444 146L443 138Q435 71 377 29.5Q319 -12 222 -12Q162 -12 121 1Q80 14 56.5 37Q33 60 25 90.5Q17 121 22 157L23 164H121Q115 122 138 95Q161 68 226 68ZM250 -105Q235 -219 115 -219L121 -172Q150 -172 171 -162Q192 -152 197 -129H144L154 -51H257Z" glyph-name="scommaaccent" horiz-adv-x="524" unicode="&#537;" /><glyph d="M220 229Q21 240 39 383L40 391Q46 439 72.5 470.5Q99 502 153 517Q90 547 101 627L102 635Q112 711 168 751.5Q224 792 319 792Q377 792 417 779.5Q457 767 480.5 743.5Q504 720 512 687.5Q520 655 514 615L513 608H413Q420 656 400 683.5Q380 711 319 711Q264 711 233 687.5Q202 664 202 620Q202 604 207 592Q212 580 224 571.5Q236 563 256.5 558Q277 553 309 551Q508 540 490 397L489 389Q483 341 456.5 309.5Q430 278 376 263Q439 233 428 153L427 145Q417 69 361 28.5Q305 -12 210 -12Q152 -12 112 0.5Q72 13 48.5 36.5Q25 60 17 92.5Q9 125 15 165L16 172H116Q113 148 115.5 128.5Q118 109 129 96Q140 83 159.5 76Q179 69 210 69Q265 69 296 92.5Q327 116 327 160Q327 176 322 188Q317 200 305 208.5Q293 217 272.5 222Q252 227 220 229ZM263 303Q325 303 357 330.5Q389 358 389 400Q389 440 359.5 458.5Q330 477 277 477H266Q204 477 172 449.5Q140 422 140 380Q140 340 169.5 321.5Q199 303 252 303Z" glyph-name="section" horiz-adv-x="526" unicode="&#167;" /><glyph d="M168 333H54L69 447H183ZM128 24Q107 -127 -24 -127L-17 -71Q17 -71 38 -54.5Q59 -38 69 0H11L26 114H140Z" glyph-name="semicolon" horiz-adv-x="234" unicode=";" /><glyph d="M201 333H87L102 447H216ZM161 24Q140 -127 9 -127L16 -71Q50 -71 71 -54.5Q92 -38 102 0H44L59 114H173Z" glyph-name="semicolon.T" horiz-adv-x="300" unicode="&#61829;" /><glyph d="M389 530H335L284 719L286 654V530H237V800H312L362 613L412 800H487V530H437V654L439 719ZM102 645Q57 651 38 669Q19 687 19 722V726Q19 763 42.5 785Q66 807 111 807Q161 807 182 783.5Q203 760 203 712V704H153Q153 734 144 748Q135 762 112 762H109Q69 762 69 729V727Q69 710 80 701.5Q91 693 120 688Q165 682 185 664Q205 646 205 610V605Q205 567 181.5 544Q158 521 111 521Q16 521 16 619V622H66Q66 593 76 579.5Q86 566 110 566H113Q154 566 154 603V605Q154 622 142.5 631.5Q131 641 102 645Z" glyph-name="servicemark" horiz-adv-x="536" unicode="&#8480;" /><glyph d="M103 780H609L601 719L215 0H105L480 689L374 688H183L158 500H66Z" glyph-name="seven" horiz-adv-x="600" unicode="7" /><glyph d="M-6 190H259L253 141L70 -200H-16L160 121L113 120H55L46 50H-24Z" glyph-name="seven.inf" horiz-adv-x="300" unicode="&#58744;" /><glyph d="M870 146Q868 141 867 133Q866 125 866 118Q866 89 879 76Q892 63 909 63H915Q938 63 951 75.5Q964 88 968 117L969 125Q972 150 959.5 163Q947 176 928 176H923Q909 176 895 168.5Q881 161 870 146ZM1056 325Q1013 325 982.5 316Q952 307 926 284Q914 273 904 256.5Q894 240 889 223Q914 246 957 246Q1005 246 1030.5 213.5Q1056 181 1049 127L1048 119Q1040 61 1007 27Q974 -7 912 -7Q877 -7 852 4Q827 15 812 35Q797 55 792 82.5Q787 110 791 142L792 150Q794 169 799.5 193Q805 217 814 241.5Q823 266 837.5 289.5Q852 313 872 332Q912 370 959 383Q1006 396 1065 396ZM482 0 491 70H576L605 291L538 250L506 308L639 390H698L656 70H742L733 0ZM12 0 690 780H792L114 0ZM70 780H335L329 731L146 390H60L236 711L189 710H131L122 640H52Z" glyph-name="sevensixteenths" horiz-adv-x="1100" unicode="&#61976;" /><glyph d="M303 399Q254 399 213 376Q172 353 144 307Q139 289 136 271Q133 253 133 227Q133 189 143.5 161.5Q154 134 172 116Q190 98 214.5 89Q239 80 267 80H273Q340 80 382.5 120Q425 160 434 234L435 242Q440 279 433 308.5Q426 338 409 358Q392 378 366.5 388.5Q341 399 309 399ZM561 699Q524 699 484.5 693.5Q445 688 406 674.5Q367 661 330 638.5Q293 616 260 582Q227 548 204 505.5Q181 463 167 419Q193 450 235.5 470.5Q278 491 330 491Q376 491 417.5 476Q459 461 489 431.5Q519 402 533.5 357Q548 312 540 252L537 230Q520 109 450.5 48.5Q381 -12 268 -12Q206 -12 159 9Q112 30 82 68.5Q52 107 39.5 160Q27 213 36 277L39 299Q45 345 55.5 389.5Q66 434 83 477Q100 520 126.5 561Q153 602 191 643Q231 686 277 714.5Q323 743 372.5 760Q422 777 473 784.5Q524 792 574 792Z" glyph-name="six" horiz-adv-x="600" unicode="6" /><glyph d="M44 -54Q42 -59 41 -67Q40 -75 40 -82Q40 -111 53 -124Q66 -137 83 -137H89Q112 -137 125 -124.5Q138 -112 142 -83L143 -75Q146 -50 133.5 -37Q121 -24 102 -24H97Q83 -24 69 -31.5Q55 -39 44 -54ZM230 125Q187 125 156.5 116Q126 107 100 84Q88 73 78 56.5Q68 40 63 23Q88 46 131 46Q179 46 204.5 13.5Q230 -19 223 -73L222 -81Q214 -139 181 -173Q148 -207 86 -207Q51 -207 26 -196Q1 -185 -14 -165Q-29 -145 -34 -117.5Q-39 -90 -35 -58L-34 -50Q-32 -31 -26.5 -7Q-21 17 -12 41.5Q-3 66 11.5 89.5Q26 113 46 132Q86 170 133 183Q180 196 239 196Z" glyph-name="six.inf" horiz-adv-x="300" unicode="&#58743;" /><glyph glyph-name="sixperemspace" horiz-adv-x="167" unicode="&#8198;" /><glyph d="M50 -120H-49L306 840H406Z" glyph-name="slash" horiz-adv-x="360" unicode="/" /><glyph d="M-24 0 270 780H370L76 0Z" glyph-name="slash.cap" horiz-adv-x="343" unicode="&#58465;" /><glyph glyph-name="space" horiz-adv-x="200" unicode=" " /><glyph d="M451 790Q463 771 486 742.5Q509 714 540 682Q571 650 607.5 618Q644 586 684 560Q717 539 746.5 515.5Q776 492 798.5 464.5Q821 437 834.5 405Q848 373 848 334Q848 297 834.5 265.5Q821 234 797 210.5Q773 187 741 173.5Q709 160 672 160Q635 160 604 173.5Q573 187 548 209.5Q523 232 504 261Q485 290 472 321L469 320Q473 269 479.5 227Q486 185 495.5 147Q505 109 518.5 73Q532 37 551 0H349Q368 37 381.5 73Q395 109 404.5 147Q414 185 420.5 227Q427 269 431 320L428 321Q415 290 396 261Q377 232 352 209.5Q327 187 296 173.5Q265 160 228 160Q191 160 159 173.5Q127 187 103 210.5Q79 234 65.5 265.5Q52 297 52 334Q52 373 65.5 405Q79 437 101.5 464.5Q124 492 153.5 515.5Q183 539 216 560Q256 586 292.5 618Q329 650 360 682Q391 714 414 742.5Q437 771 449 790Z" glyph-name="spade" horiz-adv-x="900" unicode="&#9824;" /><glyph d="M219 215 394 390 219 565 285 631 460 456 635 631 701 565 526 390 701 215 635 149 460 324 285 149ZM161 689V91H759V689ZM70 0V780H850V0Z" glyph-name="squaremultiply" horiz-adv-x="920" unicode="&#8864;" /><glyph d="M360 701Q288 701 261 654Q234 607 234 520Q234 471 240 423H432L420 332H252Q261 279 264 223Q267 167 267 92H512L500 0H2L14 92H175Q175 167 167 223Q159 279 149 332H45L57 423H134Q132 440 130.5 462.5Q129 485 129 520Q129 574 140 623Q151 672 177.5 709.5Q204 747 248.5 769.5Q293 792 360 792Q427 792 471.5 771.5Q516 751 541 715Q566 679 572.5 629Q579 579 570 520L567 500H465Q477 593 454.5 647Q432 701 360 701Z" glyph-name="sterling" horiz-adv-x="600" unicode="&#163;" /><glyph d="M388 530 376 441H219L183 169Q179 141 183 123Q187 105 196.5 94.5Q206 84 221 80Q236 76 255 76Q278 76 295 78.5Q312 81 320 83L309 0Q302 -3 283 -7.5Q264 -12 240 -12Q149 -12 109.5 28.5Q70 69 82 160L119 441H35L47 530H131L151 680H251L231 530Z" glyph-name="t" horiz-adv-x="411" unicode="t" /><glyph d="M307 227H190L183 169Q179 141 183 123Q187 105 196.5 94.5Q206 84 221 80Q236 76 255 76Q278 76 295 78.5Q312 81 320 83L309 0Q302 -3 283 -7.5Q264 -12 240 -12Q149 -12 109.5 28.5Q70 69 82 160L91 227H17L27 303H101L119 441H35L47 530H131L151 680H251L231 530H388L376 441H219L200 303H317Z" glyph-name="tbar" horiz-adv-x="411" unicode="&#359;" /><glyph d="M404 800 359 607H307L333 800ZM388 530 376 441H219L183 169Q179 141 183 123Q187 105 196.5 94.5Q206 84 221 80Q236 76 255 76Q278 76 295 78.5Q312 81 320 83L309 0Q302 -3 283 -7.5Q264 -12 240 -12Q149 -12 109.5 28.5Q70 69 82 160L119 441H35L47 530H131L151 680H251L231 530Z" glyph-name="tcaron" horiz-adv-x="411" unicode="&#357;" /><glyph d="M388 530 376 441H219L183 169Q179 141 183 123Q187 105 196.5 94.5Q206 84 221 80Q236 76 255 76Q278 76 295 78.5Q312 81 320 83L309 0Q302 -3 283 -7.5Q264 -12 240 -12Q149 -12 109.5 28.5Q70 69 82 160L119 441H35L47 530H131L151 680H251L231 530ZM226 -105Q211 -219 91 -219L97 -172Q126 -172 147 -162Q168 -152 173 -129H120L130 -51H233Z" glyph-name="tcommaaccent" horiz-adv-x="411" unicode="&#355;" /><glyph d="M259 734H159L170 816H270ZM388 530 376 441H219L183 169Q179 141 183 123Q187 105 196.5 94.5Q206 84 221 80Q236 76 255 76Q278 76 295 78.5Q312 81 320 83L309 0Q302 -3 283 -7.5Q264 -12 240 -12Q149 -12 109.5 28.5Q70 69 82 160L119 441H35L47 530H131L151 680H251L231 530Z" glyph-name="tdotaccent" horiz-adv-x="411" unicode="&#7787;" /><glyph glyph-name="thinspace" horiz-adv-x="150" unicode="&#8201;" /><glyph d="M1170 146Q1168 141 1167 133Q1166 125 1166 118Q1166 89 1179 76Q1192 63 1209 63H1215Q1238 63 1251 75.5Q1264 88 1268 117L1269 125Q1272 150 1259.5 163Q1247 176 1228 176H1223Q1209 176 1195 168.5Q1181 161 1170 146ZM1356 325Q1313 325 1282.5 316Q1252 307 1226 284Q1214 273 1204 256.5Q1194 240 1189 223Q1214 246 1257 246Q1305 246 1330.5 213.5Q1356 181 1349 127L1348 119Q1340 61 1307 27Q1274 -7 1212 -7Q1177 -7 1152 4Q1127 15 1112 35Q1097 55 1092 82.5Q1087 110 1091 142L1092 150Q1094 169 1099.5 193Q1105 217 1114 241.5Q1123 266 1137.5 289.5Q1152 313 1172 332Q1212 370 1259 383Q1306 396 1365 396ZM782 0 791 70H876L905 291L838 250L806 308L939 390H998L956 70H1042L1033 0ZM312 0 990 780H1092L414 0ZM417 515Q412 477 425 465Q438 453 458 453H464Q483 453 497.5 463Q512 473 515 499L516 507Q522 554 475 554H422L431 624H483Q505 624 518.5 633.5Q532 643 535 666L536 674Q538 694 527 705Q516 716 497 716H491Q468 716 454 702Q440 688 437 650H357L358 658Q366 721 398.5 753.5Q431 786 494 786Q530 786 555 776.5Q580 767 594.5 751Q609 735 614 715.5Q619 696 617 677L616 669Q611 636 595 615.5Q579 595 555 588Q578 581 589.5 557.5Q601 534 596 499L595 491Q593 472 584.5 453Q576 434 559.5 418.5Q543 403 519 393Q495 383 461 383Q390 383 359.5 417.5Q329 452 336 507L337 515ZM32 390 41 460H126L155 681L88 640L56 698L189 780H248L206 460H292L283 390Z" glyph-name="thirteensixteenths" horiz-adv-x="1400" unicode="&#61985;" /><glyph d="M132 150Q137 139 146.5 126Q156 113 170 102Q184 91 203.5 83.5Q223 76 249 76Q306 76 343 123Q380 170 391 252L394 274Q405 355 383 404.5Q361 454 298 454Q271 454 250 447.5Q229 441 212 430.5Q195 420 183 407Q171 394 162 381ZM217 800 175 480Q184 490 198 501Q212 512 230 521Q248 530 270 536Q292 542 318 542Q376 542 413.5 521Q451 500 471.5 464Q492 428 497 379Q502 330 495 274L492 252Q475 126 417 57Q359 -12 253 -12Q201 -12 167.5 9Q134 30 120 58L85 -200H-15L117 800Z" glyph-name="thorn" horiz-adv-x="550" unicode="&#254;" /><glyph d="M132 250Q121 154 155 116.5Q189 79 259 79H267Q295 79 322.5 87Q350 95 371.5 111.5Q393 128 408 153Q423 178 427 212L428 220Q436 285 403.5 319Q371 353 308 353H197L209 443H316Q378 443 420 470.5Q462 498 470 560L471 568Q479 633 445 667Q411 701 348 701H340Q269 701 227.5 659.5Q186 618 173 520H70L74 547Q92 668 156.5 730Q221 792 346 792Q410 792 456 775.5Q502 759 530.5 730Q559 701 570.5 662Q582 623 576 578L573 556Q565 499 525 457Q485 415 426 400Q483 383 513 336Q543 289 533 218L530 196Q524 153 503.5 115Q483 77 449 49Q415 21 368 4.5Q321 -12 263 -12Q196 -12 148 6Q100 24 70.5 57Q41 90 30.5 137Q20 184 28 243L29 250Z" glyph-name="three" horiz-adv-x="600" unicode="3" /><glyph d="M41 -75Q36 -113 49 -125Q62 -137 82 -137H88Q107 -137 121.5 -127Q136 -117 139 -91L140 -83Q146 -36 99 -36H46L55 34H107Q129 34 142.5 43.5Q156 53 159 76L160 84Q162 104 151 115Q140 126 121 126H115Q92 126 78 112Q64 98 61 60H-19L-18 68Q-10 131 22.5 163.5Q55 196 118 196Q154 196 179 186.5Q204 177 218.5 161Q233 145 238 125.5Q243 106 241 87L240 79Q235 46 219 25.5Q203 5 179 -2Q202 -9 213.5 -32.5Q225 -56 220 -91L219 -99Q217 -118 208.5 -137Q200 -156 183.5 -171.5Q167 -187 143 -197Q119 -207 85 -207Q14 -207 -16.5 -172.5Q-47 -138 -40 -83L-39 -75Z" glyph-name="three.inf" horiz-adv-x="300" unicode="&#58740;" /><glyph glyph-name="threeperemspace" horiz-adv-x="333" unicode="&#8196;" /><glyph d="M43 395H713L701 305H31Z" glyph-name="threequarteremdash" horiz-adv-x="750" unicode="&#58482;" /><glyph d="M48 435H718L706 345H36Z" glyph-name="threequarteremdash.cap" horiz-adv-x="750" unicode="&#58501;" /><glyph d="M568 154 594 155H636L646 233L650 262ZM615 0 627 85H475L483 143L671 390H747L716 155H758L749 85H707L695 0ZM12 0 690 780H792L114 0ZM117 515Q112 477 125 465Q138 453 158 453H164Q183 453 197.5 463Q212 473 215 499L216 507Q222 554 175 554H122L131 624H183Q205 624 218.5 633.5Q232 643 235 666L236 674Q238 694 227 705Q216 716 197 716H191Q168 716 154 702Q140 688 137 650H57L58 658Q66 721 98.5 753.5Q131 786 194 786Q230 786 255 776.5Q280 767 294.5 751Q309 735 314 715.5Q319 696 317 677L316 669Q311 636 295 615.5Q279 595 255 588Q278 581 289.5 557.5Q301 534 296 499L295 491Q293 472 284.5 453Q276 434 259.5 418.5Q243 403 219 393Q195 383 161 383Q90 383 59.5 417.5Q29 452 36 507L37 515Z" glyph-name="threequarters" horiz-adv-x="800" unicode="&#190;" /><glyph d="M870 146Q868 141 867 133Q866 125 866 118Q866 89 879 76Q892 63 909 63H915Q938 63 951 75.5Q964 88 968 117L969 125Q972 150 959.5 163Q947 176 928 176H923Q909 176 895 168.5Q881 161 870 146ZM1056 325Q1013 325 982.5 316Q952 307 926 284Q914 273 904 256.5Q894 240 889 223Q914 246 957 246Q1005 246 1030.5 213.5Q1056 181 1049 127L1048 119Q1040 61 1007 27Q974 -7 912 -7Q877 -7 852 4Q827 15 812 35Q797 55 792 82.5Q787 110 791 142L792 150Q794 169 799.5 193Q805 217 814 241.5Q823 266 837.5 289.5Q852 313 872 332Q912 370 959 383Q1006 396 1065 396ZM482 0 491 70H576L605 291L538 250L506 308L639 390H698L656 70H742L733 0ZM12 0 690 780H792L114 0ZM117 515Q112 477 125 465Q138 453 158 453H164Q183 453 197.5 463Q212 473 215 499L216 507Q222 554 175 554H122L131 624H183Q205 624 218.5 633.5Q232 643 235 666L236 674Q238 694 227 705Q216 716 197 716H191Q168 716 154 702Q140 688 137 650H57L58 658Q66 721 98.5 753.5Q131 786 194 786Q230 786 255 776.5Q280 767 294.5 751Q309 735 314 715.5Q319 696 317 677L316 669Q311 636 295 615.5Q279 595 255 588Q278 581 289.5 557.5Q301 534 296 499L295 491Q293 472 284.5 453Q276 434 259.5 418.5Q243 403 219 393Q195 383 161 383Q90 383 59.5 417.5Q29 452 36 507L37 515Z" glyph-name="threesixteenths" horiz-adv-x="1100" unicode="&#61974;" /><glyph d="M117 515Q112 477 125 465Q138 453 158 453H164Q183 453 197.5 463Q212 473 215 499L216 507Q222 554 175 554H122L131 624H183Q205 624 218.5 633.5Q232 643 235 666L236 674Q238 694 227 705Q216 716 197 716H191Q168 716 154 702Q140 688 137 650H57L58 658Q66 721 98.5 753.5Q131 786 194 786Q230 786 255 776.5Q280 767 294.5 751Q309 735 314 715.5Q319 696 317 677L316 669Q311 636 295 615.5Q279 595 255 588Q278 581 289.5 557.5Q301 534 296 499L295 491Q293 472 284.5 453Q276 434 259.5 418.5Q243 403 219 393Q195 383 161 383Q90 383 59.5 417.5Q29 452 36 507L37 515Z" glyph-name="threesuperior" horiz-adv-x="300" unicode="&#179;" /><glyph d="M472 755Q469 694 438.5 663Q408 632 364 632Q339 632 320 640.5Q301 649 285 659Q269 669 254.5 677.5Q240 686 225 686Q211 686 199 677.5Q187 669 184 645H113Q116 706 146.5 737Q177 768 221 768Q246 768 265 759.5Q284 751 300 741Q316 731 330.5 722.5Q345 714 360 714Q374 714 386 722.5Q398 731 401 755Z" glyph-name="tilde" horiz-adv-x="500" unicode="&#732;" /><glyph d="M487 940Q480 886 451.5 862Q423 838 386 838Q364 838 345.5 846Q327 854 310.5 863.5Q294 873 279.5 881Q265 889 250 889Q237 889 225.5 880Q214 871 211 850H149Q156 904 184.5 928Q213 952 250 952Q272 952 290.5 944Q309 936 325.5 926.5Q342 917 356.5 909Q371 901 386 901Q399 901 410.5 910Q422 919 425 940Z" glyph-name="tilde.cap" horiz-adv-x="500" unicode="&#58404;" /><glyph d="M389 530H335L284 719L286 654V530H237V800H312L362 613L412 800H487V530H437V654L439 719ZM137 530H87V756H18V800H205V756H137Z" glyph-name="trademark" horiz-adv-x="536" unicode="&#8482;" /><glyph d="M63 780H165L465 96L765 780H867L515 -12H415Z" glyph-name="triagdn" horiz-adv-x="930" unicode="&#9660;" /><glyph d="M850 792V690L166 390L850 90V-12L58 340V440Z" glyph-name="triaglf" horiz-adv-x="930" unicode="&#9668;" /><glyph d="M872 340 80 -12V90L764 390L80 690V792L872 440Z" glyph-name="triagrt" horiz-adv-x="930" unicode="&#9658;" /><glyph d="M867 0H765L465 684L165 0H63L415 792H515Z" glyph-name="triagup" horiz-adv-x="930" unicode="&#9650;" /><glyph d="M359 780 312 492H237L265 780ZM511 780 454 492H379L407 780ZM217 780 170 492H94L114 780Z" glyph-name="tripleprime" horiz-adv-x="519" unicode="&#8244;" /><glyph d="M511 92 499 0H2L11 67L380 413Q403 435 418.5 452Q434 469 444.5 485.5Q455 502 461 519.5Q467 537 470 560L471 568Q479 633 445 667Q411 701 348 701H340Q271 701 228.5 659.5Q186 618 173 520H70L74 547Q92 668 156.5 730Q221 792 346 792Q410 792 456 775.5Q502 759 530.5 730Q559 701 570.5 662Q582 623 576 578L573 556Q569 527 561.5 504.5Q554 482 540.5 460Q527 438 507 415.5Q487 393 458 366L164 91L237 92Z" glyph-name="two" horiz-adv-x="600" unicode="2" /><glyph d="M212 -130 203 -200H-53L-46 -150L125 16Q142 33 149 44Q156 55 158 69L159 77Q162 103 151.5 114.5Q141 126 121 126H115Q92 126 78 112Q64 98 61 60H-19L-18 68Q-10 131 22.5 163.5Q55 196 118 196Q154 196 179 186Q204 176 218 160.5Q232 145 237.5 124.5Q243 104 240 83L239 75Q235 45 222.5 25Q210 5 183 -21L69 -131L105 -130Z" glyph-name="two.inf" horiz-adv-x="300" unicode="&#58739;" /><glyph d="M288 460 279 390H23L30 440L201 606Q218 623 225 634Q232 645 234 659L235 667Q238 693 227.5 704.5Q217 716 197 716H191Q168 716 154 702Q140 688 137 650H57L58 658Q66 721 98.5 753.5Q131 786 194 786Q230 786 255 776Q280 766 294 750.5Q308 735 313.5 714.5Q319 694 316 673L315 665Q311 635 298.5 615Q286 595 259 569L145 459L181 460Z" glyph-name="twosuperior" horiz-adv-x="300" unicode="&#178;" /><glyph d="M176 530 130 180Q124 133 145 104.5Q166 76 218 76Q243 76 264.5 83.5Q286 91 303 102Q320 113 332.5 125.5Q345 138 353 149L403 530H503L453 150L441 0H355V71Q326 34 281.5 11Q237 -12 176 -12Q133 -12 103 2.5Q73 17 55 41.5Q37 66 30 98Q23 130 28 165L76 530Z" glyph-name="u" horiz-adv-x="545" unicode="u" /><glyph d="M176 530 130 180Q124 133 145 104.5Q166 76 218 76Q243 76 264.5 83.5Q286 91 303 102Q320 113 332.5 125.5Q345 138 353 149L403 530H503L453 150L441 0H355V71Q326 34 281.5 11Q237 -12 176 -12Q133 -12 103 2.5Q73 17 55 41.5Q37 66 30 98Q23 130 28 165L76 530ZM473 780 351 607H249L363 780Z" glyph-name="uacute" horiz-adv-x="545" unicode="&#250;" /><glyph d="M176 530 130 180Q124 133 145 104.5Q166 76 218 76Q243 76 264.5 83.5Q286 91 303 102Q320 113 332.5 125.5Q345 138 353 149L403 530H503L453 150L441 0H355V71Q326 34 281.5 11Q237 -12 176 -12Q133 -12 103 2.5Q73 17 55 41.5Q37 66 30 98Q23 130 28 165L76 530ZM305 595Q259 595 227 609Q195 623 176.5 647.5Q158 672 152.5 706Q147 740 153 780H228Q221 730 240 702.5Q259 675 305 675Q403 675 414 780H493Q488 738 475.5 703.5Q463 669 440.5 645Q418 621 384.5 608Q351 595 305 595Z" glyph-name="ubreve" horiz-adv-x="545" unicode="&#365;" /><glyph d="M176 530 130 180Q124 133 145 104.5Q166 76 218 76Q243 76 264.5 83.5Q286 91 303 102Q320 113 332.5 125.5Q345 138 353 149L403 530H503L453 150L441 0H355V71Q326 34 281.5 11Q237 -12 176 -12Q133 -12 103 2.5Q73 17 55 41.5Q37 66 30 98Q23 130 28 165L76 530ZM121 607 276 780H370L479 607H387L316 708L217 607Z" glyph-name="ucircumflex" horiz-adv-x="545" unicode="&#251;" /><glyph d="M176 530 130 180Q124 133 145 104.5Q166 76 218 76Q243 76 264.5 83.5Q286 91 303 102Q320 113 332.5 125.5Q345 138 353 149L403 530H503L453 150L441 0H355V71Q326 34 281.5 11Q237 -12 176 -12Q133 -12 103 2.5Q73 17 55 41.5Q37 66 30 98Q23 130 28 165L76 530ZM453 640H339L354 754H468ZM270 640H156L171 754H285Z" glyph-name="udieresis" horiz-adv-x="545" unicode="&#252;" /><glyph d="M176 530 130 180Q124 133 145 104.5Q166 76 218 76Q243 76 264.5 83.5Q286 91 303 102Q320 113 332.5 125.5Q345 138 353 149L403 530H503L453 150L441 0H355V71Q326 34 281.5 11Q237 -12 176 -12Q133 -12 103 2.5Q73 17 55 41.5Q37 66 30 98Q23 130 28 165L76 530ZM283 780 351 607H249L173 780Z" glyph-name="ugrave" horiz-adv-x="545" unicode="&#249;" /><glyph d="M176 530 130 180Q124 133 145 104.5Q166 76 218 76Q243 76 264.5 83.5Q286 91 303 102Q320 113 332.5 125.5Q345 138 353 149L403 530H503L453 150L441 0H355V71Q326 34 281.5 11Q237 -12 176 -12Q133 -12 103 2.5Q73 17 55 41.5Q37 66 30 98Q23 130 28 165L76 530ZM532 780 410 607H325L439 780ZM384 780 274 607H189L290 780Z" glyph-name="uhungarumlaut" horiz-adv-x="545" unicode="&#369;" /><glyph d="M176 530 130 180Q124 133 145 104.5Q166 76 218 76Q243 76 264.5 83.5Q286 91 303 102Q320 113 332.5 125.5Q345 138 353 149L403 530H503L453 150L441 0H355V71Q326 34 281.5 11Q237 -12 176 -12Q133 -12 103 2.5Q73 17 55 41.5Q37 66 30 98Q23 130 28 165L76 530ZM190 742H447L435 652H178Z" glyph-name="umacron" horiz-adv-x="545" unicode="&#363;" /><glyph d="M-12 -63H216L204 -153H-24Z" glyph-name="underscore" horiz-adv-x="320" unicode="_" /><glyph d="M-12 -63H496L484 -153H-24Z" glyph-name="underscoremonospace" horiz-adv-x="600" unicode="&#65343;" /><glyph d="M43 395H300L288 305H31Z" glyph-name="uni00AD" horiz-adv-x="337" unicode="&#173;" /><glyph d="M43 395H1163L1151 305H31Z" glyph-name="uni2015" horiz-adv-x="1200" unicode="&#8213;" /><glyph d="M48 435H1168L1156 345H36Z" glyph-name="uni2015.cap" horiz-adv-x="1200" unicode="&#58504;" /><glyph d="M235 669Q241 716 194 716H192Q167 716 155.5 705.5Q144 695 140 668L118 501Q115 478 125 465.5Q135 453 159 453H161Q185 453 197 464Q209 475 213 501ZM293 501Q285 441 254 412Q223 383 157 383Q91 383 61 415Q31 447 38 501L60 669Q68 729 99 757.5Q130 786 196 786Q262 786 292 754.5Q322 723 315 669Z" glyph-name="uni2070" horiz-adv-x="300" unicode="&#8304;" /><glyph d="M118 544 144 545H186L196 623L200 652ZM165 390 177 475H25L33 533L221 780H297L266 545H308L299 475H257L245 390Z" glyph-name="uni2074" horiz-adv-x="300" unicode="&#8308;" /><glyph d="M117 515Q112 477 125 465Q138 453 158 453H164Q183 453 198 466Q213 479 217 509L218 517Q222 548 207.5 560.5Q193 573 174 573H168Q152 573 137 566Q122 559 112 543L46 566L84 780H327L318 710H142L126 623Q152 643 192 643Q249 643 277 607Q305 571 298 517L297 509Q289 451 254.5 417Q220 383 161 383Q90 383 59.5 417.5Q29 452 36 507L37 515Z" glyph-name="uni2075" horiz-adv-x="300" unicode="&#8309;" /><glyph d="M120 536Q118 531 117 523Q116 515 116 508Q116 479 129 466Q142 453 159 453H165Q188 453 201 465.5Q214 478 218 507L219 515Q222 540 209.5 553Q197 566 178 566H173Q159 566 145 558.5Q131 551 120 536ZM306 715Q263 715 232.5 706Q202 697 176 674Q164 663 154 646.5Q144 630 139 613Q164 636 207 636Q255 636 280.5 603.5Q306 571 299 517L298 509Q290 451 257 417Q224 383 162 383Q127 383 102 394Q77 405 62 425Q47 445 42 472.5Q37 500 41 532L42 540Q44 559 49.5 583Q55 607 64 631.5Q73 656 87.5 679.5Q102 703 122 722Q162 760 209 773Q256 786 315 786Z" glyph-name="uni2076" horiz-adv-x="300" unicode="&#8310;" /><glyph d="M70 780H335L329 731L146 390H60L236 711L189 710H131L122 640H52Z" glyph-name="uni2077" horiz-adv-x="300" unicode="&#8311;" /><glyph d="M190 716Q146 716 140 674L139 666Q137 646 148.5 635Q160 624 177 624H182Q204 624 218 633.5Q232 643 235 666L236 674Q238 694 226.5 705Q215 716 196 716ZM167 554Q147 554 133 542.5Q119 531 116 507L115 499Q112 476 125 464.5Q138 453 158 453H164Q183 453 197.5 463Q212 473 215 499L216 507Q222 554 174 554ZM158 383Q124 383 99.5 392.5Q75 402 60 417.5Q45 433 38.5 453.5Q32 474 35 496L36 504Q41 539 58 559Q75 579 101 588Q81 594 68.5 619.5Q56 645 60 674L61 682Q63 700 71 718.5Q79 737 94.5 752Q110 767 134 776.5Q158 786 194 786Q230 786 255 776.5Q280 767 294.5 751Q309 735 314 715.5Q319 696 317 677L316 669Q312 638 295.5 616.5Q279 595 255 588Q278 581 289.5 557.5Q301 534 296 499L295 491Q293 472 284 453Q275 434 258.5 418.5Q242 403 217 393Q192 383 158 383Z" glyph-name="uni2078" horiz-adv-x="300" unicode="&#8312;" /><glyph d="M234 633Q236 638 237 646Q238 654 238 661Q238 690 225 703Q212 716 195 716H189Q166 716 153 703.5Q140 691 136 662L135 654Q132 629 144.5 616Q157 603 176 603H181Q195 603 209 610.5Q223 618 234 633ZM48 454Q91 454 121.5 463Q152 472 178 495Q190 506 200 522.5Q210 539 215 556Q190 533 147 533Q99 533 73.5 565.5Q48 598 55 652L56 660Q64 718 97 752Q130 786 192 786Q227 786 252 775Q277 764 292 744Q307 724 312 696.5Q317 669 313 637L312 629Q310 609 304.5 585.5Q299 562 290 537.5Q281 513 266.5 489.5Q252 466 232 447Q192 409 145 396Q98 383 39 383Z" glyph-name="uni2079" horiz-adv-x="300" unicode="&#8313;" /><glyph d="M231 714 219 622H311L301 548H209L197 456H123L135 548H43L53 622H145L157 714Z" glyph-name="uni207A" horiz-adv-x="300" unicode="&#8314;" /><glyph d="M53 622H311L301 548H43Z" glyph-name="uni207B" horiz-adv-x="300" unicode="&#8315;" /><glyph d="M46 567H304L294 493H36ZM60 676H318L308 602H50Z" glyph-name="uni207C" horiz-adv-x="300" unicode="&#8316;" /><glyph d="M49 589Q57 657 79.5 703Q102 749 133 780H223Q195 748 167.5 699.5Q140 651 132 589L131 581Q127 552 129.5 523Q132 494 138 469Q144 444 152 423.5Q160 403 168 390H86Q78 403 69.5 423Q61 443 55 468Q49 493 46.5 522Q44 551 48 581Z" glyph-name="uni207D" horiz-adv-x="185" unicode="&#8317;" /><glyph d="M190 581Q182 513 159.5 467Q137 421 106 390H16Q44 422 71.5 470.5Q99 519 107 581L108 589Q112 618 109.5 647Q107 676 101 701Q95 726 86.5 746.5Q78 767 71 780H153Q161 767 169.5 747Q178 727 184 702Q190 677 192.5 648Q195 619 191 589Z" glyph-name="uni207E" horiz-adv-x="185" unicode="&#8318;" /><glyph d="M185 279Q191 326 144 326H142Q117 326 105.5 315.5Q94 305 90 278L68 111Q65 88 75 75.5Q85 63 109 63H111Q135 63 147 74Q159 85 163 111ZM243 111Q235 51 204 22Q173 -7 107 -7Q41 -7 11 25Q-19 57 -12 111L10 279Q18 339 49 367.5Q80 396 146 396Q212 396 242 364.5Q272 333 265 279Z" glyph-name="uni2080" horiz-adv-x="300" unicode="&#8320;" /><glyph d="M-18 0 -9 70H76L105 291L38 250L6 308L139 390H198L156 70H242L233 0Z" glyph-name="uni2081" horiz-adv-x="300" unicode="&#8321;" /><glyph d="M238 70 229 0H-27L-20 50L151 216Q168 233 175 244Q182 255 184 269L185 277Q188 303 177.5 314.5Q167 326 147 326H141Q118 326 104 312Q90 298 87 260H7L8 268Q16 331 48.5 363.5Q81 396 144 396Q180 396 205 386Q230 376 244 360.5Q258 345 263.5 324.5Q269 304 266 283L265 275Q261 245 248.5 225Q236 205 209 179L95 69L131 70Z" glyph-name="uni2082" horiz-adv-x="300" unicode="&#8322;" /><glyph d="M67 125Q62 87 75 75Q88 63 108 63H114Q133 63 147.5 73Q162 83 165 109L166 117Q172 164 125 164H72L81 234H133Q155 234 168.5 243.5Q182 253 185 276L186 284Q188 304 177 315Q166 326 147 326H141Q118 326 104 312Q90 298 87 260H7L8 268Q16 331 48.5 363.5Q81 396 144 396Q180 396 205 386.5Q230 377 244.5 361Q259 345 264 325.5Q269 306 267 287L266 279Q261 246 245 225.5Q229 205 205 198Q228 191 239.5 167.5Q251 144 246 109L245 101Q243 82 234.5 63Q226 44 209.5 28.5Q193 13 169 3Q145 -7 111 -7Q40 -7 9.5 27.5Q-21 62 -14 117L-13 125Z" glyph-name="uni2083" horiz-adv-x="300" unicode="&#8323;" /><glyph d="M68 154 94 155H136L146 233L150 262ZM115 0 127 85H-25L-17 143L171 390H247L216 155H258L249 85H207L195 0Z" glyph-name="uni2084" horiz-adv-x="300" unicode="&#8324;" /><glyph d="M67 125Q62 87 75 75Q88 63 108 63H114Q133 63 148 76Q163 89 167 119L168 127Q172 158 157.5 170.5Q143 183 124 183H118Q102 183 87 176Q72 169 62 153L-4 176L34 390H277L268 320H92L76 233Q102 253 142 253Q199 253 227 217Q255 181 248 127L247 119Q239 61 204.5 27Q170 -7 111 -7Q40 -7 9.5 27.5Q-21 62 -14 117L-13 125Z" glyph-name="uni2085" horiz-adv-x="300" unicode="&#8325;" /><glyph d="M70 146Q68 141 67 133Q66 125 66 118Q66 89 79 76Q92 63 109 63H115Q138 63 151 75.5Q164 88 168 117L169 125Q172 150 159.5 163Q147 176 128 176H123Q109 176 95 168.5Q81 161 70 146ZM256 325Q213 325 182.5 316Q152 307 126 284Q114 273 104 256.5Q94 240 89 223Q114 246 157 246Q205 246 230.5 213.5Q256 181 249 127L248 119Q240 61 207 27Q174 -7 112 -7Q77 -7 52 4Q27 15 12 35Q-3 55 -8 82.5Q-13 110 -9 142L-8 150Q-6 169 -0.5 193Q5 217 14 241.5Q23 266 37.5 289.5Q52 313 72 332Q112 370 159 383Q206 396 265 396Z" glyph-name="uni2086" horiz-adv-x="300" unicode="&#8326;" /><glyph d="M20 390H285L279 341L96 0H10L186 321L139 320H81L72 250H2Z" glyph-name="uni2087" horiz-adv-x="300" unicode="&#8327;" /><glyph d="M140 326Q96 326 90 284L89 276Q87 256 98.5 245Q110 234 127 234H132Q154 234 168 243.5Q182 253 185 276L186 284Q188 304 176.5 315Q165 326 146 326ZM117 164Q97 164 83 152.5Q69 141 66 117L65 109Q62 86 75 74.5Q88 63 108 63H114Q133 63 147.5 73Q162 83 165 109L166 117Q172 164 124 164ZM108 -7Q74 -7 49.5 2.5Q25 12 10 27.5Q-5 43 -11.5 63.5Q-18 84 -15 106L-14 114Q-9 149 8 169Q25 189 51 198Q31 204 18.5 229.5Q6 255 10 284L11 292Q13 310 21 328.5Q29 347 44.5 362Q60 377 84 386.5Q108 396 144 396Q180 396 205 386.5Q230 377 244.5 361Q259 345 264 325.5Q269 306 267 287L266 279Q262 248 245.5 226.5Q229 205 205 198Q228 191 239.5 167.5Q251 144 246 109L245 101Q243 82 234 63Q225 44 208.5 28.5Q192 13 167 3Q142 -7 108 -7Z" glyph-name="uni2088" horiz-adv-x="300" unicode="&#8328;" /><glyph d="M184 243Q186 248 187 256Q188 264 188 271Q188 300 175 313Q162 326 145 326H139Q116 326 103 313.5Q90 301 86 272L85 264Q82 239 94.5 226Q107 213 126 213H131Q145 213 159 220.5Q173 228 184 243ZM-2 64Q41 64 71.5 73Q102 82 128 105Q140 116 150 132.5Q160 149 165 166Q140 143 97 143Q49 143 23.5 175.5Q-2 208 5 262L6 270Q14 328 47 362Q80 396 142 396Q177 396 202 385Q227 374 242 354Q257 334 262 306.5Q267 279 263 247L262 239Q260 219 254.5 195.5Q249 172 240 147.5Q231 123 216.5 99.5Q202 76 182 57Q142 19 95 6Q48 -7 -11 -7Z" glyph-name="uni2089" horiz-adv-x="300" unicode="&#8329;" /><glyph d="M181 324 169 232H261L251 158H159L147 66H73L85 158H-7L3 232H95L107 324Z" glyph-name="uni208A" horiz-adv-x="300" unicode="&#8330;" /><glyph d="M3 232H261L251 158H-7Z" glyph-name="uni208B" horiz-adv-x="300" unicode="&#8331;" /><glyph d="M-4 177H254L244 103H-14ZM10 286H268L258 212H0Z" glyph-name="uni208C" horiz-adv-x="300" unicode="&#8332;" /><glyph d="M-1 199Q7 267 29.5 313Q52 359 83 390H173Q145 358 117.5 309.5Q90 261 82 199L81 191Q77 162 79.5 133Q82 104 88 79Q94 54 102 33.5Q110 13 118 0H36Q28 13 19.5 33Q11 53 5 78Q-1 103 -3.5 132Q-6 161 -2 191Z" glyph-name="uni208D" horiz-adv-x="185" unicode="&#8333;" /><glyph d="M140 191Q132 123 109.5 77Q87 31 56 0H-34Q-6 32 21.5 80.5Q49 129 57 191L58 199Q62 228 59.5 257Q57 286 51 311Q45 336 36.5 356.5Q28 377 21 390H103Q111 377 119.5 357Q128 337 134 312Q140 287 142.5 258Q145 229 141 199Z" glyph-name="uni208E" horiz-adv-x="185" unicode="&#8334;" /><glyph d="M567 125Q562 87 575 75Q588 63 608 63H614Q633 63 647.5 73Q662 83 665 109L666 117Q672 164 625 164H572L581 234H633Q655 234 668.5 243.5Q682 253 685 276L686 284Q688 304 677 315Q666 326 647 326H641Q618 326 604 312Q590 298 587 260H507L508 268Q516 331 548.5 363.5Q581 396 644 396Q680 396 705 386.5Q730 377 744.5 361Q759 345 764 325.5Q769 306 767 287L766 279Q761 246 745 225.5Q729 205 705 198Q728 191 739.5 167.5Q751 144 746 109L745 101Q743 82 734.5 63Q726 44 709.5 28.5Q693 13 669 3Q645 -7 611 -7Q540 -7 509.5 27.5Q479 62 486 117L487 125ZM12 0 690 780H792L114 0ZM32 390 41 460H126L155 681L88 640L56 698L189 780H248L206 460H292L283 390Z" glyph-name="uni2153" horiz-adv-x="800" unicode="&#8531;" /><glyph d="M567 125Q562 87 575 75Q588 63 608 63H614Q633 63 647.5 73Q662 83 665 109L666 117Q672 164 625 164H572L581 234H633Q655 234 668.5 243.5Q682 253 685 276L686 284Q688 304 677 315Q666 326 647 326H641Q618 326 604 312Q590 298 587 260H507L508 268Q516 331 548.5 363.5Q581 396 644 396Q680 396 705 386.5Q730 377 744.5 361Q759 345 764 325.5Q769 306 767 287L766 279Q761 246 745 225.5Q729 205 705 198Q728 191 739.5 167.5Q751 144 746 109L745 101Q743 82 734.5 63Q726 44 709.5 28.5Q693 13 669 3Q645 -7 611 -7Q540 -7 509.5 27.5Q479 62 486 117L487 125ZM12 0 690 780H792L114 0ZM288 460 279 390H23L30 440L201 606Q218 623 225 634Q232 645 234 659L235 667Q238 693 227.5 704.5Q217 716 197 716H191Q168 716 154 702Q140 688 137 650H57L58 658Q66 721 98.5 753.5Q131 786 194 786Q230 786 255 776Q280 766 294 750.5Q308 735 313.5 714.5Q319 694 316 673L315 665Q311 635 298.5 615Q286 595 259 569L145 459L181 460Z" glyph-name="uni2154" horiz-adv-x="800" unicode="&#8532;" /><glyph d="M567 125Q562 87 575 75Q588 63 608 63H614Q633 63 648 76Q663 89 667 119L668 127Q672 158 657.5 170.5Q643 183 624 183H618Q602 183 587 176Q572 169 562 153L496 176L534 390H777L768 320H592L576 233Q602 253 642 253Q699 253 727 217Q755 181 748 127L747 119Q739 61 704.5 27Q670 -7 611 -7Q540 -7 509.5 27.5Q479 62 486 117L487 125ZM12 0 690 780H792L114 0ZM32 390 41 460H126L155 681L88 640L56 698L189 780H248L206 460H292L283 390Z" glyph-name="uni2155" horiz-adv-x="800" unicode="&#8533;" /><glyph d="M567 125Q562 87 575 75Q588 63 608 63H614Q633 63 648 76Q663 89 667 119L668 127Q672 158 657.5 170.5Q643 183 624 183H618Q602 183 587 176Q572 169 562 153L496 176L534 390H777L768 320H592L576 233Q602 253 642 253Q699 253 727 217Q755 181 748 127L747 119Q739 61 704.5 27Q670 -7 611 -7Q540 -7 509.5 27.5Q479 62 486 117L487 125ZM12 0 690 780H792L114 0ZM288 460 279 390H23L30 440L201 606Q218 623 225 634Q232 645 234 659L235 667Q238 693 227.5 704.5Q217 716 197 716H191Q168 716 154 702Q140 688 137 650H57L58 658Q66 721 98.5 753.5Q131 786 194 786Q230 786 255 776Q280 766 294 750.5Q308 735 313.5 714.5Q319 694 316 673L315 665Q311 635 298.5 615Q286 595 259 569L145 459L181 460Z" glyph-name="uni2156" horiz-adv-x="800" unicode="&#8534;" /><glyph d="M567 125Q562 87 575 75Q588 63 608 63H614Q633 63 648 76Q663 89 667 119L668 127Q672 158 657.5 170.5Q643 183 624 183H618Q602 183 587 176Q572 169 562 153L496 176L534 390H777L768 320H592L576 233Q602 253 642 253Q699 253 727 217Q755 181 748 127L747 119Q739 61 704.5 27Q670 -7 611 -7Q540 -7 509.5 27.5Q479 62 486 117L487 125ZM12 0 690 780H792L114 0ZM117 515Q112 477 125 465Q138 453 158 453H164Q183 453 197.5 463Q212 473 215 499L216 507Q222 554 175 554H122L131 624H183Q205 624 218.5 633.5Q232 643 235 666L236 674Q238 694 227 705Q216 716 197 716H191Q168 716 154 702Q140 688 137 650H57L58 658Q66 721 98.5 753.5Q131 786 194 786Q230 786 255 776.5Q280 767 294.5 751Q309 735 314 715.5Q319 696 317 677L316 669Q311 636 295 615.5Q279 595 255 588Q278 581 289.5 557.5Q301 534 296 499L295 491Q293 472 284.5 453Q276 434 259.5 418.5Q243 403 219 393Q195 383 161 383Q90 383 59.5 417.5Q29 452 36 507L37 515Z" glyph-name="uni2157" horiz-adv-x="800" unicode="&#8535;" /><glyph d="M567 125Q562 87 575 75Q588 63 608 63H614Q633 63 648 76Q663 89 667 119L668 127Q672 158 657.5 170.5Q643 183 624 183H618Q602 183 587 176Q572 169 562 153L496 176L534 390H777L768 320H592L576 233Q602 253 642 253Q699 253 727 217Q755 181 748 127L747 119Q739 61 704.5 27Q670 -7 611 -7Q540 -7 509.5 27.5Q479 62 486 117L487 125ZM12 0 690 780H792L114 0ZM118 544 144 545H186L196 623L200 652ZM165 390 177 475H25L33 533L221 780H297L266 545H308L299 475H257L245 390Z" glyph-name="uni2158" horiz-adv-x="800" unicode="&#8536;" /><glyph d="M570 146Q568 141 567 133Q566 125 566 118Q566 89 579 76Q592 63 609 63H615Q638 63 651 75.5Q664 88 668 117L669 125Q672 150 659.5 163Q647 176 628 176H623Q609 176 595 168.5Q581 161 570 146ZM756 325Q713 325 682.5 316Q652 307 626 284Q614 273 604 256.5Q594 240 589 223Q614 246 657 246Q705 246 730.5 213.5Q756 181 749 127L748 119Q740 61 707 27Q674 -7 612 -7Q577 -7 552 4Q527 15 512 35Q497 55 492 82.5Q487 110 491 142L492 150Q494 169 499.5 193Q505 217 514 241.5Q523 266 537.5 289.5Q552 313 572 332Q612 370 659 383Q706 396 765 396ZM12 0 690 780H792L114 0ZM32 390 41 460H126L155 681L88 640L56 698L189 780H248L206 460H292L283 390Z" glyph-name="uni2159" horiz-adv-x="800" unicode="&#8537;" /><glyph d="M570 146Q568 141 567 133Q566 125 566 118Q566 89 579 76Q592 63 609 63H615Q638 63 651 75.5Q664 88 668 117L669 125Q672 150 659.5 163Q647 176 628 176H623Q609 176 595 168.5Q581 161 570 146ZM756 325Q713 325 682.5 316Q652 307 626 284Q614 273 604 256.5Q594 240 589 223Q614 246 657 246Q705 246 730.5 213.5Q756 181 749 127L748 119Q740 61 707 27Q674 -7 612 -7Q577 -7 552 4Q527 15 512 35Q497 55 492 82.5Q487 110 491 142L492 150Q494 169 499.5 193Q505 217 514 241.5Q523 266 537.5 289.5Q552 313 572 332Q612 370 659 383Q706 396 765 396ZM12 0 690 780H792L114 0ZM117 515Q112 477 125 465Q138 453 158 453H164Q183 453 198 466Q213 479 217 509L218 517Q222 548 207.5 560.5Q193 573 174 573H168Q152 573 137 566Q122 559 112 543L46 566L84 780H327L318 710H142L126 623Q152 643 192 643Q249 643 277 607Q305 571 298 517L297 509Q289 451 254.5 417Q220 383 161 383Q90 383 59.5 417.5Q29 452 36 507L37 515Z" glyph-name="uni215A" horiz-adv-x="800" unicode="&#8538;" /><glyph d="M640 326Q596 326 590 284L589 276Q587 256 598.5 245Q610 234 627 234H632Q654 234 668 243.5Q682 253 685 276L686 284Q688 304 676.5 315Q665 326 646 326ZM617 164Q597 164 583 152.5Q569 141 566 117L565 109Q562 86 575 74.5Q588 63 608 63H614Q633 63 647.5 73Q662 83 665 109L666 117Q672 164 624 164ZM608 -7Q574 -7 549.5 2.5Q525 12 510 27.5Q495 43 488.5 63.5Q482 84 485 106L486 114Q491 149 508 169Q525 189 551 198Q531 204 518.5 229.5Q506 255 510 284L511 292Q513 310 521 328.5Q529 347 544.5 362Q560 377 584 386.5Q608 396 644 396Q680 396 705 386.5Q730 377 744.5 361Q759 345 764 325.5Q769 306 767 287L766 279Q762 248 745.5 226.5Q729 205 705 198Q728 191 739.5 167.5Q751 144 746 109L745 101Q743 82 734 63Q725 44 708.5 28.5Q692 13 667 3Q642 -7 608 -7ZM12 0 690 780H792L114 0ZM32 390 41 460H126L155 681L88 640L56 698L189 780H248L206 460H292L283 390Z" glyph-name="uni215B" horiz-adv-x="800" unicode="&#8539;" /><glyph d="M640 326Q596 326 590 284L589 276Q587 256 598.5 245Q610 234 627 234H632Q654 234 668 243.5Q682 253 685 276L686 284Q688 304 676.5 315Q665 326 646 326ZM617 164Q597 164 583 152.5Q569 141 566 117L565 109Q562 86 575 74.5Q588 63 608 63H614Q633 63 647.5 73Q662 83 665 109L666 117Q672 164 624 164ZM608 -7Q574 -7 549.5 2.5Q525 12 510 27.5Q495 43 488.5 63.5Q482 84 485 106L486 114Q491 149 508 169Q525 189 551 198Q531 204 518.5 229.5Q506 255 510 284L511 292Q513 310 521 328.5Q529 347 544.5 362Q560 377 584 386.5Q608 396 644 396Q680 396 705 386.5Q730 377 744.5 361Q759 345 764 325.5Q769 306 767 287L766 279Q762 248 745.5 226.5Q729 205 705 198Q728 191 739.5 167.5Q751 144 746 109L745 101Q743 82 734 63Q725 44 708.5 28.5Q692 13 667 3Q642 -7 608 -7ZM12 0 690 780H792L114 0ZM117 515Q112 477 125 465Q138 453 158 453H164Q183 453 197.5 463Q212 473 215 499L216 507Q222 554 175 554H122L131 624H183Q205 624 218.5 633.5Q232 643 235 666L236 674Q238 694 227 705Q216 716 197 716H191Q168 716 154 702Q140 688 137 650H57L58 658Q66 721 98.5 753.5Q131 786 194 786Q230 786 255 776.5Q280 767 294.5 751Q309 735 314 715.5Q319 696 317 677L316 669Q311 636 295 615.5Q279 595 255 588Q278 581 289.5 557.5Q301 534 296 499L295 491Q293 472 284.5 453Q276 434 259.5 418.5Q243 403 219 393Q195 383 161 383Q90 383 59.5 417.5Q29 452 36 507L37 515Z" glyph-name="uni215C" horiz-adv-x="800" unicode="&#8540;" /><glyph d="M640 326Q596 326 590 284L589 276Q587 256 598.5 245Q610 234 627 234H632Q654 234 668 243.5Q682 253 685 276L686 284Q688 304 676.5 315Q665 326 646 326ZM617 164Q597 164 583 152.5Q569 141 566 117L565 109Q562 86 575 74.5Q588 63 608 63H614Q633 63 647.5 73Q662 83 665 109L666 117Q672 164 624 164ZM608 -7Q574 -7 549.5 2.5Q525 12 510 27.5Q495 43 488.5 63.5Q482 84 485 106L486 114Q491 149 508 169Q525 189 551 198Q531 204 518.5 229.5Q506 255 510 284L511 292Q513 310 521 328.5Q529 347 544.5 362Q560 377 584 386.5Q608 396 644 396Q680 396 705 386.5Q730 377 744.5 361Q759 345 764 325.5Q769 306 767 287L766 279Q762 248 745.5 226.5Q729 205 705 198Q728 191 739.5 167.5Q751 144 746 109L745 101Q743 82 734 63Q725 44 708.5 28.5Q692 13 667 3Q642 -7 608 -7ZM12 0 690 780H792L114 0ZM117 515Q112 477 125 465Q138 453 158 453H164Q183 453 198 466Q213 479 217 509L218 517Q222 548 207.5 560.5Q193 573 174 573H168Q152 573 137 566Q122 559 112 543L46 566L84 780H327L318 710H142L126 623Q152 643 192 643Q249 643 277 607Q305 571 298 517L297 509Q289 451 254.5 417Q220 383 161 383Q90 383 59.5 417.5Q29 452 36 507L37 515Z" glyph-name="uni215D" horiz-adv-x="800" unicode="&#8541;" /><glyph d="M640 326Q596 326 590 284L589 276Q587 256 598.5 245Q610 234 627 234H632Q654 234 668 243.5Q682 253 685 276L686 284Q688 304 676.5 315Q665 326 646 326ZM617 164Q597 164 583 152.5Q569 141 566 117L565 109Q562 86 575 74.5Q588 63 608 63H614Q633 63 647.5 73Q662 83 665 109L666 117Q672 164 624 164ZM608 -7Q574 -7 549.5 2.5Q525 12 510 27.5Q495 43 488.5 63.5Q482 84 485 106L486 114Q491 149 508 169Q525 189 551 198Q531 204 518.5 229.5Q506 255 510 284L511 292Q513 310 521 328.5Q529 347 544.5 362Q560 377 584 386.5Q608 396 644 396Q680 396 705 386.5Q730 377 744.5 361Q759 345 764 325.5Q769 306 767 287L766 279Q762 248 745.5 226.5Q729 205 705 198Q728 191 739.5 167.5Q751 144 746 109L745 101Q743 82 734 63Q725 44 708.5 28.5Q692 13 667 3Q642 -7 608 -7ZM12 0 690 780H792L114 0ZM70 780H335L329 731L146 390H60L236 711L189 710H131L122 640H52Z" glyph-name="uni215E" horiz-adv-x="800" unicode="&#8542;" /><glyph d="M12 0 690 780H792L114 0ZM32 390 41 460H126L155 681L88 640L56 698L189 780H248L206 460H292L283 390Z" glyph-name="uni215F" horiz-adv-x="500" unicode="&#8543;" /><glyph d="M70 0V780H850V687H228L862 53L797 -12L163 622V0Z" glyph-name="uni2196" horiz-adv-x="920" unicode="&#8598;" /><glyph d="M70 780H850V0H757V622L123 -12L58 53L692 687H70Z" glyph-name="uni2197" horiz-adv-x="920" unicode="&#8599;" /><glyph d="M70 93H692L58 727L123 792L757 158V780H850V0H70Z" glyph-name="uni2198" horiz-adv-x="920" unicode="&#8600;" /><glyph d="M850 0H70V780H163V158L797 792L862 727L228 93H850Z" glyph-name="uni2199" horiz-adv-x="920" unicode="&#8601;" /><glyph d="M816 -35 8 275 80 347 776 75 504 771 576 843 886 35Z" glyph-name="uni25E2" horiz-adv-x="930" unicode="&#9698;" /><glyph d="M354 843 426 771 154 75 850 347 922 275 114 -35 44 35Z" glyph-name="uni25E3" horiz-adv-x="930" unicode="&#9699;" /><glyph d="M114 816 922 506 850 434 154 706 426 10 354 -62 44 746Z" glyph-name="uni25E4" horiz-adv-x="930" unicode="&#9700;" /><glyph d="M576 -62 504 10 776 706 80 434 8 506 816 816 886 746Z" glyph-name="uni25E5" horiz-adv-x="930" unicode="&#9701;" /><glyph d="M180 -10 279 297 19 486H341L440 792L539 486H861L601 297L700 -10L440 180Z" glyph-name="uni2605" horiz-adv-x="880" unicode="&#9733;" /><glyph d="M479 -11 437 191Q437 189 436.5 182.5Q436 176 433.5 166.5Q431 157 425 146Q419 135 408 125Q396 114 384 106Q372 98 362 90Q352 82 346 72Q340 62 340 47Q340 39 342 33Q344 27 346 22Q349 17 352 12Q329 19 317.5 36.5Q306 54 306 74Q306 104 327 125Q349 147 358.5 174.5Q368 202 368 220L196 107L309 279Q308 278 303 273.5Q298 269 290 264.5Q282 260 270 256.5Q258 253 243 253Q229 253 211.5 257Q194 261 181 261Q161 261 149 253.5Q137 246 131 237Q124 226 122 213Q114 227 114 241Q114 270 134.5 290Q155 310 185 310Q202 310 218.5 315Q235 320 248.5 326.5Q262 333 270.5 339.5Q279 346 281 348L79 390L281 432Q279 432 272.5 432.5Q266 433 256.5 435.5Q247 438 236 444Q225 450 215 461Q204 473 196 485Q188 497 180 507Q172 517 162 523Q152 529 137 529Q129 529 123 527Q117 525 112 523Q107 520 102 517Q109 540 126.5 551.5Q144 563 164 563Q194 563 215 542Q237 520 264.5 510.5Q292 501 310 501L197 673L369 560Q368 561 363.5 566Q359 571 354.5 579Q350 587 346.5 599Q343 611 343 626Q343 640 347 657.5Q351 675 351 688Q351 708 343.5 720Q336 732 327 738Q316 745 303 747Q317 755 331 755Q360 755 380 734.5Q400 714 400 684Q400 667 405 650.5Q410 634 416.5 620.5Q423 607 429.5 598Q436 589 438 588L480 790L522 588Q522 589 522.5 596Q523 603 525.5 612.5Q528 622 534 633Q540 644 551 654Q563 665 575 673Q587 681 597 689Q607 697 613 707Q619 717 619 732Q619 740 617 746Q615 752 613 757Q610 762 607 767Q630 760 641.5 742.5Q653 725 653 705Q653 675 632 654Q610 632 600.5 604.5Q591 577 591 559L763 672L650 500Q651 501 656 505.5Q661 510 669 514.5Q677 519 689 522.5Q701 526 716 526Q730 526 747.5 522Q765 518 778 518Q798 518 810 525.5Q822 533 828 542Q835 553 837 566Q845 552 845 538Q845 509 824.5 489Q804 469 774 469Q757 469 740.5 464Q724 459 710.5 452.5Q697 446 688 439.5Q679 433 678 431L880 389L678 347Q679 347 686 346.5Q693 346 702.5 343.5Q712 341 723 335Q734 329 744 318Q755 306 763 294Q771 282 779 272Q787 262 797 256Q807 250 822 250Q830 250 836 252Q842 254 847 256Q852 259 857 262Q850 239 832.5 227.5Q815 216 795 216Q765 216 744 237Q722 259 694.5 268.5Q667 278 649 278L762 106L590 219Q591 218 595.5 213Q600 208 604.5 200Q609 192 612.5 180Q616 168 616 153Q616 139 612 121.5Q608 104 608 91Q608 71 615.5 59Q623 47 632 41Q643 34 656 32Q642 24 628 24Q599 24 579 44.5Q559 65 559 95Q559 112 554 128.5Q549 145 542.5 158.5Q536 172 529.5 180.5Q523 189 521 191Z" glyph-name="uni263C" horiz-adv-x="960" unicode="&#9788;" /><glyph d="M624 728Q557 728 498 701.5Q439 675 395 629Q351 583 325.5 521.5Q300 460 300 390Q300 320 325.5 258.5Q351 197 395 151Q439 105 498 78.5Q557 52 624 52Q673 52 720 67Q669 30 607.5 10Q546 -10 480 -10Q397 -10 324 21.5Q251 53 197 107Q143 161 111.5 234Q80 307 80 390Q80 473 111.5 546Q143 619 197 673Q251 727 324 758.5Q397 790 480 790Q546 790 607.5 769.5Q669 749 720 713Q697 720 673 724Q649 728 624 728Z" glyph-name="uni263E" horiz-adv-x="960" unicode="&#9790;" /><glyph d="M875 410Q879 403 882 391.5Q885 380 885 366Q885 340 873.5 317Q862 294 845 277Q828 260 808.5 250Q789 240 773 240L657 441L806 527ZM311 41Q303 41 290.5 44Q278 47 267 54Q244 67 230 88.5Q216 110 209.5 133Q203 156 204.5 178Q206 200 214 214H446V41ZM267 717Q271 724 280 732.5Q289 741 301 748Q323 761 348.5 762.5Q374 764 397.5 758Q421 752 439.5 739.5Q458 727 466 713L350 512L200 598ZM404 780H597Q611 780 623.5 778.5Q636 777 647.5 772.5Q659 768 669 759Q679 750 689 733L717 684L760 708L699 542L526 573L567 597L495 722Q484 742 468 753Q452 764 438 770Q421 777 404 779ZM184 122 88 290Q82 302 76.5 313.5Q71 325 69.5 337Q68 349 71 362.5Q74 376 84 393L112 442L70 466L244 497L303 331L262 355Q243 321 227 294Q213 271 202 251.5Q191 232 190 230Q179 210 177 191.5Q175 173 177 157Q180 139 186 122ZM864 264 768 97Q760 85 753 75Q746 65 736 57.5Q726 50 713 45.5Q700 41 680 41H623V-8L510 128L623 263V214H768Q790 214 808 222Q826 230 838 240Q852 251 863 266Z" glyph-name="uni267B" horiz-adv-x="960" unicode="&#9851;" /><glyph d="M64 390Q64 472 95 544Q126 616 180 670Q234 724 306 755Q378 786 460 786Q542 786 614 755Q686 724 740 670Q794 616 825 544Q856 472 856 390Q856 308 825 236Q794 164 740 110Q686 56 614 25Q542 -6 460 -6Q378 -6 306 25Q234 56 180 110Q126 164 95 236Q64 308 64 390ZM754 295Q745 284 734 275Q724 267 710.5 261Q697 255 680 255H568V293L480 188L568 83V121H612Q643 121 656 133.5Q669 146 680 164L755 294ZM710 498 594 431 684 275Q696 275 711.5 282.5Q727 290 740.5 303.5Q754 317 762.5 335Q771 353 771 373Q771 384 768.5 393Q766 402 763 407ZM229 184Q224 197 222 211Q220 223 221.5 238Q223 253 232 268L288 365L320 346L274 475L139 451L172 432L150 394Q134 368 138.5 350.5Q143 333 153 314L228 184ZM427 121V255H247Q241 244 240 227Q239 210 243.5 192Q248 174 259 157.5Q270 141 288 131Q297 126 306.5 123.5Q316 121 322 121ZM394 693Q408 691 421 686Q432 681 444 672Q456 663 465 649L521 552L489 533L623 509L670 638L637 619L615 657Q600 683 583 688.5Q566 694 544 694H394ZM240 553 356 486 446 642Q440 653 425.5 662.5Q411 672 393 676.5Q375 681 355 680Q335 679 318 669Q309 664 302 657Q295 650 292 645Z" glyph-name="uni267C" horiz-adv-x="960" unicode="&#9852;" /></font>
</defs>
</svg>
