<?xml version="1.0" standalone="no"?><!DOCTYPE svg PUBLIC "-//W3C//DTD SVG 1.1//EN" "http://www.w3.org/Graphics/SVG/1.1/DTD/svg11.dtd" ><svg version="1.1" xmlns="http://www.w3.org/2000/svg"><defs><font horiz-adv-x="0" id="font"><font-face ascent="750" bbox="-200 -206 1375 1030" cap-height="780" descent="-250" font-family="Cooper Hewitt" font-stretch="normal" font-style="normal" font-weight="600" units-per-em="1000" x-height="530" /><missing-glyph d="M802 115V665L527 390ZM162 665V115L437 390ZM482 435 761 714H203ZM203 66H761L482 345ZM92 780H872V0H92Z" horiz-adv-x="963" /><glyph d="M135 250H455L295 760ZM305 790 555 0H534L462 230H128L56 0H35L285 790Z" glyph-name="A" horiz-adv-x="590" unicode="A" /><glyph d="M146 250H417L337 757ZM770 780V760H355L412 408H720V388H416L476 20H770V0H458L420 230H138L51 0H30L325 780Z" glyph-name="AE" horiz-adv-x="820" unicode="&#198;" /><glyph d="M368 950 306 840H284L346 950ZM135 250H455L295 760ZM305 790 555 0H534L462 230H128L56 0H35L285 790Z" glyph-name="Aacute" horiz-adv-x="590" unicode="&#193;" /><glyph d="M295 852Q349 852 378 878.5Q407 905 407 950H425Q425 897 390.5 865.5Q356 834 295 834Q234 834 199.5 865.5Q165 897 165 950H183Q183 905 212 878.5Q241 852 295 852ZM135 250H455L295 760ZM305 790 555 0H534L462 230H128L56 0H35L285 790Z" glyph-name="Abreve" horiz-adv-x="590" unicode="&#258;" /><glyph d="M185 840 285 950H305L405 840H381L295 935L209 840ZM135 250H455L295 760ZM305 790 555 0H534L462 230H128L56 0H35L285 790Z" glyph-name="Acircumflex" horiz-adv-x="590" unicode="&#194;" /><glyph d="M385 875H345V915H385ZM245 875H205V915H245ZM135 250H455L295 760ZM305 790 555 0H534L462 230H128L56 0H35L285 790Z" glyph-name="Adieresis" horiz-adv-x="590" unicode="&#196;" /><glyph d="M244 950 306 840H284L222 950ZM135 250H455L295 760ZM305 790 555 0H534L462 230H128L56 0H35L285 790Z" glyph-name="Agrave" horiz-adv-x="590" unicode="&#192;" /><glyph d="M195 905H395V885H195ZM135 250H455L295 760ZM305 790 555 0H534L462 230H128L56 0H35L285 790Z" glyph-name="Amacron" horiz-adv-x="590" unicode="&#256;" /><glyph d="M305 790 555 0H534L295 760L56 0H35L285 790Z" glyph-name="Anocross" horiz-adv-x="590" unicode="&#59185;" /><glyph d="M135 250H455L295 760ZM600 -188Q586 -195 568 -200.5Q550 -206 521 -206Q503 -206 487 -201Q471 -196 458 -185Q445 -174 437.5 -156.5Q430 -139 430 -115Q430 -88 438.5 -68Q447 -48 461 -33.5Q475 -19 493 -9Q511 1 531 9L462 230H128L56 0H35L285 790H305L555 0Q537 -6 518.5 -14.5Q500 -23 484 -36.5Q468 -50 458 -69.5Q448 -89 448 -115Q448 -156 470 -172Q492 -188 521 -188Q547 -188 565 -182.5Q583 -177 594 -172Z" glyph-name="Aogonek" horiz-adv-x="590" unicode="&#260;" /><glyph d="M227 870Q227 841 246.5 821.5Q266 802 295 802Q324 802 343.5 821.5Q363 841 363 870Q363 899 343.5 918.5Q324 938 295 938Q266 938 246.5 918.5Q227 899 227 870ZM135 250H455L295 760ZM209 870Q209 888 216 903.5Q223 919 234.5 930.5Q246 942 261.5 949Q277 956 295 956Q313 956 328.5 949Q344 942 355.5 930.5Q367 919 374 903.5Q381 888 381 870Q381 838 359.5 813.5Q338 789 306 784L555 0H534L462 230H128L56 0H35L283 784Q251 789 230 813.5Q209 838 209 870Z" glyph-name="Aring" horiz-adv-x="590" unicode="&#197;" /><glyph d="M430 927Q430 907 425 893.5Q420 880 411.5 872Q403 864 392 860.5Q381 857 370 857Q350 857 331 866Q312 875 294 886Q276 897 258.5 906Q241 915 223 915Q206 915 192 906Q178 897 178 863H160Q160 903 178.5 918Q197 933 220 933Q240 933 259 924Q278 915 296 904Q314 893 331.5 884Q349 875 367 875Q384 875 398 884Q412 893 412 927ZM135 250H455L295 760ZM305 790 555 0H534L462 230H128L56 0H35L285 790Z" glyph-name="Atilde" horiz-adv-x="590" unicode="&#195;" /><glyph d="M100 760V408H257Q288 408 322.5 412.5Q357 417 386 434.5Q415 452 434 485.5Q453 519 453 577V591Q453 649 434 682.5Q415 716 386 733.5Q357 751 322.5 755.5Q288 760 257 760ZM100 388V20H277Q308 20 342.5 25.5Q377 31 406 49.5Q435 68 454 102.5Q473 137 473 195V213Q473 271 454 305.5Q435 340 406 358.5Q377 377 342.5 382.5Q308 388 277 388ZM259 780Q299 780 337.5 772.5Q376 765 406.5 744.5Q437 724 455.5 687.5Q474 651 474 592V576Q474 532 463 501Q452 470 433.5 449Q415 428 390.5 416.5Q366 405 339 399Q369 394 397 383Q425 372 446.5 350Q468 328 481 295Q494 262 494 214V194Q494 135 475.5 97.5Q457 60 426.5 38Q396 16 357.5 8Q319 0 279 0H80V780Z" glyph-name="B" horiz-adv-x="552" unicode="B" /><glyph d="M280 875H240V915H280ZM100 760V408H257Q288 408 322.5 412.5Q357 417 386 434.5Q415 452 434 485.5Q453 519 453 577V591Q453 649 434 682.5Q415 716 386 733.5Q357 751 322.5 755.5Q288 760 257 760ZM100 388V20H277Q308 20 342.5 25.5Q377 31 406 49.5Q435 68 454 102.5Q473 137 473 195V213Q473 271 454 305.5Q435 340 406 358.5Q377 377 342.5 382.5Q308 388 277 388ZM259 780Q299 780 337.5 772.5Q376 765 406.5 744.5Q437 724 455.5 687.5Q474 651 474 592V576Q474 532 463 501Q452 470 433.5 449Q415 428 390.5 416.5Q366 405 339 399Q369 394 397 383Q425 372 446.5 350Q468 328 481 295Q494 262 494 214V194Q494 135 475.5 97.5Q457 60 426.5 38Q396 16 357.5 8Q319 0 279 0H80V780Z" glyph-name="Bdotaccent" horiz-adv-x="552" unicode="&#7682;" /><glyph d="M65 410Q65 511 81 582.5Q97 654 128.5 699Q160 744 206.5 765Q253 786 315 786Q428 786 481.5 723.5Q535 661 535 520V500H515Q515 574 503.5 625Q492 676 468 707.5Q444 739 406.5 752.5Q369 766 318 766H312Q256 766 214 746.5Q172 727 143 684.5Q114 642 99.5 574.5Q85 507 85 410V370Q85 273 99.5 205.5Q114 138 143 95.5Q172 53 214 33.5Q256 14 312 14H318Q412 14 463.5 69.5Q515 125 515 250H535V236Q535 182 522.5 137Q510 92 483 60.5Q456 29 414.5 11.5Q373 -6 315 -6Q253 -6 206.5 15Q160 36 128.5 81Q97 126 81 197.5Q65 269 65 370Z" glyph-name="C" horiz-adv-x="593" unicode="C" /><glyph d="M388 950 326 840H304L366 950ZM65 410Q65 511 81 582.5Q97 654 128.5 699Q160 744 206.5 765Q253 786 315 786Q428 786 481.5 723.5Q535 661 535 520V500H515Q515 574 503.5 625Q492 676 468 707.5Q444 739 406.5 752.5Q369 766 318 766H312Q256 766 214 746.5Q172 727 143 684.5Q114 642 99.5 574.5Q85 507 85 410V370Q85 273 99.5 205.5Q114 138 143 95.5Q172 53 214 33.5Q256 14 312 14H318Q412 14 463.5 69.5Q515 125 515 250H535V236Q535 182 522.5 137Q510 92 483 60.5Q456 29 414.5 11.5Q373 -6 315 -6Q253 -6 206.5 15Q160 36 128.5 81Q97 126 81 197.5Q65 269 65 370Z" glyph-name="Cacute" horiz-adv-x="593" unicode="&#262;" /><glyph d="M425 950 325 840H305L205 950H229L315 855L401 950ZM65 410Q65 511 81 582.5Q97 654 128.5 699Q160 744 206.5 765Q253 786 315 786Q428 786 481.5 723.5Q535 661 535 520V500H515Q515 574 503.5 625Q492 676 468 707.5Q444 739 406.5 752.5Q369 766 318 766H312Q256 766 214 746.5Q172 727 143 684.5Q114 642 99.5 574.5Q85 507 85 410V370Q85 273 99.5 205.5Q114 138 143 95.5Q172 53 214 33.5Q256 14 312 14H318Q412 14 463.5 69.5Q515 125 515 250H535V236Q535 182 522.5 137Q510 92 483 60.5Q456 29 414.5 11.5Q373 -6 315 -6Q253 -6 206.5 15Q160 36 128.5 81Q97 126 81 197.5Q65 269 65 370Z" glyph-name="Ccaron" horiz-adv-x="593" unicode="&#268;" /><glyph d="M242 -172Q254 -179 275.5 -183.5Q297 -188 315 -188Q329 -188 342.5 -186.5Q356 -185 366 -179.5Q376 -174 382 -163.5Q388 -153 388 -135Q388 -117 382 -106.5Q376 -96 366 -90.5Q356 -85 342.5 -83.5Q329 -82 315 -82Q310 -82 305 -82.5Q300 -83 297 -83Q293 -84 290 -84L279 -73L303 -6Q244 -4 199.5 18Q155 40 125 85Q95 130 80 200.5Q65 271 65 370V410Q65 511 81 582.5Q97 654 128.5 699Q160 744 206.5 765Q253 786 315 786Q428 786 481.5 723.5Q535 661 535 520V500H515Q515 574 503.5 625Q492 676 468 707.5Q444 739 406.5 752.5Q369 766 318 766H312Q256 766 214 746.5Q172 727 143 684.5Q114 642 99.5 574.5Q85 507 85 410V370Q85 273 99.5 205.5Q114 138 143 95.5Q172 53 214 33.5Q256 14 312 14H318Q412 14 463.5 69.5Q515 125 515 250H535V236Q535 182 522.5 138Q510 94 484.5 62.5Q459 31 418.5 13Q378 -5 323 -6L302 -65Q307 -64 320 -64Q335 -64 350.5 -67Q366 -70 378 -78Q390 -86 398 -100Q406 -114 406 -135Q406 -156 398.5 -170Q391 -184 378 -192Q365 -200 349 -203Q333 -206 315 -206Q295 -206 274 -201Q253 -196 236 -188Z" glyph-name="Ccedilla" horiz-adv-x="593" unicode="&#199;" /><glyph d="M205 840 305 950H325L425 840H401L315 935L229 840ZM65 410Q65 511 81 582.5Q97 654 128.5 699Q160 744 206.5 765Q253 786 315 786Q428 786 481.5 723.5Q535 661 535 520V500H515Q515 574 503.5 625Q492 676 468 707.5Q444 739 406.5 752.5Q369 766 318 766H312Q256 766 214 746.5Q172 727 143 684.5Q114 642 99.5 574.5Q85 507 85 410V370Q85 273 99.5 205.5Q114 138 143 95.5Q172 53 214 33.5Q256 14 312 14H318Q412 14 463.5 69.5Q515 125 515 250H535V236Q535 182 522.5 137Q510 92 483 60.5Q456 29 414.5 11.5Q373 -6 315 -6Q253 -6 206.5 15Q160 36 128.5 81Q97 126 81 197.5Q65 269 65 370Z" glyph-name="Ccircumflex" horiz-adv-x="593" unicode="&#264;" /><glyph d="M335 875H295V915H335ZM65 410Q65 511 81 582.5Q97 654 128.5 699Q160 744 206.5 765Q253 786 315 786Q428 786 481.5 723.5Q535 661 535 520V500H515Q515 574 503.5 625Q492 676 468 707.5Q444 739 406.5 752.5Q369 766 318 766H312Q256 766 214 746.5Q172 727 143 684.5Q114 642 99.5 574.5Q85 507 85 410V370Q85 273 99.5 205.5Q114 138 143 95.5Q172 53 214 33.5Q256 14 312 14H318Q412 14 463.5 69.5Q515 125 515 250H535V236Q535 182 522.5 137Q510 92 483 60.5Q456 29 414.5 11.5Q373 -6 315 -6Q253 -6 206.5 15Q160 36 128.5 81Q97 126 81 197.5Q65 269 65 370Z" glyph-name="Cdotaccent" horiz-adv-x="593" unicode="&#266;" /><glyph d="M265 20Q325 20 374.5 38Q424 56 460 97.5Q496 139 515.5 205.5Q535 272 535 370V410Q535 507 515.5 574Q496 641 460 682.5Q424 724 374.5 742Q325 760 265 760H100V20ZM555 370Q555 267 533.5 196Q512 125 474 81.5Q436 38 384 19Q332 0 270 0H80V780H270Q332 780 384 761Q436 742 474 698.5Q512 655 533.5 584Q555 513 555 410Z" glyph-name="D" horiz-adv-x="615" unicode="D" /><glyph d="M380 950 280 840H260L160 950H184L270 855L356 950ZM265 20Q325 20 374.5 38Q424 56 460 97.5Q496 139 515.5 205.5Q535 272 535 370V410Q535 507 515.5 574Q496 641 460 682.5Q424 724 374.5 742Q325 760 265 760H100V20ZM555 370Q555 267 533.5 196Q512 125 474 81.5Q436 38 384 19Q332 0 270 0H80V780H270Q332 780 384 761Q436 742 474 698.5Q512 655 533.5 584Q555 513 555 410Z" glyph-name="Dcaron" horiz-adv-x="615" unicode="&#270;" /><glyph d="M320 20Q380 20 429.5 38Q479 56 515 97.5Q551 139 570.5 205.5Q590 272 590 370V410Q590 507 570.5 574Q551 641 515 682.5Q479 724 429.5 742Q380 760 320 760H155V408H385V388H155V20ZM135 408V780H325Q387 780 439 761Q491 742 529 698.5Q567 655 588.5 584Q610 513 610 410V370Q610 267 588.5 196Q567 125 529 81.5Q491 38 439 19Q387 0 325 0H135V388H25V408Z" glyph-name="Dcroat" horiz-adv-x="670" unicode="&#272;" /><glyph d="M290 875H250V915H290ZM265 20Q325 20 374.5 38Q424 56 460 97.5Q496 139 515.5 205.5Q535 272 535 370V410Q535 507 515.5 574Q496 641 460 682.5Q424 724 374.5 742Q325 760 265 760H100V20ZM555 370Q555 267 533.5 196Q512 125 474 81.5Q436 38 384 19Q332 0 270 0H80V780H270Q332 780 384 761Q436 742 474 698.5Q512 655 533.5 584Q555 513 555 410Z" glyph-name="Ddotaccent" horiz-adv-x="615" unicode="&#7690;" /><glyph d="M490 780V760H100V408H440V388H100V20H490V0H80V780Z" glyph-name="E" horiz-adv-x="540" unicode="E" /><glyph d="M363 950 301 840H279L341 950ZM490 780V760H100V408H440V388H100V20H490V0H80V780Z" glyph-name="Eacute" horiz-adv-x="540" unicode="&#201;" /><glyph d="M290 852Q344 852 373 878.5Q402 905 402 950H420Q420 897 385.5 865.5Q351 834 290 834Q229 834 194.5 865.5Q160 897 160 950H178Q178 905 207 878.5Q236 852 290 852ZM490 780V760H100V408H440V388H100V20H490V0H80V780Z" glyph-name="Ebreve" horiz-adv-x="540" unicode="&#276;" /><glyph d="M400 950 300 840H280L180 950H204L290 855L376 950ZM490 780V760H100V408H440V388H100V20H490V0H80V780Z" glyph-name="Ecaron" horiz-adv-x="540" unicode="&#282;" /><glyph d="M180 840 280 950H300L400 840H376L290 935L204 840ZM490 780V760H100V408H440V388H100V20H490V0H80V780Z" glyph-name="Ecircumflex" horiz-adv-x="540" unicode="&#202;" /><glyph d="M240 875H200V915H240ZM380 875H340V915H380ZM490 780V760H100V408H440V388H100V20H490V0H80V780Z" glyph-name="Edieresis" horiz-adv-x="540" unicode="&#203;" /><glyph d="M310 875H270V915H310ZM490 780V760H100V408H440V388H100V20H490V0H80V780Z" glyph-name="Edotaccent" horiz-adv-x="540" unicode="&#278;" /><glyph d="M239 950 301 840H279L217 950ZM490 780V760H100V408H440V388H100V20H490V0H80V780Z" glyph-name="Egrave" horiz-adv-x="540" unicode="&#200;" /><glyph d="M190 905H390V885H190ZM490 780V760H100V408H440V388H100V20H490V0H80V780Z" glyph-name="Emacron" horiz-adv-x="540" unicode="&#274;" /><glyph d="M540 -9 99 751 100 600V0H80V780H105L541 29L540 180V780H560V-71Q560 -112 549.5 -138Q539 -164 521 -179Q503 -194 479 -200Q455 -206 429 -206Q401 -206 385 -202Q369 -198 365 -196V-176Q371 -179 388.5 -182.5Q406 -186 425 -186Q450 -186 471.5 -181Q493 -176 508 -162.5Q523 -149 531.5 -125.5Q540 -102 540 -65Z" glyph-name="Eng" horiz-adv-x="640" unicode="&#330;" /><glyph d="M535 -188Q521 -195 503 -200.5Q485 -206 456 -206Q438 -206 422 -201Q406 -196 393 -185Q380 -174 372.5 -156.5Q365 -139 365 -115Q365 -68 388.5 -42Q412 -16 444 0H80V780H490V760H100V408H440V388H100V20H490V0Q472 -6 453.5 -14.5Q435 -23 419 -36.5Q403 -50 393 -69.5Q383 -89 383 -115Q383 -156 405 -172Q427 -188 456 -188Q482 -188 500 -182.5Q518 -177 529 -172Z" glyph-name="Eogonek" horiz-adv-x="540" unicode="&#280;" /><glyph d="M488 734Q457 751 419.5 758.5Q382 766 340 766Q289 766 245 755Q201 744 168 717.5Q135 691 116 646.5Q97 602 97 534V0H77V537Q77 609 98.5 657Q120 705 156 733.5Q192 762 239.5 774Q287 786 340 786Q388 786 430.5 777Q473 768 508 745V730L329 427L436 414Q499 406 542 389Q585 372 611.5 346.5Q638 321 649 287Q660 253 660 211V201Q660 99 603.5 46.5Q547 -6 445 -6Q339 -6 284.5 54.5Q230 115 230 240V250H250Q250 184 263.5 139Q277 94 302 66.5Q327 39 362.5 26.5Q398 14 442 14H448Q542 14 591 61.5Q640 109 640 197V207Q640 250 629 282Q618 314 592.5 336.5Q567 359 526.5 373Q486 387 426 395L306 410V425Z" glyph-name="Eszett" horiz-adv-x="700" unicode="&#7838;" /><glyph d="M320 20Q380 20 429.5 38Q479 56 515 97.5Q551 139 570.5 205.5Q590 272 590 370V410Q590 507 570.5 574Q551 641 515 682.5Q479 724 429.5 742Q380 760 320 760H155V408H385V388H155V20ZM135 408V780H325Q387 780 439 761Q491 742 529 698.5Q567 655 588.5 584Q610 513 610 410V370Q610 267 588.5 196Q567 125 529 81.5Q491 38 439 19Q387 0 325 0H135V388H25V408Z" glyph-name="Eth" horiz-adv-x="670" unicode="&#208;" /><glyph d="M40 330H115V450H40V470H116Q120 555 136 615Q152 675 180.5 713Q209 751 250 768.5Q291 786 345 786Q451 786 498 723.5Q545 661 545 520V500H525Q525 574 515 625Q505 676 484 707.5Q463 739 429.5 752.5Q396 766 348 766H342Q294 766 257.5 749.5Q221 733 195.5 697.5Q170 662 155.5 606Q141 550 137 470H440L430 450H136V330H390L380 310H137Q141 230 155.5 173.5Q170 117 195.5 81.5Q221 46 257.5 30Q294 14 342 14H348Q435 14 480 69.5Q525 125 525 250H545V236Q545 182 534 137Q523 92 499 60.5Q475 29 437 11.5Q399 -6 345 -6Q291 -6 250 11.5Q209 29 180.5 67Q152 105 136 165Q120 225 116 310H40Z" glyph-name="Euro" horiz-adv-x="600" unicode="&#8364;" /><glyph d="M470 780V760H100V408H420V388H100V0H80V780Z" glyph-name="F" horiz-adv-x="484" unicode="F" /><glyph d="M295 875H255V915H295ZM470 780V760H100V408H420V388H100V0H80V780Z" glyph-name="Fdotaccent" horiz-adv-x="484" unicode="&#7710;" /><glyph d="M336 -6Q270 -6 219 14.5Q168 35 134 80Q100 125 82.5 196.5Q65 268 65 370V410Q65 512 82.5 583.5Q100 655 133 700Q166 745 214.5 765.5Q263 786 325 786Q387 786 430 767.5Q473 749 499.5 714.5Q526 680 538 631.5Q550 583 550 523V500H530Q530 639 482.5 702.5Q435 766 328 766H322Q267 766 223 747Q179 728 148.5 685.5Q118 643 101.5 575Q85 507 85 410V370Q85 272 101.5 204.5Q118 137 149.5 94.5Q181 52 227.5 33Q274 14 333 14H339Q412 14 459.5 36.5Q507 59 530 88V342H371V362H550V79Q538 64 519.5 48.5Q501 33 474.5 21Q448 9 413.5 1.5Q379 -6 336 -6Z" glyph-name="G" horiz-adv-x="625" unicode="G" /><glyph d="M325 852Q379 852 408 878.5Q437 905 437 950H455Q455 897 420.5 865.5Q386 834 325 834Q264 834 229.5 865.5Q195 897 195 950H213Q213 905 242 878.5Q271 852 325 852ZM336 -6Q270 -6 219 14.5Q168 35 134 80Q100 125 82.5 196.5Q65 268 65 370V410Q65 512 82.5 583.5Q100 655 133 700Q166 745 214.5 765.5Q263 786 325 786Q387 786 430 767.5Q473 749 499.5 714.5Q526 680 538 631.5Q550 583 550 523V500H530Q530 639 482.5 702.5Q435 766 328 766H322Q267 766 223 747Q179 728 148.5 685.5Q118 643 101.5 575Q85 507 85 410V370Q85 272 101.5 204.5Q118 137 149.5 94.5Q181 52 227.5 33Q274 14 333 14H339Q412 14 459.5 36.5Q507 59 530 88V342H371V362H550V79Q538 64 519.5 48.5Q501 33 474.5 21Q448 9 413.5 1.5Q379 -6 336 -6Z" glyph-name="Gbreve" horiz-adv-x="625" unicode="&#286;" /><glyph d="M215 840 315 950H335L435 840H411L325 935L239 840ZM336 -6Q270 -6 219 14.5Q168 35 134 80Q100 125 82.5 196.5Q65 268 65 370V410Q65 512 82.5 583.5Q100 655 133 700Q166 745 214.5 765.5Q263 786 325 786Q387 786 430 767.5Q473 749 499.5 714.5Q526 680 538 631.5Q550 583 550 523V500H530Q530 639 482.5 702.5Q435 766 328 766H322Q267 766 223 747Q179 728 148.5 685.5Q118 643 101.5 575Q85 507 85 410V370Q85 272 101.5 204.5Q118 137 149.5 94.5Q181 52 227.5 33Q274 14 333 14H339Q412 14 459.5 36.5Q507 59 530 88V342H371V362H550V79Q538 64 519.5 48.5Q501 33 474.5 21Q448 9 413.5 1.5Q379 -6 336 -6Z" glyph-name="Gcircumflex" horiz-adv-x="625" unicode="&#284;" /><glyph d="M356 -102Q356 -159 337.5 -182.5Q319 -206 281 -206V-188Q294 -188 304.5 -185Q315 -182 321.5 -173.5Q328 -165 332 -150Q336 -135 336 -110H316V-70H356ZM336 -6Q270 -6 219 14.5Q168 35 134 80Q100 125 82.5 196.5Q65 268 65 370V410Q65 512 82.5 583.5Q100 655 133 700Q166 745 214.5 765.5Q263 786 325 786Q387 786 430 767.5Q473 749 499.5 714.5Q526 680 538 631.5Q550 583 550 523V500H530Q530 639 482.5 702.5Q435 766 328 766H322Q267 766 223 747Q179 728 148.5 685.5Q118 643 101.5 575Q85 507 85 410V370Q85 272 101.5 204.5Q118 137 149.5 94.5Q181 52 227.5 33Q274 14 333 14H339Q412 14 459.5 36.5Q507 59 530 88V342H371V362H550V79Q538 64 519.5 48.5Q501 33 474.5 21Q448 9 413.5 1.5Q379 -6 336 -6Z" glyph-name="Gcommaaccent" horiz-adv-x="625" unicode="&#290;" /><glyph d="M345 875H305V915H345ZM336 -6Q270 -6 219 14.5Q168 35 134 80Q100 125 82.5 196.5Q65 268 65 370V410Q65 512 82.5 583.5Q100 655 133 700Q166 745 214.5 765.5Q263 786 325 786Q387 786 430 767.5Q473 749 499.5 714.5Q526 680 538 631.5Q550 583 550 523V500H530Q530 639 482.5 702.5Q435 766 328 766H322Q267 766 223 747Q179 728 148.5 685.5Q118 643 101.5 575Q85 507 85 410V370Q85 272 101.5 204.5Q118 137 149.5 94.5Q181 52 227.5 33Q274 14 333 14H339Q412 14 459.5 36.5Q507 59 530 88V342H371V362H550V79Q538 64 519.5 48.5Q501 33 474.5 21Q448 9 413.5 1.5Q379 -6 336 -6Z" glyph-name="Gdotaccent" horiz-adv-x="625" unicode="&#288;" /><glyph d="M540 780V0H520V388H100V0H80V780H100V408H520V780Z" glyph-name="H" horiz-adv-x="620" unicode="H" /><glyph d="M520 408V584H100V408ZM540 780V0H520V388H100V0H80V780H100V604H520V780Z" glyph-name="Hbar" horiz-adv-x="620" unicode="&#294;" /><glyph d="M200 840 300 950H320L420 840H396L310 935L224 840ZM540 780V0H520V388H100V0H80V780H100V408H520V780Z" glyph-name="Hcircumflex" horiz-adv-x="620" unicode="&#292;" /><glyph d="M105 0H85V780H105Z" glyph-name="I" horiz-adv-x="190" unicode="I" /><glyph d="M353 780H373V129Q373 88 362.5 62Q352 36 334 21Q316 6 292 0Q268 -6 242 -6Q214 -6 198 -2Q182 2 178 4V24Q184 21 201.5 17.5Q219 14 238 14Q263 14 284.5 19Q306 24 321 37.5Q336 51 344.5 74.5Q353 98 353 135ZM105 0H85V780H105Z" glyph-name="IJ" horiz-adv-x="450" unicode="&#306;" /><glyph d="M168 950 106 840H84L146 950ZM105 0H85V780H105Z" glyph-name="Iacute" horiz-adv-x="190" unicode="&#205;" /><glyph d="M95 852Q149 852 178 878.5Q207 905 207 950H225Q225 897 190.5 865.5Q156 834 95 834Q34 834 -0.5 865.5Q-35 897 -35 950H-17Q-17 905 12 878.5Q41 852 95 852ZM105 0H85V780H105Z" glyph-name="Ibreve" horiz-adv-x="190" unicode="&#300;" /><glyph d="M-15 840 85 950H105L205 840H181L95 935L9 840ZM105 0H85V780H105Z" glyph-name="Icircumflex" horiz-adv-x="190" unicode="&#206;" /><glyph d="M45 875H5V915H45ZM185 875H145V915H185ZM105 0H85V780H105Z" glyph-name="Idieresis" horiz-adv-x="190" unicode="&#207;" /><glyph d="M115 875H75V915H115ZM105 0H85V780H105Z" glyph-name="Idotaccent" horiz-adv-x="190" unicode="&#304;" /><glyph d="M44 950 106 840H84L22 950ZM105 0H85V780H105Z" glyph-name="Igrave" horiz-adv-x="190" unicode="&#204;" /><glyph d="M-5 905H195V885H-5ZM105 0H85V780H105Z" glyph-name="Imacron" horiz-adv-x="190" unicode="&#298;" /><glyph d="M150 -188Q136 -195 118 -200.5Q100 -206 71 -206Q53 -206 37 -201Q21 -196 8 -185Q-5 -174 -12.5 -156.5Q-20 -139 -20 -115Q-20 -87 -11 -67Q-2 -47 12.5 -32Q27 -17 46 -7Q65 3 85 11V780H105V0Q87 -6 68.5 -14.5Q50 -23 34 -36.5Q18 -50 8 -69.5Q-2 -89 -2 -115Q-2 -156 20 -172Q42 -188 71 -188Q97 -188 115 -182.5Q133 -177 144 -172Z" glyph-name="Iogonek" horiz-adv-x="190" unicode="&#302;" /><glyph d="M230 927Q230 907 225 893.5Q220 880 211.5 872Q203 864 192 860.5Q181 857 170 857Q150 857 131 866Q112 875 94 886Q76 897 58.5 906Q41 915 23 915Q6 915 -8 906Q-22 897 -22 863H-40Q-40 903 -21.5 918Q-3 933 20 933Q40 933 59 924Q78 915 96 904Q114 893 131.5 884Q149 875 167 875Q184 875 198 884Q212 893 212 927ZM105 0H85V780H105Z" glyph-name="Itilde" horiz-adv-x="190" unicode="&#296;" /><glyph d="M393 780V240Q393 184 383.5 138.5Q374 93 353 61Q332 29 297.5 11.5Q263 -6 213 -6Q163 -6 129 11.5Q95 29 73.5 61Q52 93 42.5 138.5Q33 184 33 240V247H53Q53 192 61 148.5Q69 105 87.5 75Q106 45 137 29.5Q168 14 213 14Q259 14 289.5 29.5Q320 45 338.5 75Q357 105 365 148.5Q373 192 373 247V780Z" glyph-name="J" horiz-adv-x="470" unicode="J" /><glyph d="M273 840 373 950H393L493 840H469L383 935L297 840ZM393 780V240Q393 184 383.5 138.5Q374 93 353 61Q332 29 297.5 11.5Q263 -6 213 -6Q163 -6 129 11.5Q95 29 73.5 61Q52 93 42.5 138.5Q33 184 33 240V247H53Q53 192 61 148.5Q69 105 87.5 75Q106 45 137 29.5Q168 14 213 14Q259 14 289.5 29.5Q320 45 338.5 75Q357 105 365 148.5Q373 192 373 247V780Z" glyph-name="Jcircumflex" horiz-adv-x="470" unicode="&#308;" /><glyph d="M100 279 456 780H480L239 441L480 0H456L227 424L100 246V0H80V780H100Z" glyph-name="K" horiz-adv-x="518" unicode="K" /><glyph d="M280 -102Q280 -159 261.5 -182.5Q243 -206 205 -206V-188Q218 -188 228.5 -185Q239 -182 245.5 -173.5Q252 -165 256 -150Q260 -135 260 -110H240V-70H280ZM100 279 456 780H480L239 441L480 0H456L227 424L100 246V0H80V780H100Z" glyph-name="Kcommaaccent" horiz-adv-x="518" unicode="&#310;" /><glyph d="M80 0V780H100V20H450V0Z" glyph-name="L" horiz-adv-x="464" unicode="L" /><glyph d="M163 950 101 840H79L141 950ZM80 0V780H100V20H450V0Z" glyph-name="Lacute" horiz-adv-x="464" unicode="&#313;" /><glyph d="M321 800 310 620H300V800ZM80 0V780H100V20H450V0Z" glyph-name="Lcaron" horiz-adv-x="464" unicode="&#317;" /><glyph d="M285 -102Q285 -159 266.5 -182.5Q248 -206 210 -206V-188Q223 -188 233.5 -185Q244 -182 250.5 -173.5Q257 -165 261 -150Q265 -135 265 -110H245V-70H285ZM80 0V780H100V20H450V0Z" glyph-name="Lcommaaccent" horiz-adv-x="464" unicode="&#315;" /><glyph d="M302 418H342V378H302ZM80 0V780H100V20H450V0Z" glyph-name="Ldot" horiz-adv-x="464" unicode="&#319;" /><glyph d="M135 369V780H155V381L385 514V490L155 357V20H505V0H135V345L25 282V306Z" glyph-name="Lslash" horiz-adv-x="519" unicode="&#321;" /><glyph d="M659 780H680V0H660V561L663 734L390 0H370L97 734L100 561V0H80V780H101L380 28Z" glyph-name="M" horiz-adv-x="760" unicode="M" /><glyph d="M400 875H360V915H400ZM659 780H680V0H660V561L663 734L390 0H370L97 734L100 561V0H80V780H101L380 28Z" glyph-name="Mdotaccent" horiz-adv-x="757" unicode="&#7744;" /><glyph d="M540 180V780H560V0H535L99 751L100 600V0H80V780H105L541 29Z" glyph-name="N" horiz-adv-x="640" unicode="N" /><glyph d="M393 950 331 840H309L371 950ZM540 180V780H560V0H535L99 751L100 600V0H80V780H105L541 29Z" glyph-name="Nacute" horiz-adv-x="640" unicode="&#323;" /><glyph d="M430 950 330 840H310L210 950H234L320 855L406 950ZM540 180V780H560V0H535L99 751L100 600V0H80V780H105L541 29Z" glyph-name="Ncaron" horiz-adv-x="640" unicode="&#327;" /><glyph d="M340 -102Q340 -159 321.5 -182.5Q303 -206 265 -206V-188Q278 -188 288.5 -185Q299 -182 305.5 -173.5Q312 -165 316 -150Q320 -135 320 -110H300V-70H340ZM540 180V780H560V0H535L99 751L100 600V0H80V780H105L541 29Z" glyph-name="Ncommaaccent" horiz-adv-x="640" unicode="&#325;" /><glyph d="M455 927Q455 907 450 893.5Q445 880 436.5 872Q428 864 417 860.5Q406 857 395 857Q375 857 356 866Q337 875 319 886Q301 897 283.5 906Q266 915 248 915Q231 915 217 906Q203 897 203 863H185Q185 903 203.5 918Q222 933 245 933Q265 933 284 924Q303 915 321 904Q339 893 356.5 884Q374 875 392 875Q409 875 423 884Q437 893 437 927ZM540 180V780H560V0H535L99 751L100 600V0H80V780H105L541 29Z" glyph-name="Ntilde" horiz-adv-x="640" unicode="&#209;" /><glyph d="M85 370Q85 273 99.5 205.5Q114 138 143 95.5Q172 53 214 33.5Q256 14 312 14H318Q373 14 415.5 33.5Q458 53 487 95.5Q516 138 530.5 205.5Q545 273 545 370V410Q545 507 530.5 574.5Q516 642 487 684.5Q458 727 415.5 746.5Q373 766 318 766H312Q256 766 214 746.5Q172 727 143 684.5Q114 642 99.5 574.5Q85 507 85 410ZM65 410Q65 511 81 582.5Q97 654 128.5 699Q160 744 206.5 765Q253 786 315 786Q377 786 423.5 765Q470 744 501.5 699Q533 654 549 582.5Q565 511 565 410V370Q565 269 549 197.5Q533 126 501.5 81Q470 36 423.5 15Q377 -6 315 -6Q253 -6 206.5 15Q160 36 128.5 81Q97 126 81 197.5Q65 269 65 370Z" glyph-name="O" horiz-adv-x="630" unicode="O" /><glyph d="M350 760Q290 760 240.5 742Q191 724 155 682.5Q119 641 99.5 574Q80 507 80 410V370Q80 272 99.5 205.5Q119 139 155 97.5Q191 56 240.5 38Q290 20 350 20H480V760ZM60 410Q60 513 81.5 584Q103 655 141 698.5Q179 742 231 761Q283 780 345 780H890V760H500V408H840V388H500V20H890V0H345Q283 0 231 19Q179 38 141 81.5Q103 125 81.5 196Q60 267 60 370Z" glyph-name="OE" horiz-adv-x="940" unicode="&#338;" /><glyph d="M388 950 326 840H304L366 950ZM85 370Q85 273 99.5 205.5Q114 138 143 95.5Q172 53 214 33.5Q256 14 312 14H318Q373 14 415.5 33.5Q458 53 487 95.5Q516 138 530.5 205.5Q545 273 545 370V410Q545 507 530.5 574.5Q516 642 487 684.5Q458 727 415.5 746.5Q373 766 318 766H312Q256 766 214 746.5Q172 727 143 684.5Q114 642 99.5 574.5Q85 507 85 410ZM65 410Q65 511 81 582.5Q97 654 128.5 699Q160 744 206.5 765Q253 786 315 786Q377 786 423.5 765Q470 744 501.5 699Q533 654 549 582.5Q565 511 565 410V370Q565 269 549 197.5Q533 126 501.5 81Q470 36 423.5 15Q377 -6 315 -6Q253 -6 206.5 15Q160 36 128.5 81Q97 126 81 197.5Q65 269 65 370Z" glyph-name="Oacute" horiz-adv-x="630" unicode="&#211;" /><glyph d="M315 852Q369 852 398 878.5Q427 905 427 950H445Q445 897 410.5 865.5Q376 834 315 834Q254 834 219.5 865.5Q185 897 185 950H203Q203 905 232 878.5Q261 852 315 852ZM85 370Q85 273 99.5 205.5Q114 138 143 95.5Q172 53 214 33.5Q256 14 312 14H318Q373 14 415.5 33.5Q458 53 487 95.5Q516 138 530.5 205.5Q545 273 545 370V410Q545 507 530.5 574.5Q516 642 487 684.5Q458 727 415.5 746.5Q373 766 318 766H312Q256 766 214 746.5Q172 727 143 684.5Q114 642 99.5 574.5Q85 507 85 410ZM65 410Q65 511 81 582.5Q97 654 128.5 699Q160 744 206.5 765Q253 786 315 786Q377 786 423.5 765Q470 744 501.5 699Q533 654 549 582.5Q565 511 565 410V370Q565 269 549 197.5Q533 126 501.5 81Q470 36 423.5 15Q377 -6 315 -6Q253 -6 206.5 15Q160 36 128.5 81Q97 126 81 197.5Q65 269 65 370Z" glyph-name="Obreve" horiz-adv-x="630" unicode="&#334;" /><glyph d="M205 840 305 950H325L425 840H401L315 935L229 840ZM85 370Q85 273 99.5 205.5Q114 138 143 95.5Q172 53 214 33.5Q256 14 312 14H318Q373 14 415.5 33.5Q458 53 487 95.5Q516 138 530.5 205.5Q545 273 545 370V410Q545 507 530.5 574.5Q516 642 487 684.5Q458 727 415.5 746.5Q373 766 318 766H312Q256 766 214 746.5Q172 727 143 684.5Q114 642 99.5 574.5Q85 507 85 410ZM65 410Q65 511 81 582.5Q97 654 128.5 699Q160 744 206.5 765Q253 786 315 786Q377 786 423.5 765Q470 744 501.5 699Q533 654 549 582.5Q565 511 565 410V370Q565 269 549 197.5Q533 126 501.5 81Q470 36 423.5 15Q377 -6 315 -6Q253 -6 206.5 15Q160 36 128.5 81Q97 126 81 197.5Q65 269 65 370Z" glyph-name="Ocircumflex" horiz-adv-x="630" unicode="&#212;" /><glyph d="M405 875H365V915H405ZM265 875H225V915H265ZM85 370Q85 273 99.5 205.5Q114 138 143 95.5Q172 53 214 33.5Q256 14 312 14H318Q373 14 415.5 33.5Q458 53 487 95.5Q516 138 530.5 205.5Q545 273 545 370V410Q545 507 530.5 574.5Q516 642 487 684.5Q458 727 415.5 746.5Q373 766 318 766H312Q256 766 214 746.5Q172 727 143 684.5Q114 642 99.5 574.5Q85 507 85 410ZM65 410Q65 511 81 582.5Q97 654 128.5 699Q160 744 206.5 765Q253 786 315 786Q377 786 423.5 765Q470 744 501.5 699Q533 654 549 582.5Q565 511 565 410V370Q565 269 549 197.5Q533 126 501.5 81Q470 36 423.5 15Q377 -6 315 -6Q253 -6 206.5 15Q160 36 128.5 81Q97 126 81 197.5Q65 269 65 370Z" glyph-name="Odieresis" horiz-adv-x="630" unicode="&#214;" /><glyph d="M264 950 326 840H304L242 950ZM85 370Q85 273 99.5 205.5Q114 138 143 95.5Q172 53 214 33.5Q256 14 312 14H318Q373 14 415.5 33.5Q458 53 487 95.5Q516 138 530.5 205.5Q545 273 545 370V410Q545 507 530.5 574.5Q516 642 487 684.5Q458 727 415.5 746.5Q373 766 318 766H312Q256 766 214 746.5Q172 727 143 684.5Q114 642 99.5 574.5Q85 507 85 410ZM65 410Q65 511 81 582.5Q97 654 128.5 699Q160 744 206.5 765Q253 786 315 786Q377 786 423.5 765Q470 744 501.5 699Q533 654 549 582.5Q565 511 565 410V370Q565 269 549 197.5Q533 126 501.5 81Q470 36 423.5 15Q377 -6 315 -6Q253 -6 206.5 15Q160 36 128.5 81Q97 126 81 197.5Q65 269 65 370Z" glyph-name="Ograve" horiz-adv-x="630" unicode="&#210;" /><glyph d="M338 950 276 840H254L316 950ZM438 950 376 840H354L416 950ZM85 370Q85 273 99.5 205.5Q114 138 143 95.5Q172 53 214 33.5Q256 14 312 14H318Q373 14 415.5 33.5Q458 53 487 95.5Q516 138 530.5 205.5Q545 273 545 370V410Q545 507 530.5 574.5Q516 642 487 684.5Q458 727 415.5 746.5Q373 766 318 766H312Q256 766 214 746.5Q172 727 143 684.5Q114 642 99.5 574.5Q85 507 85 410ZM65 410Q65 511 81 582.5Q97 654 128.5 699Q160 744 206.5 765Q253 786 315 786Q377 786 423.5 765Q470 744 501.5 699Q533 654 549 582.5Q565 511 565 410V370Q565 269 549 197.5Q533 126 501.5 81Q470 36 423.5 15Q377 -6 315 -6Q253 -6 206.5 15Q160 36 128.5 81Q97 126 81 197.5Q65 269 65 370Z" glyph-name="Ohungarumlaut" horiz-adv-x="630" unicode="&#336;" /><glyph d="M215 905H415V885H215ZM85 370Q85 273 99.5 205.5Q114 138 143 95.5Q172 53 214 33.5Q256 14 312 14H318Q373 14 415.5 33.5Q458 53 487 95.5Q516 138 530.5 205.5Q545 273 545 370V410Q545 507 530.5 574.5Q516 642 487 684.5Q458 727 415.5 746.5Q373 766 318 766H312Q256 766 214 746.5Q172 727 143 684.5Q114 642 99.5 574.5Q85 507 85 410ZM65 410Q65 511 81 582.5Q97 654 128.5 699Q160 744 206.5 765Q253 786 315 786Q377 786 423.5 765Q470 744 501.5 699Q533 654 549 582.5Q565 511 565 410V370Q565 269 549 197.5Q533 126 501.5 81Q470 36 423.5 15Q377 -6 315 -6Q253 -6 206.5 15Q160 36 128.5 81Q97 126 81 197.5Q65 269 65 370Z" glyph-name="Omacron" horiz-adv-x="630" unicode="&#332;" /><glyph d="M85 370Q85 281 97 217.5Q109 154 133 111L485 687Q456 729 414.5 747.5Q373 766 318 766H312Q256 766 214 746.5Q172 727 143 684.5Q114 642 99.5 574.5Q85 507 85 410ZM545 410Q545 498 533 561.5Q521 625 497 668L144 93Q173 51 215 32.5Q257 14 312 14H318Q373 14 415.5 33.5Q458 53 487 95.5Q516 138 530.5 205.5Q545 273 545 370ZM509 688Q537 643 551 574.5Q565 506 565 410V370Q565 269 549 197.5Q533 126 501.5 81Q470 36 423.5 15Q377 -6 315 -6Q255 -6 210 13Q165 32 133 74L88 0H65L121 91Q93 137 79 205.5Q65 274 65 370V410Q65 511 81 582.5Q97 654 128.5 699Q160 744 206.5 765Q253 786 315 786Q375 786 420 767Q465 748 497 706L542 780H565Z" glyph-name="Oslash" horiz-adv-x="626" unicode="&#216;" /><glyph d="M450 927Q450 907 445 893.5Q440 880 431.5 872Q423 864 412 860.5Q401 857 390 857Q370 857 351 866Q332 875 314 886Q296 897 278.5 906Q261 915 243 915Q226 915 212 906Q198 897 198 863H180Q180 903 198.5 918Q217 933 240 933Q260 933 279 924Q298 915 316 904Q334 893 351.5 884Q369 875 387 875Q404 875 418 884Q432 893 432 927ZM85 370Q85 273 99.5 205.5Q114 138 143 95.5Q172 53 214 33.5Q256 14 312 14H318Q373 14 415.5 33.5Q458 53 487 95.5Q516 138 530.5 205.5Q545 273 545 370V410Q545 507 530.5 574.5Q516 642 487 684.5Q458 727 415.5 746.5Q373 766 318 766H312Q256 766 214 746.5Q172 727 143 684.5Q114 642 99.5 574.5Q85 507 85 410ZM65 410Q65 511 81 582.5Q97 654 128.5 699Q160 744 206.5 765Q253 786 315 786Q377 786 423.5 765Q470 744 501.5 699Q533 654 549 582.5Q565 511 565 410V370Q565 269 549 197.5Q533 126 501.5 81Q470 36 423.5 15Q377 -6 315 -6Q253 -6 206.5 15Q160 36 128.5 81Q97 126 81 197.5Q65 269 65 370Z" glyph-name="Otilde" horiz-adv-x="630" unicode="&#213;" /><glyph d="M272 360Q303 360 338 366.5Q373 373 403 393.5Q433 414 453 451.5Q473 489 473 551V569Q473 631 453 668.5Q433 706 403 726.5Q373 747 338 753.5Q303 760 272 760H100V360ZM100 0H80V780H273Q313 780 352.5 770.5Q392 761 423.5 737.5Q455 714 474.5 673.5Q494 633 494 570V550Q494 487 474.5 446.5Q455 406 423.5 382.5Q392 359 352.5 349.5Q313 340 273 340H100Z" glyph-name="P" horiz-adv-x="544" unicode="P" /><glyph d="M295 875H255V915H295ZM272 360Q303 360 338 366.5Q373 373 403 393.5Q433 414 453 451.5Q473 489 473 551V569Q473 631 453 668.5Q433 706 403 726.5Q373 747 338 753.5Q303 760 272 760H100V360ZM100 0H80V780H273Q313 780 352.5 770.5Q392 761 423.5 737.5Q455 714 474.5 673.5Q494 633 494 570V550Q494 487 474.5 446.5Q455 406 423.5 382.5Q392 359 352.5 349.5Q313 340 273 340H100Z" glyph-name="Pdotaccent" horiz-adv-x="544" unicode="&#7766;" /><glyph d="M85 370Q85 273 99.5 205.5Q114 138 143 95.5Q172 53 214 33.5Q256 14 312 14H318Q352 14 379 21L310 205H330L397 26Q470 51 507.5 133Q545 215 545 370V410Q545 507 530.5 574.5Q516 642 487 684.5Q458 727 415.5 746.5Q373 766 318 766H312Q256 766 214 746.5Q172 727 143 684.5Q114 642 99.5 574.5Q85 507 85 410ZM65 410Q65 511 81 582.5Q97 654 128.5 699Q160 744 206.5 765Q253 786 315 786Q377 786 423.5 765Q470 744 501.5 699Q533 654 549 582.5Q565 511 565 410V370Q565 208 524 121Q483 34 404 7L445 -100H425L386 2Q369 -2 352 -4Q335 -6 315 -6Q253 -6 206.5 15Q160 36 128.5 81Q97 126 81 197.5Q65 269 65 370Z" glyph-name="Q" horiz-adv-x="626" unicode="Q" /><glyph d="M272 360Q303 360 338 366.5Q373 373 403 393.5Q433 414 453 451.5Q473 489 473 551V569Q473 631 453 668.5Q433 706 403 726.5Q373 747 338 753.5Q303 760 272 760H100V360ZM100 0H80V780H273Q313 780 352.5 770.5Q392 761 423.5 737.5Q455 714 474.5 673.5Q494 633 494 570V550Q494 503 482.5 468Q471 433 451.5 409Q432 385 406 370.5Q380 356 351 349L494 0H472L331 345Q317 342 302 341Q287 340 273 340H100Z" glyph-name="R" horiz-adv-x="553" unicode="R" /><glyph d="M343 950 281 840H259L321 950ZM272 360Q303 360 338 366.5Q373 373 403 393.5Q433 414 453 451.5Q473 489 473 551V569Q473 631 453 668.5Q433 706 403 726.5Q373 747 338 753.5Q303 760 272 760H100V360ZM100 0H80V780H273Q313 780 352.5 770.5Q392 761 423.5 737.5Q455 714 474.5 673.5Q494 633 494 570V550Q494 503 482.5 468Q471 433 451.5 409Q432 385 406 370.5Q380 356 351 349L494 0H472L331 345Q317 342 302 341Q287 340 273 340H100Z" glyph-name="Racute" horiz-adv-x="553" unicode="&#340;" /><glyph d="M380 950 280 840H260L160 950H184L270 855L356 950ZM272 360Q303 360 338 366.5Q373 373 403 393.5Q433 414 453 451.5Q473 489 473 551V569Q473 631 453 668.5Q433 706 403 726.5Q373 747 338 753.5Q303 760 272 760H100V360ZM100 0H80V780H273Q313 780 352.5 770.5Q392 761 423.5 737.5Q455 714 474.5 673.5Q494 633 494 570V550Q494 503 482.5 468Q471 433 451.5 409Q432 385 406 370.5Q380 356 351 349L494 0H472L331 345Q317 342 302 341Q287 340 273 340H100Z" glyph-name="Rcaron" horiz-adv-x="553" unicode="&#344;" /><glyph d="M290 -102Q290 -159 271.5 -182.5Q253 -206 215 -206V-188Q228 -188 238.5 -185Q249 -182 255.5 -173.5Q262 -165 266 -150Q270 -135 270 -110H250V-70H290ZM272 360Q303 360 338 366.5Q373 373 403 393.5Q433 414 453 451.5Q473 489 473 551V569Q473 631 453 668.5Q433 706 403 726.5Q373 747 338 753.5Q303 760 272 760H100V360ZM100 0H80V780H273Q313 780 352.5 770.5Q392 761 423.5 737.5Q455 714 474.5 673.5Q494 633 494 570V550Q494 503 482.5 468Q471 433 451.5 409Q432 385 406 370.5Q380 356 351 349L494 0H472L331 345Q317 342 302 341Q287 340 273 340H100Z" glyph-name="Rcommaaccent" horiz-adv-x="553" unicode="&#342;" /><glyph d="M286 395Q222 403 178 419Q134 435 106.5 458.5Q79 482 67 512.5Q55 543 55 580V590Q55 636 73.5 672Q92 708 123.5 733.5Q155 759 197.5 772.5Q240 786 289 786Q411 786 468 721.5Q525 657 525 545V520H505Q505 651 452 708.5Q399 766 293 766H287Q245 766 206.5 754Q168 742 139.5 719.5Q111 697 94 665.5Q77 634 77 595V585Q77 547 88.5 518.5Q100 490 126.5 469Q153 448 194.5 434.5Q236 421 296 414Q360 406 404.5 389Q449 372 477 346.5Q505 321 517.5 287Q530 253 530 211V201Q530 150 511.5 111.5Q493 73 460.5 47Q428 21 384.5 7.5Q341 -6 290 -6Q230 -6 185 12Q140 30 110 62.5Q80 95 65 140Q50 185 50 240V250H70Q70 132 126.5 73Q183 14 287 14H293Q339 14 379 26.5Q419 39 448 62Q477 85 493.5 119Q510 153 510 197V207Q510 292 457.5 336Q405 380 286 395Z" glyph-name="S" horiz-adv-x="580" unicode="S" /><glyph d="M363 950 301 840H279L341 950ZM286 395Q222 403 178 419Q134 435 106.5 458.5Q79 482 67 512.5Q55 543 55 580V590Q55 636 73.5 672Q92 708 123.5 733.5Q155 759 197.5 772.5Q240 786 289 786Q411 786 468 721.5Q525 657 525 545V520H505Q505 651 452 708.5Q399 766 293 766H287Q245 766 206.5 754Q168 742 139.5 719.5Q111 697 94 665.5Q77 634 77 595V585Q77 547 88.5 518.5Q100 490 126.5 469Q153 448 194.5 434.5Q236 421 296 414Q360 406 404.5 389Q449 372 477 346.5Q505 321 517.5 287Q530 253 530 211V201Q530 150 511.5 111.5Q493 73 460.5 47Q428 21 384.5 7.5Q341 -6 290 -6Q230 -6 185 12Q140 30 110 62.5Q80 95 65 140Q50 185 50 240V250H70Q70 132 126.5 73Q183 14 287 14H293Q339 14 379 26.5Q419 39 448 62Q477 85 493.5 119Q510 153 510 197V207Q510 292 457.5 336Q405 380 286 395Z" glyph-name="Sacute" horiz-adv-x="580" unicode="&#346;" /><glyph d="M400 950 300 840H280L180 950H204L290 855L376 950ZM286 395Q222 403 178 419Q134 435 106.5 458.5Q79 482 67 512.5Q55 543 55 580V590Q55 636 73.5 672Q92 708 123.5 733.5Q155 759 197.5 772.5Q240 786 289 786Q411 786 468 721.5Q525 657 525 545V520H505Q505 651 452 708.5Q399 766 293 766H287Q245 766 206.5 754Q168 742 139.5 719.5Q111 697 94 665.5Q77 634 77 595V585Q77 547 88.5 518.5Q100 490 126.5 469Q153 448 194.5 434.5Q236 421 296 414Q360 406 404.5 389Q449 372 477 346.5Q505 321 517.5 287Q530 253 530 211V201Q530 150 511.5 111.5Q493 73 460.5 47Q428 21 384.5 7.5Q341 -6 290 -6Q230 -6 185 12Q140 30 110 62.5Q80 95 65 140Q50 185 50 240V250H70Q70 132 126.5 73Q183 14 287 14H293Q339 14 379 26.5Q419 39 448 62Q477 85 493.5 119Q510 153 510 197V207Q510 292 457.5 336Q405 380 286 395Z" glyph-name="Scaron" horiz-adv-x="580" unicode="&#352;" /><glyph d="M217 -172Q229 -179 250.5 -183.5Q272 -188 290 -188Q304 -188 317.5 -186.5Q331 -185 341 -179.5Q351 -174 357 -163.5Q363 -153 363 -135Q363 -117 357 -106.5Q351 -96 341 -90.5Q331 -85 317.5 -83.5Q304 -82 290 -82Q285 -82 280 -82.5Q275 -83 272 -83Q268 -84 265 -84L254 -73L278 -6Q221 -4 178 14.5Q135 33 106.5 65Q78 97 64 141.5Q50 186 50 240V250H70Q70 132 126.5 73Q183 14 287 14H293Q339 14 379 26.5Q419 39 448 62Q477 85 493.5 119Q510 153 510 197V207Q510 292 457.5 336Q405 380 286 395Q222 403 178 419Q134 435 106.5 458.5Q79 482 67 512.5Q55 543 55 580V590Q55 636 73.5 672Q92 708 123.5 733.5Q155 759 197.5 772.5Q240 786 289 786Q411 786 468 721.5Q525 657 525 545V520H505Q505 651 452 708.5Q399 766 293 766H287Q245 766 206.5 754Q168 742 139.5 719.5Q111 697 94 665.5Q77 634 77 595V585Q77 547 88.5 518.5Q100 490 126.5 469Q153 448 194.5 434.5Q236 421 296 414Q360 406 404.5 389Q449 372 477 346.5Q505 321 517.5 287Q530 253 530 211V201Q530 151 512 113Q494 75 463 49Q432 23 389.5 9Q347 -5 298 -6L277 -65Q282 -64 295 -64Q310 -64 325.5 -67Q341 -70 353 -78Q365 -86 373 -100Q381 -114 381 -135Q381 -156 373.5 -170Q366 -184 353 -192Q340 -200 324 -203Q308 -206 290 -206Q270 -206 249 -201Q228 -196 211 -188Z" glyph-name="Scedilla" horiz-adv-x="580" unicode="&#350;" /><glyph d="M180 840 280 950H300L400 840H376L290 935L204 840ZM286 395Q222 403 178 419Q134 435 106.5 458.5Q79 482 67 512.5Q55 543 55 580V590Q55 636 73.5 672Q92 708 123.5 733.5Q155 759 197.5 772.5Q240 786 289 786Q411 786 468 721.5Q525 657 525 545V520H505Q505 651 452 708.5Q399 766 293 766H287Q245 766 206.5 754Q168 742 139.5 719.5Q111 697 94 665.5Q77 634 77 595V585Q77 547 88.5 518.5Q100 490 126.5 469Q153 448 194.5 434.5Q236 421 296 414Q360 406 404.5 389Q449 372 477 346.5Q505 321 517.5 287Q530 253 530 211V201Q530 150 511.5 111.5Q493 73 460.5 47Q428 21 384.5 7.5Q341 -6 290 -6Q230 -6 185 12Q140 30 110 62.5Q80 95 65 140Q50 185 50 240V250H70Q70 132 126.5 73Q183 14 287 14H293Q339 14 379 26.5Q419 39 448 62Q477 85 493.5 119Q510 153 510 197V207Q510 292 457.5 336Q405 380 286 395Z" glyph-name="Scircumflex" horiz-adv-x="580" unicode="&#348;" /><glyph d="M310 -102Q310 -159 291.5 -182.5Q273 -206 235 -206V-188Q248 -188 258.5 -185Q269 -182 275.5 -173.5Q282 -165 286 -150Q290 -135 290 -110H270V-70H310ZM286 395Q222 403 178 419Q134 435 106.5 458.5Q79 482 67 512.5Q55 543 55 580V590Q55 636 73.5 672Q92 708 123.5 733.5Q155 759 197.5 772.5Q240 786 289 786Q411 786 468 721.5Q525 657 525 545V520H505Q505 651 452 708.5Q399 766 293 766H287Q245 766 206.5 754Q168 742 139.5 719.5Q111 697 94 665.5Q77 634 77 595V585Q77 547 88.5 518.5Q100 490 126.5 469Q153 448 194.5 434.5Q236 421 296 414Q360 406 404.5 389Q449 372 477 346.5Q505 321 517.5 287Q530 253 530 211V201Q530 150 511.5 111.5Q493 73 460.5 47Q428 21 384.5 7.5Q341 -6 290 -6Q230 -6 185 12Q140 30 110 62.5Q80 95 65 140Q50 185 50 240V250H70Q70 132 126.5 73Q183 14 287 14H293Q339 14 379 26.5Q419 39 448 62Q477 85 493.5 119Q510 153 510 197V207Q510 292 457.5 336Q405 380 286 395Z" glyph-name="Scommaaccent" horiz-adv-x="580" unicode="&#536;" /><glyph d="M255 0H235V760H25V780H465V760H255Z" glyph-name="T" horiz-adv-x="490" unicode="T" /><glyph d="M235 760H25V780H465V760H255V408H375V388H255V0H235V388H115V408H235Z" glyph-name="Tbar" horiz-adv-x="490" unicode="&#358;" /><glyph d="M355 950 255 840H235L135 950H159L245 855L331 950ZM255 0H235V760H25V780H465V760H255Z" glyph-name="Tcaron" horiz-adv-x="490" unicode="&#356;" /><glyph d="M265 -102Q265 -159 246.5 -182.5Q228 -206 190 -206V-188Q203 -188 213.5 -185Q224 -182 230.5 -173.5Q237 -165 241 -150Q245 -135 245 -110H225V-70H265ZM255 0H235V760H25V780H465V760H255Z" glyph-name="Tcommaaccent" horiz-adv-x="490" unicode="&#354;" /><glyph d="M265 875H225V915H265ZM255 0H235V760H25V780H465V760H255Z" glyph-name="Tdotaccent" horiz-adv-x="490" unicode="&#7786;" /><glyph d="M272 190Q303 190 338 196.5Q373 203 403 223.5Q433 244 453 281.5Q473 319 473 381V399Q473 461 453 498.5Q433 536 403 556.5Q373 577 338 583.5Q303 590 272 590H100V190ZM100 610H273Q313 610 352.5 600.5Q392 591 423.5 567.5Q455 544 474.5 503.5Q494 463 494 400V380Q494 317 474.5 276.5Q455 236 423.5 212.5Q392 189 352.5 179.5Q313 170 273 170H100V0H80V780H100Z" glyph-name="Thorn" horiz-adv-x="544" unicode="&#222;" /><glyph d="M310 -6Q257 -6 214.5 6Q172 18 141 46.5Q110 75 93.5 123Q77 171 77 243V780H97V246Q97 178 111.5 133.5Q126 89 153 62.5Q180 36 219.5 25Q259 14 310 14Q361 14 400.5 25Q440 36 467 62.5Q494 89 508.5 133.5Q523 178 523 246V780H543V243Q543 171 526.5 123Q510 75 479 46.5Q448 18 405 6Q362 -6 310 -6Z" glyph-name="U" horiz-adv-x="620" unicode="U" /><glyph d="M383 950 321 840H299L361 950ZM310 -6Q257 -6 214.5 6Q172 18 141 46.5Q110 75 93.5 123Q77 171 77 243V780H97V246Q97 178 111.5 133.5Q126 89 153 62.5Q180 36 219.5 25Q259 14 310 14Q361 14 400.5 25Q440 36 467 62.5Q494 89 508.5 133.5Q523 178 523 246V780H543V243Q543 171 526.5 123Q510 75 479 46.5Q448 18 405 6Q362 -6 310 -6Z" glyph-name="Uacute" horiz-adv-x="620" unicode="&#218;" /><glyph d="M310 852Q364 852 393 878.5Q422 905 422 950H440Q440 897 405.5 865.5Q371 834 310 834Q249 834 214.5 865.5Q180 897 180 950H198Q198 905 227 878.5Q256 852 310 852ZM310 -6Q257 -6 214.5 6Q172 18 141 46.5Q110 75 93.5 123Q77 171 77 243V780H97V246Q97 178 111.5 133.5Q126 89 153 62.5Q180 36 219.5 25Q259 14 310 14Q361 14 400.5 25Q440 36 467 62.5Q494 89 508.5 133.5Q523 178 523 246V780H543V243Q543 171 526.5 123Q510 75 479 46.5Q448 18 405 6Q362 -6 310 -6Z" glyph-name="Ubreve" horiz-adv-x="620" unicode="&#364;" /><glyph d="M200 840 300 950H320L420 840H396L310 935L224 840ZM310 -6Q257 -6 214.5 6Q172 18 141 46.5Q110 75 93.5 123Q77 171 77 243V780H97V246Q97 178 111.5 133.5Q126 89 153 62.5Q180 36 219.5 25Q259 14 310 14Q361 14 400.5 25Q440 36 467 62.5Q494 89 508.5 133.5Q523 178 523 246V780H543V243Q543 171 526.5 123Q510 75 479 46.5Q448 18 405 6Q362 -6 310 -6Z" glyph-name="Ucircumflex" horiz-adv-x="620" unicode="&#219;" /><glyph d="M260 875H220V915H260ZM400 875H360V915H400ZM310 -6Q257 -6 214.5 6Q172 18 141 46.5Q110 75 93.5 123Q77 171 77 243V780H97V246Q97 178 111.5 133.5Q126 89 153 62.5Q180 36 219.5 25Q259 14 310 14Q361 14 400.5 25Q440 36 467 62.5Q494 89 508.5 133.5Q523 178 523 246V780H543V243Q543 171 526.5 123Q510 75 479 46.5Q448 18 405 6Q362 -6 310 -6Z" glyph-name="Udieresis" horiz-adv-x="620" unicode="&#220;" /><glyph d="M259 950 321 840H299L237 950ZM310 -6Q257 -6 214.5 6Q172 18 141 46.5Q110 75 93.5 123Q77 171 77 243V780H97V246Q97 178 111.5 133.5Q126 89 153 62.5Q180 36 219.5 25Q259 14 310 14Q361 14 400.5 25Q440 36 467 62.5Q494 89 508.5 133.5Q523 178 523 246V780H543V243Q543 171 526.5 123Q510 75 479 46.5Q448 18 405 6Q362 -6 310 -6Z" glyph-name="Ugrave" horiz-adv-x="620" unicode="&#217;" /><glyph d="M433 950 371 840H349L411 950ZM333 950 271 840H249L311 950ZM310 -6Q257 -6 214.5 6Q172 18 141 46.5Q110 75 93.5 123Q77 171 77 243V780H97V246Q97 178 111.5 133.5Q126 89 153 62.5Q180 36 219.5 25Q259 14 310 14Q361 14 400.5 25Q440 36 467 62.5Q494 89 508.5 133.5Q523 178 523 246V780H543V243Q543 171 526.5 123Q510 75 479 46.5Q448 18 405 6Q362 -6 310 -6Z" glyph-name="Uhungarumlaut" horiz-adv-x="620" unicode="&#368;" /><glyph d="M210 905H410V885H210ZM310 -6Q257 -6 214.5 6Q172 18 141 46.5Q110 75 93.5 123Q77 171 77 243V780H97V246Q97 178 111.5 133.5Q126 89 153 62.5Q180 36 219.5 25Q259 14 310 14Q361 14 400.5 25Q440 36 467 62.5Q494 89 508.5 133.5Q523 178 523 246V780H543V243Q543 171 526.5 123Q510 75 479 46.5Q448 18 405 6Q362 -6 310 -6Z" glyph-name="Umacron" horiz-adv-x="620" unicode="&#362;" /><glyph d="M426 -188Q412 -195 394 -200.5Q376 -206 347 -206Q329 -206 313 -201Q297 -196 284 -185Q271 -174 263.5 -156.5Q256 -139 256 -115Q256 -73 275 -47.5Q294 -22 323 -6H310Q257 -6 214.5 6Q172 18 141 46.5Q110 75 93.5 123Q77 171 77 243V780H97V246Q97 178 111.5 133.5Q126 89 153 62.5Q180 36 219.5 25Q259 14 310 14Q361 14 400.5 25Q440 36 467 62.5Q494 89 508.5 133.5Q523 178 523 246V780H543V243Q543 184 531.5 141Q520 98 498.5 69Q477 40 447 23.5Q417 7 381 0Q364 -3 345.5 -11.5Q327 -20 311 -34.5Q295 -49 284.5 -69Q274 -89 274 -115Q274 -156 296 -172Q318 -188 347 -188Q373 -188 391 -182.5Q409 -177 420 -172Z" glyph-name="Uogonek" horiz-adv-x="620" unicode="&#370;" /><glyph d="M242 870Q242 841 261.5 821.5Q281 802 310 802Q339 802 358.5 821.5Q378 841 378 870Q378 899 358.5 918.5Q339 938 310 938Q281 938 261.5 918.5Q242 899 242 870ZM224 870Q224 888 231 903.5Q238 919 249.5 930.5Q261 942 276.5 949Q292 956 310 956Q328 956 343.5 949Q359 942 370.5 930.5Q382 919 389 903.5Q396 888 396 870Q396 852 389 836.5Q382 821 370.5 809.5Q359 798 343.5 791Q328 784 310 784Q292 784 276.5 791Q261 798 249.5 809.5Q238 821 231 836.5Q224 852 224 870ZM310 -6Q257 -6 214.5 6Q172 18 141 46.5Q110 75 93.5 123Q77 171 77 243V780H97V246Q97 178 111.5 133.5Q126 89 153 62.5Q180 36 219.5 25Q259 14 310 14Q361 14 400.5 25Q440 36 467 62.5Q494 89 508.5 133.5Q523 178 523 246V780H543V243Q543 171 526.5 123Q510 75 479 46.5Q448 18 405 6Q362 -6 310 -6Z" glyph-name="Uring" horiz-adv-x="620" unicode="&#366;" /><glyph d="M445 927Q445 907 440 893.5Q435 880 426.5 872Q418 864 407 860.5Q396 857 385 857Q365 857 346 866Q327 875 309 886Q291 897 273.5 906Q256 915 238 915Q221 915 207 906Q193 897 193 863H175Q175 903 193.5 918Q212 933 235 933Q255 933 274 924Q293 915 311 904Q329 893 346.5 884Q364 875 382 875Q399 875 413 884Q427 893 427 927ZM310 -6Q257 -6 214.5 6Q172 18 141 46.5Q110 75 93.5 123Q77 171 77 243V780H97V246Q97 178 111.5 133.5Q126 89 153 62.5Q180 36 219.5 25Q259 14 310 14Q361 14 400.5 25Q440 36 467 62.5Q494 89 508.5 133.5Q523 178 523 246V780H543V243Q543 171 526.5 123Q510 75 479 46.5Q448 18 405 6Q362 -6 310 -6Z" glyph-name="Utilde" horiz-adv-x="620" unicode="&#360;" /><glyph d="M285 -10 35 780H56L295 20L534 780H555L305 -10Z" glyph-name="V" horiz-adv-x="590" unicode="V" /><glyph d="M643 33 801 780H822L655 0H633L430 747L227 0H205L38 780H59L217 33L420 780H440Z" glyph-name="W" horiz-adv-x="860" unicode="W" /><glyph d="M503 950 441 840H419L481 950ZM643 33 801 780H822L655 0H633L430 747L227 0H205L38 780H59L217 33L420 780H440Z" glyph-name="Wacute" horiz-adv-x="860" unicode="&#7810;" /><glyph d="M320 840 420 950H440L540 840H516L430 935L344 840ZM643 33 801 780H822L655 0H633L430 747L227 0H205L38 780H59L217 33L420 780H440Z" glyph-name="Wcircumflex" horiz-adv-x="860" unicode="&#372;" /><glyph d="M380 875H340V915H380ZM520 875H480V915H520ZM643 33 801 780H822L655 0H633L430 747L227 0H205L38 780H59L217 33L420 780H440Z" glyph-name="Wdieresis" horiz-adv-x="860" unicode="&#7812;" /><glyph d="M379 950 441 840H419L357 950ZM643 33 801 780H822L655 0H633L430 747L227 0H205L38 780H59L217 33L420 780H440Z" glyph-name="Wgrave" horiz-adv-x="860" unicode="&#7808;" /><glyph d="M52 0H28L277 395L28 780H52L290 411L528 780H552L303 395L552 0H528L290 378Z" glyph-name="X" horiz-adv-x="580" unicode="X" /><glyph d="M493 780H515L275 235V0H255V235L15 780H37L265 259Z" glyph-name="Y" horiz-adv-x="540" unicode="Y" /><glyph d="M338 950 276 840H254L316 950ZM493 780H515L275 235V0H255V235L15 780H37L265 259Z" glyph-name="Yacute" horiz-adv-x="540" unicode="&#221;" /><glyph d="M155 840 255 950H275L375 840H351L265 935L179 840ZM493 780H515L275 235V0H255V235L15 780H37L265 259Z" glyph-name="Ycircumflex" horiz-adv-x="540" unicode="&#374;" /><glyph d="M215 875H175V915H215ZM355 875H315V915H355ZM493 780H515L275 235V0H255V235L15 780H37L265 259Z" glyph-name="Ydieresis" horiz-adv-x="540" unicode="&#376;" /><glyph d="M236 1030 326 870H304L214 1030ZM493 780H515L275 235V0H255V235L15 780H37L265 259Z" glyph-name="Ygrave" horiz-adv-x="540" unicode="&#7922;" /><glyph d="M165 905H365V885H165ZM493 780H515L275 235V0H255V235L15 780H37L265 259Z" glyph-name="Ymacron" horiz-adv-x="540" unicode="&#562;" /><glyph d="M475 761 360 760H50V780H500V765L65 19L180 20H510V0H40V15Z" glyph-name="Z" horiz-adv-x="550" unicode="Z" /><glyph d="M348 950 286 840H264L326 950ZM475 761 360 760H50V780H500V765L65 19L180 20H510V0H40V15Z" glyph-name="Zacute" horiz-adv-x="550" unicode="&#377;" /><glyph d="M385 950 285 840H265L165 950H189L275 855L361 950ZM475 761 360 760H50V780H500V765L65 19L180 20H510V0H40V15Z" glyph-name="Zcaron" horiz-adv-x="550" unicode="&#381;" /><glyph d="M295 875H255V915H295ZM475 761 360 760H50V780H500V765L65 19L180 20H510V0H40V15Z" glyph-name="Zdotaccent" horiz-adv-x="550" unicode="&#379;" /><glyph d="M201 14Q248 14 281.5 25.5Q315 37 338 53Q361 69 374.5 87Q388 105 395 118V298L208 268Q180 263 155.5 255.5Q131 248 112.5 233.5Q94 219 83 195.5Q72 172 72 136V125Q72 103 80 83Q88 63 104 47.5Q120 32 144 23Q168 14 201 14ZM52 135Q52 180 66.5 208Q81 236 104.5 252.5Q128 269 157 276.5Q186 284 215 288L395 317V350Q395 384 390 414Q385 444 369 466.5Q353 489 323.5 502.5Q294 516 245 516Q196 516 166.5 502.5Q137 489 121 466.5Q105 444 100 414Q95 384 95 350H75V361Q75 394 82 425.5Q89 457 108 481.5Q127 506 160 521Q193 536 245 536Q297 536 330 521Q363 506 382 481.5Q401 457 408 425.5Q415 394 415 361V120L420 0H405L397 84Q387 70 371 54Q355 38 331 24.5Q307 11 275 2.5Q243 -6 200 -6Q136 -6 94 27.5Q52 61 52 125Z" glyph-name="a" horiz-adv-x="485" unicode="a" /><glyph d="M346 780 256 620H234L324 780ZM201 14Q248 14 281.5 25.5Q315 37 338 53Q361 69 374.5 87Q388 105 395 118V298L208 268Q180 263 155.5 255.5Q131 248 112.5 233.5Q94 219 83 195.5Q72 172 72 136V125Q72 103 80 83Q88 63 104 47.5Q120 32 144 23Q168 14 201 14ZM52 135Q52 180 66.5 208Q81 236 104.5 252.5Q128 269 157 276.5Q186 284 215 288L395 317V350Q395 384 390 414Q385 444 369 466.5Q353 489 323.5 502.5Q294 516 245 516Q196 516 166.5 502.5Q137 489 121 466.5Q105 444 100 414Q95 384 95 350H75V361Q75 394 82 425.5Q89 457 108 481.5Q127 506 160 521Q193 536 245 536Q297 536 330 521Q363 506 382 481.5Q401 457 408 425.5Q415 394 415 361V120L420 0H405L397 84Q387 70 371 54Q355 38 331 24.5Q307 11 275 2.5Q243 -6 200 -6Q136 -6 94 27.5Q52 61 52 125Z" glyph-name="aacute" horiz-adv-x="485" unicode="&#225;" /><glyph d="M245 614Q207 614 179 627.5Q151 641 132.5 663.5Q114 686 104.5 716Q95 746 95 780H113Q113 750 121 723Q129 696 145 676Q161 656 186 644Q211 632 245 632Q279 632 304 644Q329 656 345 676Q361 696 369 723Q377 750 377 780H395Q395 746 385.5 716Q376 686 357.5 663.5Q339 641 310.5 627.5Q282 614 245 614ZM201 14Q248 14 281.5 25.5Q315 37 338 53Q361 69 374.5 87Q388 105 395 118V298L208 268Q180 263 155.5 255.5Q131 248 112.5 233.5Q94 219 83 195.5Q72 172 72 136V125Q72 103 80 83Q88 63 104 47.5Q120 32 144 23Q168 14 201 14ZM52 135Q52 180 66.5 208Q81 236 104.5 252.5Q128 269 157 276.5Q186 284 215 288L395 317V350Q395 384 390 414Q385 444 369 466.5Q353 489 323.5 502.5Q294 516 245 516Q196 516 166.5 502.5Q137 489 121 466.5Q105 444 100 414Q95 384 95 350H75V361Q75 394 82 425.5Q89 457 108 481.5Q127 506 160 521Q193 536 245 536Q297 536 330 521Q363 506 382 481.5Q401 457 408 425.5Q415 394 415 361V120L420 0H405L397 84Q387 70 371 54Q355 38 331 24.5Q307 11 275 2.5Q243 -6 200 -6Q136 -6 94 27.5Q52 61 52 125Z" glyph-name="abreve" horiz-adv-x="485" unicode="&#259;" /><glyph d="M110 620 235 780H255L380 620H355L245 762L135 620ZM201 14Q248 14 281.5 25.5Q315 37 338 53Q361 69 374.5 87Q388 105 395 118V298L208 268Q180 263 155.5 255.5Q131 248 112.5 233.5Q94 219 83 195.5Q72 172 72 136V125Q72 103 80 83Q88 63 104 47.5Q120 32 144 23Q168 14 201 14ZM52 135Q52 180 66.5 208Q81 236 104.5 252.5Q128 269 157 276.5Q186 284 215 288L395 317V350Q395 384 390 414Q385 444 369 466.5Q353 489 323.5 502.5Q294 516 245 516Q196 516 166.5 502.5Q137 489 121 466.5Q105 444 100 414Q95 384 95 350H75V361Q75 394 82 425.5Q89 457 108 481.5Q127 506 160 521Q193 536 245 536Q297 536 330 521Q363 506 382 481.5Q401 457 408 425.5Q415 394 415 361V120L420 0H405L397 84Q387 70 371 54Q355 38 331 24.5Q307 11 275 2.5Q243 -6 200 -6Q136 -6 94 27.5Q52 61 52 125Z" glyph-name="acircumflex" horiz-adv-x="485" unicode="&#226;" /><glyph d="M351 780 261 620H239L329 780Z" glyph-name="acute" horiz-adv-x="500" unicode="&#180;" /><glyph d="M323 950 261 840H239L301 950Z" glyph-name="acute.cap" horiz-adv-x="500" unicode="&#58402;" /><glyph d="M335 680H295V720H335ZM195 680H155V720H195ZM201 14Q248 14 281.5 25.5Q315 37 338 53Q361 69 374.5 87Q388 105 395 118V298L208 268Q180 263 155.5 255.5Q131 248 112.5 233.5Q94 219 83 195.5Q72 172 72 136V125Q72 103 80 83Q88 63 104 47.5Q120 32 144 23Q168 14 201 14ZM52 135Q52 180 66.5 208Q81 236 104.5 252.5Q128 269 157 276.5Q186 284 215 288L395 317V350Q395 384 390 414Q385 444 369 466.5Q353 489 323.5 502.5Q294 516 245 516Q196 516 166.5 502.5Q137 489 121 466.5Q105 444 100 414Q95 384 95 350H75V361Q75 394 82 425.5Q89 457 108 481.5Q127 506 160 521Q193 536 245 536Q297 536 330 521Q363 506 382 481.5Q401 457 408 425.5Q415 394 415 361V120L420 0H405L397 84Q387 70 371 54Q355 38 331 24.5Q307 11 275 2.5Q243 -6 200 -6Q136 -6 94 27.5Q52 61 52 125Z" glyph-name="adieresis" horiz-adv-x="485" unicode="&#228;" /><glyph d="M196 14Q242 14 276.5 25.5Q311 37 336 55Q361 73 377.5 96Q394 119 405 143Q390 194 390 255V298L203 268Q175 263 150.5 255.5Q126 248 107.5 233.5Q89 219 78 195.5Q67 172 67 136V125Q67 103 75 83Q83 63 99 47.5Q115 32 139 23Q163 14 196 14ZM600 516Q552 516 516 498Q480 480 456.5 448Q433 416 421.5 372Q410 328 410 275H790Q790 328 778.5 372Q767 416 743.5 448Q720 480 684 498Q648 516 600 516ZM47 135Q47 180 61.5 208Q76 236 99.5 252.5Q123 269 152 276.5Q181 284 210 288L390 317V350Q390 384 385 414Q380 444 364 466.5Q348 489 318.5 502.5Q289 516 240 516Q191 516 161.5 502.5Q132 489 116 466.5Q100 444 95 414Q90 384 90 350H70V361Q70 394 77 425.5Q84 457 103 481.5Q122 506 155 521Q188 536 240 536Q286 536 317.5 524Q349 512 368 491.5Q387 471 396 444Q405 417 407 387Q426 454 472.5 495Q519 536 600 536Q655 536 695 515.5Q735 495 760.5 460Q786 425 798 377.5Q810 330 810 275V255H410Q410 202 421.5 158Q433 114 456.5 82Q480 50 517 32Q554 14 605 14Q656 14 691.5 28.5Q727 43 748.5 65.5Q770 88 780 115.5Q790 143 790 170H810V165Q810 137 798.5 106.5Q787 76 762.5 51Q738 26 699 10Q660 -6 605 -6Q530 -6 483.5 27.5Q437 61 414 118Q404 99 387 77Q370 55 344 36.5Q318 18 281 6Q244 -6 195 -6Q131 -6 89 27.5Q47 61 47 125Z" glyph-name="ae" horiz-adv-x="865" unicode="&#230;" /><glyph d="M166 780 256 620H234L144 780ZM201 14Q248 14 281.5 25.5Q315 37 338 53Q361 69 374.5 87Q388 105 395 118V298L208 268Q180 263 155.5 255.5Q131 248 112.5 233.5Q94 219 83 195.5Q72 172 72 136V125Q72 103 80 83Q88 63 104 47.5Q120 32 144 23Q168 14 201 14ZM52 135Q52 180 66.5 208Q81 236 104.5 252.5Q128 269 157 276.5Q186 284 215 288L395 317V350Q395 384 390 414Q385 444 369 466.5Q353 489 323.5 502.5Q294 516 245 516Q196 516 166.5 502.5Q137 489 121 466.5Q105 444 100 414Q95 384 95 350H75V361Q75 394 82 425.5Q89 457 108 481.5Q127 506 160 521Q193 536 245 536Q297 536 330 521Q363 506 382 481.5Q401 457 408 425.5Q415 394 415 361V120L420 0H405L397 84Q387 70 371 54Q355 38 331 24.5Q307 11 275 2.5Q243 -6 200 -6Q136 -6 94 27.5Q52 61 52 125Z" glyph-name="agrave" horiz-adv-x="485" unicode="&#224;" /><glyph d="M177 -172Q189 -179 210.5 -183.5Q232 -188 250 -188Q264 -188 277.5 -186.5Q291 -185 301 -179.5Q311 -174 317 -163.5Q323 -153 323 -135Q323 -117 317 -106.5Q311 -96 301 -90.5Q291 -85 277.5 -83.5Q264 -82 250 -82Q236 -82 219.5 -85Q203 -88 192 -92V-75Q206 -70 220 -67Q234 -64 250 -64Q268 -64 284 -67Q300 -70 313 -78Q326 -86 333.5 -100Q341 -114 341 -135Q341 -156 333.5 -170Q326 -184 313 -192Q300 -200 284 -203Q268 -206 250 -206Q230 -206 209 -201Q188 -196 171 -188Z" glyph-name="altcedilla" horiz-adv-x="602" unicode="&#58390;" /><glyph d="M145 710H345V690H145ZM201 14Q248 14 281.5 25.5Q315 37 338 53Q361 69 374.5 87Q388 105 395 118V298L208 268Q180 263 155.5 255.5Q131 248 112.5 233.5Q94 219 83 195.5Q72 172 72 136V125Q72 103 80 83Q88 63 104 47.5Q120 32 144 23Q168 14 201 14ZM52 135Q52 180 66.5 208Q81 236 104.5 252.5Q128 269 157 276.5Q186 284 215 288L395 317V350Q395 384 390 414Q385 444 369 466.5Q353 489 323.5 502.5Q294 516 245 516Q196 516 166.5 502.5Q137 489 121 466.5Q105 444 100 414Q95 384 95 350H75V361Q75 394 82 425.5Q89 457 108 481.5Q127 506 160 521Q193 536 245 536Q297 536 330 521Q363 506 382 481.5Q401 457 408 425.5Q415 394 415 361V120L420 0H405L397 84Q387 70 371 54Q355 38 331 24.5Q307 11 275 2.5Q243 -6 200 -6Q136 -6 94 27.5Q52 61 52 125Z" glyph-name="amacron" horiz-adv-x="485" unicode="&#257;" /><glyph d="M105 630Q105 602 113.5 577Q122 552 137.5 529Q153 506 173.5 482.5Q194 459 218 434Q251 456 282.5 477Q314 498 339 521Q364 544 379.5 570.5Q395 597 395 630V640Q395 666 386 689Q377 712 359.5 729Q342 746 315.5 756Q289 766 254 766H246Q211 766 184.5 756Q158 746 140.5 729Q123 712 114 689Q105 666 105 640ZM278 14Q306 14 334.5 19Q363 24 390 37Q417 50 441.5 71Q466 92 486 124L214 411Q187 392 163 371.5Q139 351 120.5 326.5Q102 302 91 273.5Q80 245 80 210V200Q80 112 129 63Q178 14 272 14ZM275 -6Q173 -6 116.5 46Q60 98 60 200V210Q60 248 72 279Q84 310 103.5 335.5Q123 361 148.5 382.5Q174 404 202 423Q175 451 153.5 476Q132 501 117 525.5Q102 550 93.5 575.5Q85 601 85 630V640Q85 670 95.5 696.5Q106 723 126.5 743Q147 763 178 774.5Q209 786 250 786Q291 786 322 774.5Q353 763 373.5 743Q394 723 404.5 696.5Q415 670 415 640V630Q415 594 398.5 565.5Q382 537 356 512.5Q330 488 296.5 466Q263 444 230 422L495 142Q518 185 531 245Q544 305 545 390V395H565Q565 305 550.5 239.5Q536 174 510 127L630 0H604L500 110Q459 46 400 20Q341 -6 275 -6Z" glyph-name="ampersand" horiz-adv-x="640" unicode="&amp;" /><glyph d="M86 360 248 -120H227L65 360L227 840H248Z" glyph-name="anglebracketleft" horiz-adv-x="300" unicode="&#12296;" /><glyph d="M86 390 220 0H199L65 390L199 780H220Z" glyph-name="anglebracketleft.cap" horiz-adv-x="300" unicode="&#58519;" /><glyph d="M214 360 52 840H73L235 360L73 -120H52Z" glyph-name="anglebracketright" horiz-adv-x="300" unicode="&#12297;" /><glyph d="M214 390 80 780H101L235 390L101 0H80Z" glyph-name="anglebracketright.cap" horiz-adv-x="300" unicode="&#58520;" /><glyph d="M201 14Q248 14 281.5 25.5Q315 37 338 53Q361 69 374.5 87Q388 105 395 118V298L208 268Q180 263 155.5 255.5Q131 248 112.5 233.5Q94 219 83 195.5Q72 172 72 136V125Q72 103 80 83Q88 63 104 47.5Q120 32 144 23Q168 14 201 14ZM465 -188Q451 -195 433 -200.5Q415 -206 386 -206Q368 -206 352 -201Q336 -196 323 -185Q310 -174 302.5 -156.5Q295 -139 295 -115Q295 -87 304.5 -66Q314 -45 329 -30.5Q344 -16 363.5 -6Q383 4 404 12L397 84Q387 70 371 54Q355 38 331 24.5Q307 11 275 2.5Q243 -6 200 -6Q136 -6 94 27.5Q52 61 52 125V135Q52 180 66.5 208Q81 236 104.5 252.5Q128 269 157 276.5Q186 284 215 288L395 317V350Q395 384 390 414Q385 444 369 466.5Q353 489 323.5 502.5Q294 516 245 516Q196 516 166.5 502.5Q137 489 121 466.5Q105 444 100 414Q95 384 95 350H75V361Q75 394 82 425.5Q89 457 108 481.5Q127 506 160 521Q193 536 245 536Q297 536 330 521Q363 506 382 481.5Q401 457 408 425.5Q415 394 415 361V120L420 0Q402 -6 383.5 -14.5Q365 -23 349 -36.5Q333 -50 323 -69.5Q313 -89 313 -115Q313 -156 335 -172Q357 -188 386 -188Q412 -188 430 -182.5Q448 -177 459 -172Z" glyph-name="aogonek" horiz-adv-x="485" unicode="&#261;" /><glyph d="M171 316Q148 316 130 309Q112 302 98 292Q84 282 74.5 272Q65 262 60 256L45 271Q49 276 59.5 287Q70 298 85.5 309Q101 320 122.5 328Q144 336 170 336Q213 336 244 323Q275 310 303 295Q331 280 360.5 267Q390 254 429 254Q451 254 469.5 261Q488 268 502 278Q516 288 525.5 298Q535 308 540 314L555 299Q550 294 540 283Q530 272 514 261Q498 250 477 242Q456 234 430 234Q387 234 356 247Q325 260 297 275Q269 290 239.5 303Q210 316 171 316ZM429 454Q451 454 469.5 461Q488 468 502 478Q516 488 525.5 498Q535 508 540 514L555 499Q550 494 540 483Q530 472 514 461Q498 450 477 442Q456 434 430 434Q387 434 356 447Q325 460 297 475Q269 490 239.5 503Q210 516 171 516Q148 516 130 509Q112 502 98 492Q84 482 74.5 472Q65 462 60 456L45 471Q49 476 59.5 487Q70 498 85.5 509Q101 520 122.5 528Q144 536 170 536Q213 536 244 523Q275 510 303 495Q331 480 360.5 467Q390 454 429 454Z" glyph-name="approxequal" horiz-adv-x="600" unicode="&#8776;" /><glyph d="M172 700Q172 671 191.5 651.5Q211 632 240 632Q269 632 288.5 651.5Q308 671 308 700Q308 729 288.5 748.5Q269 768 240 768Q211 768 191.5 748.5Q172 729 172 700ZM154 700Q154 718 161 733.5Q168 749 179.5 760.5Q191 772 206.5 779Q222 786 240 786Q258 786 273.5 779Q289 772 300.5 760.5Q312 749 319 733.5Q326 718 326 700Q326 682 319 666.5Q312 651 300.5 639.5Q289 628 273.5 621Q258 614 240 614Q222 614 206.5 621Q191 628 179.5 639.5Q168 651 161 666.5Q154 682 154 700ZM196 14Q243 14 276.5 25.5Q310 37 333 53Q356 69 369.5 87Q383 105 390 118V298L203 268Q175 263 150.5 255.5Q126 248 107.5 233.5Q89 219 78 195.5Q67 172 67 136V125Q67 103 75 83Q83 63 99 47.5Q115 32 139 23Q163 14 196 14ZM47 135Q47 180 61.5 208Q76 236 99.5 252.5Q123 269 152 276.5Q181 284 210 288L390 317V350Q390 384 385 414Q380 444 364 466.5Q348 489 318.5 502.5Q289 516 240 516Q191 516 161.5 502.5Q132 489 116 466.5Q100 444 95 414Q90 384 90 350H70V361Q70 394 77 425.5Q84 457 103 481.5Q122 506 155 521Q188 536 240 536Q292 536 325 521Q358 506 377 481.5Q396 457 403 425.5Q410 394 410 361V120L415 0H400L392 84Q382 70 366 54Q350 38 326 24.5Q302 11 270 2.5Q238 -6 195 -6Q131 -6 89 27.5Q47 61 47 125Z" glyph-name="aring" horiz-adv-x="480" unicode="&#229;" /><glyph d="M70 413 450 33V780H470V33L850 413V384L460 -6L70 384Z" glyph-name="arrowdown" horiz-adv-x="920" unicode="&#8595;" /><glyph d="M483 780 103 400H850V380H103L483 0H454L64 390L454 780Z" glyph-name="arrowleft" horiz-adv-x="920" unicode="&#8592;" /><glyph d="M437 0 817 380H70V400H817L437 780H466L856 390L466 0Z" glyph-name="arrowright" horiz-adv-x="920" unicode="&#8594;" /><glyph d="M850 367 470 747V0H450V747L70 367V396L460 786L850 396Z" glyph-name="arrowup" horiz-adv-x="920" unicode="&#8593;" /><glyph d="M556 280H534L300 760L66 280H44L290 780H310Z" glyph-name="asciicircum" horiz-adv-x="600" unicode="^" /><glyph d="M429 354Q451 354 469.5 361Q488 368 502 378Q516 388 525.5 398Q535 408 540 414L555 399Q550 394 540 383Q530 372 514 361Q498 350 477 342Q456 334 430 334Q387 334 356 347Q325 360 297 375Q269 390 239.5 403Q210 416 171 416Q148 416 130 409Q112 402 98 392Q84 382 74.5 372Q65 362 60 356L45 371Q49 376 59.5 387Q70 398 85.5 409Q101 420 122.5 428Q144 436 170 436Q213 436 244 423Q275 410 303 395Q331 380 360.5 367Q390 354 429 354Z" glyph-name="asciitilde" horiz-adv-x="600" unicode="~" /><glyph d="M365 666 222 620 216 639 359 685ZM288 468 200 590 216 601 304 480ZM21 685 164 639 158 620 15 666ZM76 480 164 601 180 590 92 468ZM200 800V650H180V800Z" glyph-name="asterisk" horiz-adv-x="380" unicode="*" /><glyph d="M615 423Q605 438 590 454.5Q575 471 554.5 484.5Q534 498 509 507Q484 516 453 516Q409 516 374.5 500.5Q340 485 317 457.5Q294 430 282 391Q270 352 270 305V285Q270 238 282 199Q294 160 317 132.5Q340 105 374.5 89.5Q409 74 453 74Q484 74 509 83Q534 92 554.5 105.5Q575 119 590 135.5Q605 152 615 167ZM493 -186Q538 -186 580 -181.5Q622 -177 662.5 -165.5Q703 -154 742.5 -135Q782 -116 822 -87L834 -103Q751 -165 664.5 -185.5Q578 -206 490 -206Q391 -206 307.5 -172.5Q224 -139 163.5 -77Q103 -15 69 73Q35 161 35 270V310Q35 419 68 507Q101 595 160.5 657Q220 719 303 752.5Q386 786 485 786Q567 786 641.5 760Q716 734 772.5 683Q829 632 862 557Q895 482 895 385V355Q895 265 875.5 207.5Q856 150 820.5 117.5Q785 85 736.5 72.5Q688 60 630 60H625L618 139Q609 126 593.5 111Q578 96 557 83.5Q536 71 509.5 62.5Q483 54 452 54Q402 54 364.5 71Q327 88 301.5 119Q276 150 263 192Q250 234 250 285V305Q250 356 263 398Q276 440 301.5 471Q327 502 364.5 519Q402 536 452 536Q483 536 509.5 527.5Q536 519 557 506.5Q578 494 593.5 479Q609 464 618 451L625 530H640L635 410V180L639 80Q689 80 732.5 90.5Q776 101 807.5 131Q839 161 857 214.5Q875 268 875 355V385Q875 481 843 552.5Q811 624 757.5 671.5Q704 719 634 742.5Q564 766 488 766H482Q389 766 311 735Q233 704 176 645Q119 586 87 501.5Q55 417 55 310V270Q55 163 88 78.5Q121 -6 178.5 -65Q236 -124 315 -155Q394 -186 487 -186Z" glyph-name="at" horiz-adv-x="930" unicode="@" /><glyph d="M615 523Q605 538 590 554.5Q575 571 554.5 584.5Q534 598 509 607Q484 616 453 616Q409 616 374.5 600.5Q340 585 317 557.5Q294 530 282 491Q270 452 270 405V385Q270 338 282 299Q294 260 317 232.5Q340 205 374.5 189.5Q409 174 453 174Q484 174 509 183Q534 192 554.5 205.5Q575 219 590 235.5Q605 252 615 267ZM493 -86Q538 -86 580 -81.5Q622 -77 662.5 -65.5Q703 -54 742.5 -35Q782 -16 822 13L834 -3Q751 -65 664.5 -85.5Q578 -106 490 -106Q391 -106 307.5 -72.5Q224 -39 163.5 23Q103 85 69 173Q35 261 35 370V410Q35 519 68 607Q101 695 160.5 757Q220 819 303 852.5Q386 886 485 886Q567 886 641.5 860Q716 834 772.5 783Q829 732 862 657Q895 582 895 485V455Q895 365 875.5 307.5Q856 250 820.5 217.5Q785 185 736.5 172.5Q688 160 630 160H625L618 239Q609 226 593.5 211Q578 196 557 183.5Q536 171 509.5 162.5Q483 154 452 154Q402 154 364.5 171Q327 188 301.5 219Q276 250 263 292Q250 334 250 385V405Q250 456 263 498Q276 540 301.5 571Q327 602 364.5 619Q402 636 452 636Q483 636 509.5 627.5Q536 619 557 606.5Q578 594 593.5 579Q609 564 618 551L625 630H640L635 510V280L639 180Q689 180 732.5 190.5Q776 201 807.5 231Q839 261 857 314.5Q875 368 875 455V485Q875 581 843 652.5Q811 724 757.5 771.5Q704 819 634 842.5Q564 866 488 866H482Q389 866 311 835Q233 804 176 745Q119 686 87 601.5Q55 517 55 410V370Q55 263 88 178.5Q121 94 178.5 35Q236 -24 315 -55Q394 -86 487 -86Z" glyph-name="at.cap" horiz-adv-x="930" unicode="&#58643;" /><glyph d="M380 732Q380 712 375 698.5Q370 685 361.5 677Q353 669 342 665.5Q331 662 320 662Q300 662 281 671Q262 680 244 691Q226 702 208.5 711Q191 720 173 720Q156 720 142 711Q128 702 128 668H110Q110 708 128.5 723Q147 738 170 738Q190 738 209 729Q228 720 246 709Q264 698 281.5 689Q299 680 317 680Q334 680 348 689Q362 698 362 732ZM201 14Q248 14 281.5 25.5Q315 37 338 53Q361 69 374.5 87Q388 105 395 118V298L208 268Q180 263 155.5 255.5Q131 248 112.5 233.5Q94 219 83 195.5Q72 172 72 136V125Q72 103 80 83Q88 63 104 47.5Q120 32 144 23Q168 14 201 14ZM52 135Q52 180 66.5 208Q81 236 104.5 252.5Q128 269 157 276.5Q186 284 215 288L395 317V350Q395 384 390 414Q385 444 369 466.5Q353 489 323.5 502.5Q294 516 245 516Q196 516 166.5 502.5Q137 489 121 466.5Q105 444 100 414Q95 384 95 350H75V361Q75 394 82 425.5Q89 457 108 481.5Q127 506 160 521Q193 536 245 536Q297 536 330 521Q363 506 382 481.5Q401 457 408 425.5Q415 394 415 361V120L420 0H405L397 84Q387 70 371 54Q355 38 331 24.5Q307 11 275 2.5Q243 -6 200 -6Q136 -6 94 27.5Q52 61 52 125Z" glyph-name="atilde" horiz-adv-x="485" unicode="&#227;" /><glyph d="M90 107Q100 92 114.5 75.5Q129 59 149 45.5Q169 32 194.5 23Q220 14 252 14Q343 14 389 79Q435 144 435 255V275Q435 386 389 451Q343 516 252 516Q220 516 194.5 507Q169 498 149 484.5Q129 471 114.5 454.5Q100 438 90 423ZM90 455Q100 468 114.5 482Q129 496 149 508Q169 520 194.5 528Q220 536 252 536Q353 536 404 466.5Q455 397 455 275V255Q455 133 404 63.5Q353 -6 252 -6Q219 -6 192.5 2.5Q166 11 145.5 23.5Q125 36 110.5 51Q96 66 87 79L80 0H65L70 120V800H90Z" glyph-name="b" horiz-adv-x="510" unicode="b" /><glyph d="M25 840H45L275 -120H255Z" glyph-name="backslash" horiz-adv-x="300" unicode="\" /><glyph d="M64 780 256 0H236L44 780Z" glyph-name="backslash.cap" horiz-adv-x="300" unicode="&#58466;" /><glyph d="M195 420 335 280 475 420 490 405 350 265 490 125 475 110 335 250 195 110 180 125 320 265 180 405ZM90 510V20H580V510ZM70 0V530H600V0Z" glyph-name="ballotboxwithx" horiz-adv-x="680" unicode="&#9746;" /><glyph d="M80 840H100V-120H80Z" glyph-name="bar" horiz-adv-x="180" unicode="|" /><glyph d="M80 780H100V0H80Z" glyph-name="bar.cap" horiz-adv-x="180" unicode="&#58467;" /><glyph d="M100 875H60V915H100ZM90 107Q100 92 114.5 75.5Q129 59 149 45.5Q169 32 194.5 23Q220 14 252 14Q343 14 389 79Q435 144 435 255V275Q435 386 389 451Q343 516 252 516Q220 516 194.5 507Q169 498 149 484.5Q129 471 114.5 454.5Q100 438 90 423ZM90 455Q100 468 114.5 482Q129 496 149 508Q169 520 194.5 528Q220 536 252 536Q353 536 404 466.5Q455 397 455 275V255Q455 133 404 63.5Q353 -6 252 -6Q219 -6 192.5 2.5Q166 11 145.5 23.5Q125 36 110.5 51Q96 66 87 79L80 0H65L70 120V800H90Z" glyph-name="bdotaccent" horiz-adv-x="510" unicode="&#7683;" /><glyph d="M64 390Q64 472 95 544Q126 616 180 670Q234 724 306 755Q378 786 460 786Q542 786 614 755Q686 724 740 670Q794 616 825 544Q856 472 856 390Q856 308 825 236Q794 164 740 110Q686 56 614 25Q542 -6 460 -6Q378 -6 306 25Q234 56 180 110Q126 164 95 236Q64 308 64 390Z" glyph-name="blackcircle" horiz-adv-x="920" unicode="&#9679;" /><glyph d="M70 0V530H600V0Z" glyph-name="blacksmallsquare" horiz-adv-x="680" unicode="&#9642;" /><glyph d="M70 0V780H850V0Z" glyph-name="blacksquare" horiz-adv-x="920" unicode="&#9632;" /><glyph d="M250 820Q227 820 207.5 815.5Q188 811 174 799Q160 787 152.5 765.5Q145 744 145 710V463Q145 416 129 392.5Q113 369 87 360Q113 351 129 327Q145 303 145 257V10Q145 -24 152.5 -45.5Q160 -67 174 -79Q188 -91 207.5 -95.5Q227 -100 250 -100V-120H246Q222 -120 200 -114.5Q178 -109 161.5 -95Q145 -81 135 -57Q125 -33 125 5V256Q125 285 118.5 303Q112 321 100 331.5Q88 342 71.5 346Q55 350 35 350V370Q55 370 71.5 374Q88 378 100 388.5Q112 399 118.5 417Q125 435 125 464V715Q125 752 135 776.5Q145 801 161.5 815Q178 829 200 834.5Q222 840 246 840H250Z" glyph-name="braceleft" horiz-adv-x="300" unicode="{" /><glyph d="M250 760Q227 760 207.5 755.5Q188 751 174 739Q160 727 152.5 705.5Q145 684 145 650V493Q145 446 129 422.5Q113 399 87 390Q113 381 129 357Q145 333 145 287V130Q145 96 152.5 74.5Q160 53 174 41Q188 29 207.5 24.5Q227 20 250 20V0H246Q222 0 200 5.5Q178 11 161.5 25Q145 39 135 63Q125 87 125 125V286Q125 315 118.5 333Q112 351 100 361.5Q88 372 71.5 376Q55 380 35 380V400Q55 400 71.5 404Q88 408 100 418.5Q112 429 118.5 447Q125 465 125 494V655Q125 692 135 716.5Q145 741 161.5 755Q178 769 200 774.5Q222 780 246 780H250Z" glyph-name="braceleft.cap" horiz-adv-x="300" unicode="&#58517;" /><glyph d="M50 -100Q73 -100 92.5 -95.5Q112 -91 126 -79Q140 -67 147.5 -45.5Q155 -24 155 10V257Q155 303 171 327Q187 351 213 360Q187 369 171 392.5Q155 416 155 463V710Q155 744 147.5 765.5Q140 787 126 799Q112 811 92.5 815.5Q73 820 50 820V840H54Q78 840 100 834.5Q122 829 138.5 815Q155 801 165 776.5Q175 752 175 715V464Q175 435 181.5 417Q188 399 200 388.5Q212 378 228.5 374Q245 370 265 370V350Q245 350 228.5 346Q212 342 200 331.5Q188 321 181.5 303Q175 285 175 256V5Q175 -33 165 -57Q155 -81 138.5 -95Q122 -109 100 -114.5Q78 -120 54 -120H50Z" glyph-name="braceright" horiz-adv-x="300" unicode="}" /><glyph d="M50 780H54Q78 780 100 774.5Q122 769 138.5 755Q155 741 165 716.5Q175 692 175 655V494Q175 465 181.5 447Q188 429 200 418.5Q212 408 228.5 404Q245 400 265 400V380Q245 380 228.5 376Q212 372 200 361.5Q188 351 181.5 333Q175 315 175 286V125Q175 87 165 63Q155 39 138.5 25Q122 11 100 5.5Q78 0 54 0H50V20Q73 20 92.5 24.5Q112 29 126 41Q140 53 147.5 74.5Q155 96 155 130V287Q155 333 171 357Q187 381 213 390Q187 399 171 422.5Q155 446 155 493V650Q155 684 147.5 705.5Q140 727 126 739Q112 751 92.5 755.5Q73 760 50 760Z" glyph-name="braceright.cap" horiz-adv-x="300" unicode="&#58518;" /><glyph d="M250 840V820H100V-100H250V-120H80V840Z" glyph-name="bracketleft" horiz-adv-x="300" unicode="[" /><glyph d="M250 780V760H100V20H250V0H80V780Z" glyph-name="bracketleft.cap" horiz-adv-x="300" unicode="&#58515;" /><glyph d="M50 -120V-100H200V820H50V840H220V-120Z" glyph-name="bracketright" horiz-adv-x="300" unicode="]" /><glyph d="M50 0V20H200V760H50V780H220V0Z" glyph-name="bracketright.cap" horiz-adv-x="300" unicode="&#58516;" /><glyph d="M250 614Q212 614 184 627.5Q156 641 137.5 663.5Q119 686 109.5 716Q100 746 100 780H118Q118 750 126 723Q134 696 150 676Q166 656 191 644Q216 632 250 632Q284 632 309 644Q334 656 350 676Q366 696 374 723Q382 750 382 780H400Q400 746 390.5 716Q381 686 362.5 663.5Q344 641 315.5 627.5Q287 614 250 614Z" glyph-name="breve" horiz-adv-x="500" unicode="&#728;" /><glyph d="M250 852Q304 852 333 878.5Q362 905 362 950H380Q380 897 345.5 865.5Q311 834 250 834Q189 834 154.5 865.5Q120 897 120 950H138Q138 905 167 878.5Q196 852 250 852Z" glyph-name="breve.cap" horiz-adv-x="500" unicode="&#58406;" /><glyph d="M80 320H100V-120H80ZM80 840H100V400H80Z" glyph-name="brokenbar" horiz-adv-x="180" unicode="&#166;" /><glyph d="M80 350H100V0H80ZM80 780H100V430H80Z" glyph-name="brokenbar.cap" horiz-adv-x="180" unicode="&#58469;" /><glyph d="M310 220H70V460H310Z" glyph-name="bullet" horiz-adv-x="380" unicode="&#8226;" /><glyph d="M310 270H70V510H310Z" glyph-name="bullet.cap" horiz-adv-x="380" unicode="&#58470;" /><glyph d="M55 275Q55 331 67.5 379Q80 427 106 462Q132 497 172 516.5Q212 536 268 536Q319 536 354 519.5Q389 503 410 477Q431 451 440.5 419Q450 387 450 355V345H430Q430 381 421 412Q412 443 392.5 466.5Q373 490 342 503Q311 516 268 516Q219 516 183 498.5Q147 481 123 449.5Q99 418 87 373.5Q75 329 75 275V255Q75 201 87 156.5Q99 112 123 80.5Q147 49 183 31.5Q219 14 268 14Q312 14 342.5 26Q373 38 392.5 60Q412 82 421 111Q430 140 430 175H450V165Q450 135 441 104.5Q432 74 410.5 49.5Q389 25 354 9.5Q319 -6 268 -6Q212 -6 172 13.5Q132 33 106 68Q80 103 67.5 151Q55 199 55 255Z" glyph-name="c" horiz-adv-x="505" unicode="c" /><glyph d="M369 780 279 620H257L347 780ZM55 275Q55 331 67.5 379Q80 427 106 462Q132 497 172 516.5Q212 536 268 536Q319 536 354 519.5Q389 503 410 477Q431 451 440.5 419Q450 387 450 355V345H430Q430 381 421 412Q412 443 392.5 466.5Q373 490 342 503Q311 516 268 516Q219 516 183 498.5Q147 481 123 449.5Q99 418 87 373.5Q75 329 75 275V255Q75 201 87 156.5Q99 112 123 80.5Q147 49 183 31.5Q219 14 268 14Q312 14 342.5 26Q373 38 392.5 60Q412 82 421 111Q430 140 430 175H450V165Q450 135 441 104.5Q432 74 410.5 49.5Q389 25 354 9.5Q319 -6 268 -6Q212 -6 172 13.5Q132 33 106 68Q80 103 67.5 151Q55 199 55 255Z" glyph-name="cacute" horiz-adv-x="505" unicode="&#263;" /><glyph d="M140 780 250 638 360 780H385L260 620H240L115 780Z" glyph-name="caron" horiz-adv-x="500" unicode="&#711;" /><glyph d="M360 950 260 840H240L140 950H164L250 855L336 950Z" glyph-name="caron.cap" horiz-adv-x="500" unicode="&#58413;" /><glyph d="M361 800 350 620H340V800Z" glyph-name="caronSlovak" horiz-adv-x="500" unicode="&#58387;" /><glyph d="M158 780 268 638 378 780H403L278 620H258L133 780ZM55 275Q55 331 67.5 379Q80 427 106 462Q132 497 172 516.5Q212 536 268 536Q319 536 354 519.5Q389 503 410 477Q431 451 440.5 419Q450 387 450 355V345H430Q430 381 421 412Q412 443 392.5 466.5Q373 490 342 503Q311 516 268 516Q219 516 183 498.5Q147 481 123 449.5Q99 418 87 373.5Q75 329 75 275V255Q75 201 87 156.5Q99 112 123 80.5Q147 49 183 31.5Q219 14 268 14Q312 14 342.5 26Q373 38 392.5 60Q412 82 421 111Q430 140 430 175H450V165Q450 135 441 104.5Q432 74 410.5 49.5Q389 25 354 9.5Q319 -6 268 -6Q212 -6 172 13.5Q132 33 106 68Q80 103 67.5 151Q55 199 55 255Z" glyph-name="ccaron" horiz-adv-x="505" unicode="&#269;" /><glyph d="M195 -172Q207 -179 228.5 -183.5Q250 -188 268 -188Q282 -188 295.5 -186.5Q309 -185 319 -179.5Q329 -174 335 -163.5Q341 -153 341 -135Q341 -117 335 -106.5Q329 -96 319 -90.5Q309 -85 295.5 -83.5Q282 -82 268 -82Q263 -82 258 -82.5Q253 -83 250 -83Q246 -84 243 -84L232 -73L256 -6Q203 -4 165 16.5Q127 37 102.5 72Q78 107 66.5 153.5Q55 200 55 255V275Q55 331 67.5 379Q80 427 106 462Q132 497 172 516.5Q212 536 268 536Q319 536 354 519.5Q389 503 410 477Q431 451 440.5 419Q450 387 450 355V345H430Q430 381 421 412Q412 443 392.5 466.5Q373 490 342 503Q311 516 268 516Q219 516 183 498.5Q147 481 123 449.5Q99 418 87 373.5Q75 329 75 275V255Q75 201 87 156.5Q99 112 123 80.5Q147 49 183 31.5Q219 14 268 14Q312 14 342.5 26Q373 38 392.5 60Q412 82 421 111Q430 140 430 175H450V165Q450 135 441 105Q432 75 411.5 51Q391 27 358 11Q325 -5 276 -6L255 -65Q260 -64 273 -64Q288 -64 303.5 -67Q319 -70 331 -78Q343 -86 351 -100Q359 -114 359 -135Q359 -156 351.5 -170Q344 -184 331 -192Q318 -200 302 -203Q286 -206 268 -206Q248 -206 227 -201Q206 -196 189 -188Z" glyph-name="ccedilla" horiz-adv-x="505" unicode="&#231;" /><glyph d="M133 620 258 780H278L403 620H378L268 762L158 620ZM55 275Q55 331 67.5 379Q80 427 106 462Q132 497 172 516.5Q212 536 268 536Q319 536 354 519.5Q389 503 410 477Q431 451 440.5 419Q450 387 450 355V345H430Q430 381 421 412Q412 443 392.5 466.5Q373 490 342 503Q311 516 268 516Q219 516 183 498.5Q147 481 123 449.5Q99 418 87 373.5Q75 329 75 275V255Q75 201 87 156.5Q99 112 123 80.5Q147 49 183 31.5Q219 14 268 14Q312 14 342.5 26Q373 38 392.5 60Q412 82 421 111Q430 140 430 175H450V165Q450 135 441 104.5Q432 74 410.5 49.5Q389 25 354 9.5Q319 -6 268 -6Q212 -6 172 13.5Q132 33 106 68Q80 103 67.5 151Q55 199 55 255Z" glyph-name="ccircumflex" horiz-adv-x="505" unicode="&#265;" /><glyph d="M288 680H248V720H288ZM55 275Q55 331 67.5 379Q80 427 106 462Q132 497 172 516.5Q212 536 268 536Q319 536 354 519.5Q389 503 410 477Q431 451 440.5 419Q450 387 450 355V345H430Q430 381 421 412Q412 443 392.5 466.5Q373 490 342 503Q311 516 268 516Q219 516 183 498.5Q147 481 123 449.5Q99 418 87 373.5Q75 329 75 275V255Q75 201 87 156.5Q99 112 123 80.5Q147 49 183 31.5Q219 14 268 14Q312 14 342.5 26Q373 38 392.5 60Q412 82 421 111Q430 140 430 175H450V165Q450 135 441 104.5Q432 74 410.5 49.5Q389 25 354 9.5Q319 -6 268 -6Q212 -6 172 13.5Q132 33 106 68Q80 103 67.5 151Q55 199 55 255Z" glyph-name="cdotaccent" horiz-adv-x="505" unicode="&#267;" /><glyph d="M177 -172Q189 -179 210.5 -183.5Q232 -188 250 -188Q264 -188 277.5 -186.5Q291 -185 301 -179.5Q311 -174 317 -163.5Q323 -153 323 -135Q323 -117 317 -106.5Q311 -96 301 -90.5Q291 -85 277.5 -83.5Q264 -82 250 -82Q245 -82 240 -82.5Q235 -83 232 -83Q228 -84 225 -84L214 -73L240 0H260L237 -65Q242 -64 255 -64Q270 -64 285.5 -67Q301 -70 313 -78Q325 -86 333 -100Q341 -114 341 -135Q341 -156 333.5 -170Q326 -184 313 -192Q300 -200 284 -203Q268 -206 250 -206Q230 -206 209 -201Q188 -196 171 -188Z" glyph-name="cedilla" horiz-adv-x="602" unicode="&#184;" /><glyph d="M94 378Q94 266 125.5 197.5Q157 129 216 100L359 697Q339 700 317 700H314Q209 700 151.5 626.5Q94 553 94 401ZM382 712Q456 694 491 637.5Q526 581 526 496V481H506Q506 661 378 693L234 92Q270 80 314 80H317Q408 80 457 130.5Q506 181 506 278H526V266Q526 224 513.5 186.5Q501 149 475 121Q449 93 409.5 76.5Q370 60 315 60Q266 60 230 73L198 -60H178L211 80Q74 141 74 378V401Q74 559 135.5 639.5Q197 720 315 720Q343 720 363 716L393 840H413Z" glyph-name="cent" horiz-adv-x="600" unicode="&#162;" /><glyph d="M115 620 240 780H260L385 620H360L250 762L140 620Z" glyph-name="circumflex" horiz-adv-x="500" unicode="&#710;" /><glyph d="M140 840 240 950H260L360 840H336L250 935L164 840Z" glyph-name="circumflex.cap" horiz-adv-x="500" unicode="&#58403;" /><glyph d="M349 0Q368 37 381.5 73Q395 109 404.5 147Q414 185 420.5 227Q427 269 431 320L428 321Q415 290 396 261Q377 232 352 209.5Q327 187 296 173.5Q265 160 228 160Q191 160 159 173.5Q127 187 103 210.5Q79 234 65.5 265.5Q52 297 52 334Q52 373 64.5 406Q77 439 100 463Q123 487 155 500.5Q187 514 226 514Q252 514 272.5 507Q293 500 310 491L312 493Q295 518 284.5 547.5Q274 577 274 610Q274 647 287.5 680Q301 713 324.5 737.5Q348 762 380 776Q412 790 450 790Q488 790 520 776Q552 762 575.5 737.5Q599 713 612.5 680Q626 647 626 610Q626 577 615.5 547.5Q605 518 588 493L590 491Q607 500 627.5 507Q648 514 674 514Q713 514 745 500.5Q777 487 800 463Q823 439 835.5 406Q848 373 848 334Q848 297 834.5 265.5Q821 234 797 210.5Q773 187 741 173.5Q709 160 672 160Q635 160 604 173.5Q573 187 548 209.5Q523 232 504 261Q485 290 472 321L469 320Q473 269 479.5 227Q486 185 495.5 147Q505 109 518.5 73Q532 37 551 0Z" glyph-name="club" horiz-adv-x="900" unicode="&#9827;" /><glyph d="M110 370H70V410H110ZM110 0H70V40H110Z" glyph-name="colon" horiz-adv-x="180" unicode=":" /><glyph d="M170 370H130V410H170ZM170 0H130V40H170Z" glyph-name="colon.T" horiz-adv-x="300" unicode="&#61828;" /><glyph d="M110 8Q110 -49 86.5 -77Q63 -105 25 -105V-85Q52 -85 70.5 -67.5Q89 -50 90 0H70V40H110Z" glyph-name="comma" horiz-adv-x="180" unicode="," /><glyph d="M170 8Q170 -49 146.5 -77Q123 -105 85 -105V-85Q112 -85 130.5 -67.5Q149 -50 150 0H130V40H170Z" glyph-name="comma.T" horiz-adv-x="300" unicode="&#61827;" /><glyph d="M270 -102Q270 -159 251.5 -182.5Q233 -206 195 -206V-188Q208 -188 218.5 -185Q229 -182 235.5 -173.5Q242 -165 246 -150Q250 -135 250 -110H230V-70H270Z" glyph-name="commaaccent" horiz-adv-x="602" unicode="&#58388;" /><glyph d="M230 872Q230 914 246 935Q262 956 300 956V938Q273 938 261.5 922.5Q250 907 250 880H270V840H230Z" glyph-name="commaaccent.cap" horiz-adv-x="500" unicode="&#58414;" /><glyph d="M450 149Q400 149 362 166Q324 183 298.5 214Q273 245 260 287Q247 329 247 380V400Q247 451 260 493Q273 535 298.5 566Q324 597 362 614Q400 631 450 631Q499 631 533 618.5Q567 606 588.5 585.5Q610 565 620 537.5Q630 510 630 480V470H610Q610 538 571.5 574.5Q533 611 450 611Q406 611 371.5 595.5Q337 580 314 552.5Q291 525 279 486Q267 447 267 400V380Q267 333 279 294Q291 255 314 227.5Q337 200 371.5 184.5Q406 169 450 169Q491 169 521.5 179.5Q552 190 571.5 208Q591 226 600.5 250Q610 274 610 300H630V290Q630 267 620 242.5Q610 218 588.5 197Q567 176 533 162.5Q499 149 450 149ZM74 390Q74 312 103.5 243.5Q133 175 184 124Q235 73 303.5 43.5Q372 14 450 14Q528 14 596.5 43.5Q665 73 716 124Q767 175 796.5 243.5Q826 312 826 390Q826 468 796.5 536.5Q767 605 716 656Q665 707 596.5 736.5Q528 766 450 766Q372 766 303.5 736.5Q235 707 184 656Q133 605 103.5 536.5Q74 468 74 390ZM54 390Q54 472 85 544Q116 616 170 670Q224 724 296 755Q368 786 450 786Q532 786 604 755Q676 724 730 670Q784 616 815 544Q846 472 846 390Q846 308 815 236Q784 164 730 110Q676 56 604 25Q532 -6 450 -6Q368 -6 296 25Q224 56 170 110Q116 164 85 236Q54 308 54 390Z" glyph-name="copyright" horiz-adv-x="900" unicode="&#169;" /><glyph d="M420 423Q410 438 395.5 454.5Q381 471 361 484.5Q341 498 315.5 507Q290 516 258 516Q166 516 120.5 451Q75 386 75 275V255Q75 144 120.5 79Q166 14 258 14Q290 14 315.5 23Q341 32 361 45.5Q381 59 395.5 75.5Q410 92 420 107ZM258 536Q289 536 315 528Q341 520 361 508Q381 496 395.5 482Q410 468 420 455V800H440V120L445 0H430L423 79Q414 66 399 51Q384 36 363.5 23.5Q343 11 317 2.5Q291 -6 258 -6Q157 -6 106 63.5Q55 133 55 255V275Q55 397 106 466.5Q157 536 258 536Z" glyph-name="d" horiz-adv-x="510" unicode="d" /><glyph d="M360 610H220V630H360ZM180 340V590H200V340ZM20 630H160V610H20ZM200 800V650H180V800Z" glyph-name="dagger" horiz-adv-x="380" unicode="&#8224;" /><glyph d="M360 400H220V420H360ZM180 130V380H200V130ZM20 420H160V400H20ZM360 610H220V630H360ZM180 440V590H200V440ZM20 630H160V610H20ZM200 800V650H180V800Z" glyph-name="daggerdbl" horiz-adv-x="380" unicode="&#8225;" /><glyph d="M551 800 540 620H530V800ZM420 423Q410 438 395.5 454.5Q381 471 361 484.5Q341 498 315.5 507Q290 516 258 516Q166 516 120.5 451Q75 386 75 275V255Q75 144 120.5 79Q166 14 258 14Q290 14 315.5 23Q341 32 361 45.5Q381 59 395.5 75.5Q410 92 420 107ZM258 536Q289 536 315 528Q341 520 361 508Q381 496 395.5 482Q410 468 420 455V800H440V120L445 0H430L423 79Q414 66 399 51Q384 36 363.5 23.5Q343 11 317 2.5Q291 -6 258 -6Q157 -6 106 63.5Q55 133 55 255V275Q55 397 106 466.5Q157 536 258 536Z" glyph-name="dcaron" horiz-adv-x="510" unicode="&#271;" /><glyph d="M420 423Q410 438 395.5 454.5Q381 471 361 484.5Q341 498 315.5 507Q290 516 258 516Q166 516 120.5 451Q75 386 75 275V255Q75 144 120.5 79Q166 14 258 14Q290 14 315.5 23Q341 32 361 45.5Q381 59 395.5 75.5Q410 92 420 107ZM255 675H420V800H440V675H545V655H440V120L445 0H430L423 79Q414 66 399 51Q384 36 363.5 23.5Q343 11 317 2.5Q291 -6 258 -6Q157 -6 106 63.5Q55 133 55 255V275Q55 397 106 466.5Q157 536 258 536Q289 536 315 528Q341 520 361 508Q381 496 395.5 482Q410 468 420 455V655H255Z" glyph-name="dcroat" horiz-adv-x="510" unicode="&#273;" /><glyph d="M450 875H410V915H450ZM420 423Q410 438 395.5 454.5Q381 471 361 484.5Q341 498 315.5 507Q290 516 258 516Q166 516 120.5 451Q75 386 75 275V255Q75 144 120.5 79Q166 14 258 14Q290 14 315.5 23Q341 32 361 45.5Q381 59 395.5 75.5Q410 92 420 107ZM258 536Q289 536 315 528Q341 520 361 508Q381 496 395.5 482Q410 468 420 455V800H440V120L445 0H430L423 79Q414 66 399 51Q384 36 363.5 23.5Q343 11 317 2.5Q291 -6 258 -6Q157 -6 106 63.5Q55 133 55 255V275Q55 397 106 466.5Q157 536 258 536Z" glyph-name="ddotaccent" horiz-adv-x="510" unicode="&#7691;" /><glyph d="M346 638Q346 605 335 578Q324 551 304.5 532.5Q285 514 258 504Q231 494 200 494Q169 494 142 504Q115 514 95.5 532.5Q76 551 65 578Q54 605 54 638V642Q54 675 65 702Q76 729 95.5 747.5Q115 766 142 776Q169 786 200 786Q231 786 258 776Q285 766 304.5 747.5Q324 729 335 702Q346 675 346 642ZM326 645Q326 673 316.5 695.5Q307 718 290 733.5Q273 749 250.5 757.5Q228 766 203 766H197Q171 766 149 757.5Q127 749 110 733.5Q93 718 83.5 695.5Q74 673 74 645V635Q74 607 83.5 584.5Q93 562 110 546.5Q127 531 149 522.5Q171 514 197 514H203Q228 514 250.5 522.5Q273 531 290 546.5Q307 562 316.5 584.5Q326 607 326 635Z" glyph-name="degree" horiz-adv-x="400" unicode="&#176;" /><glyph d="M817 390Q764 348 712.5 300.5Q661 253 614 201.5Q567 150 525.5 96.5Q484 43 451 -10H449Q416 43 374.5 96.5Q333 150 286 201.5Q239 253 187.5 300.5Q136 348 83 390Q136 432 187.5 479.5Q239 527 286 578.5Q333 630 374.5 683.5Q416 737 449 790H451Q484 737 525.5 683.5Q567 630 614 578.5Q661 527 712.5 479.5Q764 432 817 390Z" glyph-name="diamond" horiz-adv-x="900" unicode="&#9830;" /><glyph d="M340 680H300V720H340ZM200 680H160V720H200Z" glyph-name="dieresis" horiz-adv-x="500" unicode="&#168;" /><glyph d="M340 875H300V915H340ZM200 875H160V915H200Z" glyph-name="dieresis.cap" horiz-adv-x="500" unicode="&#58409;" /><glyph d="M320 140H280V180H320ZM320 600H280V640H320ZM50 400H550V380H50Z" glyph-name="divide" horiz-adv-x="600" unicode="&#247;" /><glyph d="M101 549Q101 518 111 495Q121 472 143.5 455.5Q166 439 202 428Q238 417 290 411L358 695Q330 700 301 700H298Q258 700 222 690Q186 680 159 661Q132 642 116.5 615Q101 588 101 554ZM505 239Q505 276 492.5 302.5Q480 329 454.5 346Q429 363 391.5 373.5Q354 384 305 390L233 86Q261 80 298 80H301Q344 80 381.5 90.5Q419 101 446.5 120.5Q474 140 489.5 169Q505 198 505 234ZM382 709Q453 689 486.5 637Q520 585 520 512V498H500Q500 655 377 690L310 409Q423 397 474 357.5Q525 318 525 243V235Q525 194 507.5 161.5Q490 129 460 106.5Q430 84 389 72Q348 60 300 60Q259 60 228 67L198 -60H178L209 72Q139 94 107 146.5Q75 199 75 266V271H95Q95 204 124.5 157.5Q154 111 214 91L286 392Q230 399 190.5 412Q151 425 126.5 444Q102 463 91 488Q80 513 80 545V553Q80 591 97 622Q114 653 143.5 674.5Q173 696 213 708Q253 720 299 720Q333 720 363 714L393 840H413Z" glyph-name="dollar" horiz-adv-x="600" unicode="$" /><glyph d="M270 680H230V720H270Z" glyph-name="dotaccent" horiz-adv-x="500" unicode="&#729;" /><glyph d="M270 875H230V915H270Z" glyph-name="dotaccent.cap" horiz-adv-x="500" unicode="&#58408;" /><glyph d="M230 -110H270V-150H230Z" glyph-name="dotbelow" horiz-adv-x="602" unicode="&#58389;" /><glyph d="M80 530H100V0H80Z" glyph-name="dotlessi" horiz-adv-x="180" unicode="&#305;" /><glyph d="M80 530H100V-71Q100 -112 89.5 -138Q79 -164 61 -179Q43 -194 19 -200Q-5 -206 -31 -206Q-59 -206 -75 -202Q-91 -198 -95 -196V-176Q-89 -179 -71.5 -182.5Q-54 -186 -35 -186Q-10 -186 11.5 -181Q33 -176 48 -162.5Q63 -149 71.5 -125.5Q80 -102 80 -65Z" glyph-name="dotlessj" horiz-adv-x="180" unicode="&#567;" /><glyph d="M180 840H200V-120H180ZM80 840H100V-120H80Z" glyph-name="doublebar" horiz-adv-x="280" unicode="&#8214;" /><glyph d="M180 780H200V0H180ZM80 780H100V0H80Z" glyph-name="doublebar.cap" horiz-adv-x="280" unicode="&#58468;" /><glyph d="M221 780 311 620H289L199 780ZM121 780 211 620H189L99 780Z" glyph-name="doublegrave" horiz-adv-x="500" unicode="&#58386;" /><glyph d="M249 950 311 840H289L227 950ZM149 950 211 840H189L127 950Z" glyph-name="doublegrave.cap" horiz-adv-x="500" unicode="&#58412;" /><glyph d="M265 516Q217 516 181 498Q145 480 121.5 448Q98 416 86.5 372Q75 328 75 275H455Q455 328 443.5 372Q432 416 408.5 448Q385 480 349 498Q313 516 265 516ZM75 255Q75 202 86.5 158Q98 114 121.5 82Q145 50 182 32Q219 14 270 14Q321 14 356.5 28.5Q392 43 413.5 65.5Q435 88 445 115.5Q455 143 455 170H475V165Q475 137 463.5 106.5Q452 76 427.5 51Q403 26 364 10Q325 -6 270 -6Q213 -6 172.5 14Q132 34 106 69.5Q80 105 67.5 152.5Q55 200 55 255V275Q55 330 67 377.5Q79 425 104.5 460Q130 495 169.5 515.5Q209 536 265 536Q320 536 360 515.5Q400 495 425.5 460Q451 425 463 377.5Q475 330 475 275V255Z" glyph-name="e" horiz-adv-x="530" unicode="e" /><glyph d="M366 780 276 620H254L344 780ZM265 516Q217 516 181 498Q145 480 121.5 448Q98 416 86.5 372Q75 328 75 275H455Q455 328 443.5 372Q432 416 408.5 448Q385 480 349 498Q313 516 265 516ZM75 255Q75 202 86.5 158Q98 114 121.5 82Q145 50 182 32Q219 14 270 14Q321 14 356.5 28.5Q392 43 413.5 65.5Q435 88 445 115.5Q455 143 455 170H475V165Q475 137 463.5 106.5Q452 76 427.5 51Q403 26 364 10Q325 -6 270 -6Q213 -6 172.5 14Q132 34 106 69.5Q80 105 67.5 152.5Q55 200 55 255V275Q55 330 67 377.5Q79 425 104.5 460Q130 495 169.5 515.5Q209 536 265 536Q320 536 360 515.5Q400 495 425.5 460Q451 425 463 377.5Q475 330 475 275V255Z" glyph-name="eacute" horiz-adv-x="530" unicode="&#233;" /><glyph d="M265 614Q227 614 199 627.5Q171 641 152.5 663.5Q134 686 124.5 716Q115 746 115 780H133Q133 750 141 723Q149 696 165 676Q181 656 206 644Q231 632 265 632Q299 632 324 644Q349 656 365 676Q381 696 389 723Q397 750 397 780H415Q415 746 405.5 716Q396 686 377.5 663.5Q359 641 330.5 627.5Q302 614 265 614ZM265 516Q217 516 181 498Q145 480 121.5 448Q98 416 86.5 372Q75 328 75 275H455Q455 328 443.5 372Q432 416 408.5 448Q385 480 349 498Q313 516 265 516ZM75 255Q75 202 86.5 158Q98 114 121.5 82Q145 50 182 32Q219 14 270 14Q321 14 356.5 28.5Q392 43 413.5 65.5Q435 88 445 115.5Q455 143 455 170H475V165Q475 137 463.5 106.5Q452 76 427.5 51Q403 26 364 10Q325 -6 270 -6Q213 -6 172.5 14Q132 34 106 69.5Q80 105 67.5 152.5Q55 200 55 255V275Q55 330 67 377.5Q79 425 104.5 460Q130 495 169.5 515.5Q209 536 265 536Q320 536 360 515.5Q400 495 425.5 460Q451 425 463 377.5Q475 330 475 275V255Z" glyph-name="ebreve" horiz-adv-x="530" unicode="&#277;" /><glyph d="M155 780 265 638 375 780H400L275 620H255L130 780ZM265 516Q217 516 181 498Q145 480 121.5 448Q98 416 86.5 372Q75 328 75 275H455Q455 328 443.5 372Q432 416 408.5 448Q385 480 349 498Q313 516 265 516ZM75 255Q75 202 86.5 158Q98 114 121.5 82Q145 50 182 32Q219 14 270 14Q321 14 356.5 28.5Q392 43 413.5 65.5Q435 88 445 115.5Q455 143 455 170H475V165Q475 137 463.5 106.5Q452 76 427.5 51Q403 26 364 10Q325 -6 270 -6Q213 -6 172.5 14Q132 34 106 69.5Q80 105 67.5 152.5Q55 200 55 255V275Q55 330 67 377.5Q79 425 104.5 460Q130 495 169.5 515.5Q209 536 265 536Q320 536 360 515.5Q400 495 425.5 460Q451 425 463 377.5Q475 330 475 275V255Z" glyph-name="ecaron" horiz-adv-x="530" unicode="&#283;" /><glyph d="M130 620 255 780H275L400 620H375L265 762L155 620ZM265 516Q217 516 181 498Q145 480 121.5 448Q98 416 86.5 372Q75 328 75 275H455Q455 328 443.5 372Q432 416 408.5 448Q385 480 349 498Q313 516 265 516ZM75 255Q75 202 86.5 158Q98 114 121.5 82Q145 50 182 32Q219 14 270 14Q321 14 356.5 28.5Q392 43 413.5 65.5Q435 88 445 115.5Q455 143 455 170H475V165Q475 137 463.5 106.5Q452 76 427.5 51Q403 26 364 10Q325 -6 270 -6Q213 -6 172.5 14Q132 34 106 69.5Q80 105 67.5 152.5Q55 200 55 255V275Q55 330 67 377.5Q79 425 104.5 460Q130 495 169.5 515.5Q209 536 265 536Q320 536 360 515.5Q400 495 425.5 460Q451 425 463 377.5Q475 330 475 275V255Z" glyph-name="ecircumflex" horiz-adv-x="530" unicode="&#234;" /><glyph d="M355 680H315V720H355ZM215 680H175V720H215ZM265 516Q217 516 181 498Q145 480 121.5 448Q98 416 86.5 372Q75 328 75 275H455Q455 328 443.5 372Q432 416 408.5 448Q385 480 349 498Q313 516 265 516ZM75 255Q75 202 86.5 158Q98 114 121.5 82Q145 50 182 32Q219 14 270 14Q321 14 356.5 28.5Q392 43 413.5 65.5Q435 88 445 115.5Q455 143 455 170H475V165Q475 137 463.5 106.5Q452 76 427.5 51Q403 26 364 10Q325 -6 270 -6Q213 -6 172.5 14Q132 34 106 69.5Q80 105 67.5 152.5Q55 200 55 255V275Q55 330 67 377.5Q79 425 104.5 460Q130 495 169.5 515.5Q209 536 265 536Q320 536 360 515.5Q400 495 425.5 460Q451 425 463 377.5Q475 330 475 275V255Z" glyph-name="edieresis" horiz-adv-x="530" unicode="&#235;" /><glyph d="M285 680H245V720H285ZM265 516Q217 516 181 498Q145 480 121.5 448Q98 416 86.5 372Q75 328 75 275H455Q455 328 443.5 372Q432 416 408.5 448Q385 480 349 498Q313 516 265 516ZM75 255Q75 202 86.5 158Q98 114 121.5 82Q145 50 182 32Q219 14 270 14Q321 14 356.5 28.5Q392 43 413.5 65.5Q435 88 445 115.5Q455 143 455 170H475V165Q475 137 463.5 106.5Q452 76 427.5 51Q403 26 364 10Q325 -6 270 -6Q213 -6 172.5 14Q132 34 106 69.5Q80 105 67.5 152.5Q55 200 55 255V275Q55 330 67 377.5Q79 425 104.5 460Q130 495 169.5 515.5Q209 536 265 536Q320 536 360 515.5Q400 495 425.5 460Q451 425 463 377.5Q475 330 475 275V255Z" glyph-name="edotaccent" horiz-adv-x="530" unicode="&#279;" /><glyph d="M186 780 276 620H254L164 780ZM265 516Q217 516 181 498Q145 480 121.5 448Q98 416 86.5 372Q75 328 75 275H455Q455 328 443.5 372Q432 416 408.5 448Q385 480 349 498Q313 516 265 516ZM75 255Q75 202 86.5 158Q98 114 121.5 82Q145 50 182 32Q219 14 270 14Q321 14 356.5 28.5Q392 43 413.5 65.5Q435 88 445 115.5Q455 143 455 170H475V165Q475 137 463.5 106.5Q452 76 427.5 51Q403 26 364 10Q325 -6 270 -6Q213 -6 172.5 14Q132 34 106 69.5Q80 105 67.5 152.5Q55 200 55 255V275Q55 330 67 377.5Q79 425 104.5 460Q130 495 169.5 515.5Q209 536 265 536Q320 536 360 515.5Q400 495 425.5 460Q451 425 463 377.5Q475 330 475 275V255Z" glyph-name="egrave" horiz-adv-x="530" unicode="&#232;" /><glyph d="M297 766Q255 766 216.5 754Q178 742 149.5 720Q121 698 104 667Q87 636 87 597V577Q87 538 101 507Q115 476 140 454Q165 432 200 420Q235 408 277 408H323Q365 408 400 420Q435 432 460 454Q485 476 499 507Q513 538 513 577V597Q513 636 496 667Q479 698 450.5 720Q422 742 383.5 754Q345 766 303 766ZM277 388Q183 388 131.5 341.5Q80 295 80 207V192Q80 148 96.5 115Q113 82 142 59.5Q171 37 210.5 25.5Q250 14 297 14H303Q349 14 389 25.5Q429 37 458 59.5Q487 82 503.5 115Q520 148 520 192V207Q520 295 468.5 341.5Q417 388 323 388ZM535 582Q535 507 496 460Q457 413 389 398Q460 383 500 335.5Q540 288 540 205V195Q540 144 521.5 106.5Q503 69 470.5 44Q438 19 394.5 6.5Q351 -6 300 -6Q249 -6 205.5 6.5Q162 19 129.5 44Q97 69 78.5 106.5Q60 144 60 195V205Q60 288 99.5 335.5Q139 383 210 398Q142 413 103.5 460Q65 507 65 582V592Q65 638 83.5 674Q102 710 134 735Q166 760 208.5 773Q251 786 300 786Q349 786 391.5 773Q434 760 466 735Q498 710 516.5 674Q535 638 535 592Z" glyph-name="eight" horiz-adv-x="600" unicode="8" /><glyph d="M147 176Q103 176 77 153.5Q51 131 51 91V88Q51 46 78 27Q105 8 144 8H156Q194 8 221.5 27Q249 46 249 88V91Q249 131 223 153.5Q197 176 152 176ZM141 -11Q103 -11 75.5 -32.5Q48 -54 48 -97V-104Q48 -125 56.5 -140.5Q65 -156 78.5 -166Q92 -176 110 -181Q128 -186 147 -186H152Q191 -186 221 -166.5Q251 -147 251 -104V-97Q251 -54 224 -32.5Q197 -11 158 -11ZM150 -205Q125 -205 102.5 -198.5Q80 -192 63.5 -179Q47 -166 37 -147Q27 -128 27 -103V-96Q27 -57 47 -33.5Q67 -10 100 -1Q68 7 49 29Q30 51 30 87V94Q30 143 62 169Q94 195 150 195Q205 195 237.5 169Q270 143 270 94V87Q270 51 250.5 29Q231 7 199 -1Q232 -10 252 -34Q272 -58 272 -96V-103Q272 -128 262 -147Q252 -166 235.5 -179Q219 -192 197 -198.5Q175 -205 150 -205Z" glyph-name="eight.inf" horiz-adv-x="300" unicode="&#58745;" /><glyph d="M837 0V20H945V362L843 292L832 309L955 392H965V20H1072V0ZM337 390V410H445V752L343 682L332 699L455 782H465V410H572V390ZM37 390V410H145V752L43 682L32 699L155 782H165V410H272V390ZM400 0 976 780H1000L424 0ZM1253 225Q1218 225 1191.5 207.5Q1165 190 1151 162Q1150 155 1150 148Q1150 141 1150 135V130Q1150 76 1179.5 45.5Q1209 15 1251 15H1254Q1301 15 1327.5 41Q1354 67 1354 116V124Q1354 172 1327.5 198.5Q1301 225 1256 225ZM1357 375Q1319 375 1276 358Q1233 341 1202 300Q1183 276 1172 250Q1161 224 1156 198Q1173 219 1198 232Q1223 245 1255 245Q1306 245 1340.5 215Q1375 185 1375 122V117Q1375 54 1340.5 24.5Q1306 -5 1252 -5Q1227 -5 1204.5 3.5Q1182 12 1165.5 29Q1149 46 1139.5 71.5Q1130 97 1130 130V135Q1130 182 1141.5 226.5Q1153 271 1185 313Q1201 334 1222 349.5Q1243 365 1266 375Q1289 385 1312.5 390Q1336 395 1357 395Z" glyph-name="elevensixteenths" horiz-adv-x="1400" unicode="&#61984;" /><glyph d="M520 0H480V40H520ZM840 0H800V40H840ZM200 0H160V40H200Z" glyph-name="ellipsis" horiz-adv-x="1000" unicode="&#8230;" /><glyph d="M165 710H365V690H165ZM265 516Q217 516 181 498Q145 480 121.5 448Q98 416 86.5 372Q75 328 75 275H455Q455 328 443.5 372Q432 416 408.5 448Q385 480 349 498Q313 516 265 516ZM75 255Q75 202 86.5 158Q98 114 121.5 82Q145 50 182 32Q219 14 270 14Q321 14 356.5 28.5Q392 43 413.5 65.5Q435 88 445 115.5Q455 143 455 170H475V165Q475 137 463.5 106.5Q452 76 427.5 51Q403 26 364 10Q325 -6 270 -6Q213 -6 172.5 14Q132 34 106 69.5Q80 105 67.5 152.5Q55 200 55 255V275Q55 330 67 377.5Q79 425 104.5 460Q130 495 169.5 515.5Q209 536 265 536Q320 536 360 515.5Q400 495 425.5 460Q451 425 463 377.5Q475 330 475 275V255Z" glyph-name="emacron" horiz-adv-x="530" unicode="&#275;" /><glyph d="M50 350H950V330H50Z" glyph-name="emdash" horiz-adv-x="1000" unicode="&#8212;" /><glyph d="M50 400H950V380H50Z" glyph-name="emdash.cap" horiz-adv-x="1000" unicode="&#58502;" /><glyph glyph-name="emspace" horiz-adv-x="1000" unicode="&#8195;" /><glyph d="M50 350H450V330H50Z" glyph-name="endash" horiz-adv-x="500" unicode="&#8211;" /><glyph d="M50 400H450V380H50Z" glyph-name="endash.cap" horiz-adv-x="500" unicode="&#58500;" /><glyph d="M410 375Q410 454 374 485Q338 516 269 516Q233 516 204.5 507.5Q176 499 154 485.5Q132 472 116 455.5Q100 439 90 423V0H70V410L65 530H80L87 448Q98 464 114.5 479.5Q131 495 153.5 507.5Q176 520 205.5 528Q235 536 271 536Q349 536 389.5 498.5Q430 461 430 380V-71Q430 -112 419.5 -138Q409 -164 391 -179Q373 -194 349 -200Q325 -206 299 -206Q271 -206 255 -202Q239 -198 235 -196V-176Q241 -179 258.5 -182.5Q276 -186 295 -186Q320 -186 341.5 -181Q363 -176 378 -162.5Q393 -149 401.5 -125.5Q410 -102 410 -65Z" glyph-name="eng" horiz-adv-x="490" unicode="&#331;" /><glyph glyph-name="enspace" horiz-adv-x="500" unicode="&#8194;" /><glyph d="M265 516Q217 516 181 498Q145 480 121.5 448Q98 416 86.5 372Q75 328 75 275H455Q455 328 443.5 372Q432 416 408.5 448Q385 480 349 498Q313 516 265 516ZM375 -188Q361 -195 343 -200.5Q325 -206 296 -206Q278 -206 262 -201Q246 -196 233 -185Q220 -174 212.5 -156.5Q205 -139 205 -115Q205 -73 224 -47.5Q243 -22 272 -6H270Q213 -6 172.5 14Q132 34 106 69.5Q80 105 67.5 152.5Q55 200 55 255V275Q55 330 67 377.5Q79 425 104.5 460Q130 495 169.5 515.5Q209 536 265 536Q320 536 360 515.5Q400 495 425.5 460Q451 425 463 377.5Q475 330 475 275V255H75Q75 202 86.5 158Q98 114 121.5 82Q145 50 182 32Q219 14 270 14Q321 14 356.5 28.5Q392 43 413.5 65.5Q435 88 445 115.5Q455 143 455 170H475V165Q475 141 467 115.5Q459 90 441.5 67Q424 44 396.5 26Q369 8 330 0Q313 -3 294.5 -11.5Q276 -20 260 -34.5Q244 -49 233.5 -69Q223 -89 223 -115Q223 -156 245 -172Q267 -188 296 -188Q322 -188 340 -182.5Q358 -177 369 -172Z" glyph-name="eogonek" horiz-adv-x="530" unicode="&#281;" /><glyph d="M50 300H550V280H50ZM50 500H550V480H50Z" glyph-name="equal" horiz-adv-x="600" unicode="=" /><glyph d="M25 -45H275V-65H25ZM25 55H275V35H25Z" glyph-name="equal.inf" horiz-adv-x="300" unicode="&#58749;" /><glyph d="M50 600H550V580H50ZM50 400H550V380H50ZM50 200H550V180H50Z" glyph-name="equivalence" horiz-adv-x="600" unicode="&#8801;" /><glyph d="M263 14Q354 14 402.5 79Q451 144 451 255V275Q451 386 402.5 451Q354 516 263 516Q171 516 123 451Q75 386 75 275V255Q75 144 123 79Q171 14 263 14ZM346 623Q323 650 298 672Q273 694 247 711L95 622V646L227 724Q181 752 136 766.5Q91 781 56 786V806Q103 800 151 783.5Q199 767 247 736L366 806V782L266 722Q315 687 359 637Q393 598 414.5 553Q436 508 448.5 460.5Q461 413 466 366Q471 319 471 275V255Q471 133 417.5 63.5Q364 -6 263 -6Q162 -6 108.5 63.5Q55 133 55 255V275Q55 397 108.5 466.5Q162 536 263 536Q326 536 369.5 508Q413 480 437 429Q426 480 404 530Q382 580 346 623Z" glyph-name="eth" horiz-adv-x="526" unicode="&#240;" /><glyph d="M110 0H70V40H110ZM100 780 97 175H83L80 780Z" glyph-name="exclam" horiz-adv-x="180" unicode="!" /><glyph d="M70 530H110V490H70ZM80 -200 83 355H97L100 -200Z" glyph-name="exclamdown" horiz-adv-x="180" unicode="&#161;" /><glyph d="M70 780H110V740H70ZM80 0 83 605H97L100 0Z" glyph-name="exclamdown.cap" horiz-adv-x="180" unicode="&#58433;" /><glyph d="M135 530H300V510H135V0H115V510H30V530H115V671Q115 711 125.5 737.5Q136 764 154 779Q172 794 196 800Q220 806 246 806Q274 806 290 802Q306 798 310 796V776Q304 779 286.5 782.5Q269 786 250 786Q224 786 203 781Q182 776 167 762.5Q152 749 143.5 725.5Q135 702 135 665Z" glyph-name="f" horiz-adv-x="340" unicode="f" /><glyph d="M220 875H180V915H220ZM135 530H300V510H135V0H115V510H30V530H115V671Q115 711 125.5 737.5Q136 764 154 779Q172 794 196 800Q220 806 246 806Q274 806 290 802Q306 798 310 796V776Q304 779 286.5 782.5Q269 786 250 786Q224 786 203 781Q182 776 167 762.5Q152 749 143.5 725.5Q135 702 135 665Z" glyph-name="fdotaccent" horiz-adv-x="340" unicode="&#7711;" /><glyph d="M450 680H410V720H450ZM420 530H440V0H420ZM135 530H300V510H135V0H115V510H30V530H115V671Q115 711 125.5 737.5Q136 764 154 779Q172 794 196 800Q220 806 246 806Q274 806 290 802Q306 798 310 796V776Q304 779 286.5 782.5Q269 786 250 786Q224 786 203 781Q182 776 167 762.5Q152 749 143.5 725.5Q135 702 135 665Z" glyph-name="fi" horiz-adv-x="520" unicode="&#64257;" /><glyph d="M837 0V20H945V362L843 292L832 309L955 392H965V20H1072V0ZM37 390V410H145V752L43 682L32 699L155 782H165V410H272V390ZM400 0 976 780H1000L424 0ZM330 559 340 780H567V760H359L352 593Q385 635 450 635Q475 635 497 627.5Q519 620 535.5 604.5Q552 589 562 566Q572 543 572 512V507Q572 477 562 454Q552 431 535.5 415.5Q519 400 497 392.5Q475 385 450 385Q386 385 356.5 419Q327 453 327 510V515H347Q347 458 373 431Q399 404 447 404H452Q491 404 521 428Q551 452 551 505V515Q551 567 521 591.5Q491 616 452 616H447Q416 616 387.5 601Q359 586 347 555ZM1253 225Q1218 225 1191.5 207.5Q1165 190 1151 162Q1150 155 1150 148Q1150 141 1150 135V130Q1150 76 1179.5 45.5Q1209 15 1251 15H1254Q1301 15 1327.5 41Q1354 67 1354 116V124Q1354 172 1327.5 198.5Q1301 225 1256 225ZM1357 375Q1319 375 1276 358Q1233 341 1202 300Q1183 276 1172 250Q1161 224 1156 198Q1173 219 1198 232Q1223 245 1255 245Q1306 245 1340.5 215Q1375 185 1375 122V117Q1375 54 1340.5 24.5Q1306 -5 1252 -5Q1227 -5 1204.5 3.5Q1182 12 1165.5 29Q1149 46 1139.5 71.5Q1130 97 1130 130V135Q1130 182 1141.5 226.5Q1153 271 1185 313Q1201 334 1222 349.5Q1243 365 1266 375Q1289 385 1312.5 390Q1336 395 1357 395Z" glyph-name="fifteensixteenths" horiz-adv-x="1400" unicode="&#61986;" /><glyph d="M50 350H550V330H50Z" glyph-name="figuredash" horiz-adv-x="600" unicode="&#8210;" /><glyph d="M50 400H550V380H50Z" glyph-name="figuredash.cap" horiz-adv-x="600" unicode="&#58503;" /><glyph glyph-name="figurespace" horiz-adv-x="600" unicode="&#8199;" /><glyph d="M297 466Q219 466 164.5 432.5Q110 399 86 333L66 339L85 780H530V760H104L88 380Q118 430 171 458Q224 486 300 486Q351 486 394.5 469.5Q438 453 470.5 422Q503 391 521.5 346Q540 301 540 245V235Q540 179 521.5 134Q503 89 470.5 58Q438 27 394.5 10.5Q351 -6 300 -6Q240 -6 195 12Q150 30 120 62.5Q90 95 75 140Q60 185 60 240V250H80Q80 132 136.5 73Q193 14 297 14H303Q349 14 389 29.5Q429 45 458 73.5Q487 102 503.5 142Q520 182 520 232V248Q520 297 503.5 337.5Q487 378 458 406.5Q429 435 389 450.5Q349 466 303 466Z" glyph-name="five" horiz-adv-x="600" unicode="5" /><glyph d="M30 -31 40 190H267V170H59L52 3Q85 45 150 45Q175 45 197 37.5Q219 30 235.5 14.5Q252 -1 262 -24Q272 -47 272 -78V-83Q272 -113 262 -136Q252 -159 235.5 -174.5Q219 -190 197 -197.5Q175 -205 150 -205Q86 -205 56.5 -171Q27 -137 27 -80V-75H47Q47 -132 73 -159Q99 -186 147 -186H152Q191 -186 221 -162Q251 -138 251 -85V-75Q251 -23 221 1.5Q191 26 152 26H147Q116 26 87.5 11Q59 -4 47 -35Z" glyph-name="five.inf" horiz-adv-x="300" unicode="&#58742;" /><glyph d="M537 0V20H645V362L543 292L532 309L655 392H665V20H772V0ZM100 0 676 780H700L124 0ZM30 559 40 780H267V760H59L52 593Q85 635 150 635Q175 635 197 627.5Q219 620 235.5 604.5Q252 589 262 566Q272 543 272 512V507Q272 477 262 454Q252 431 235.5 415.5Q219 400 197 392.5Q175 385 150 385Q86 385 56.5 419Q27 453 27 510V515H47Q47 458 73 431Q99 404 147 404H152Q191 404 221 428Q251 452 251 505V515Q251 567 221 591.5Q191 616 152 616H147Q116 616 87.5 601Q59 586 47 555ZM953 225Q918 225 891.5 207.5Q865 190 851 162Q850 155 850 148Q850 141 850 135V130Q850 76 879.5 45.5Q909 15 951 15H954Q1001 15 1027.5 41Q1054 67 1054 116V124Q1054 172 1027.5 198.5Q1001 225 956 225ZM1057 375Q1019 375 976 358Q933 341 902 300Q883 276 872 250Q861 224 856 198Q873 219 898 232Q923 245 955 245Q1006 245 1040.5 215Q1075 185 1075 122V117Q1075 54 1040.5 24.5Q1006 -5 952 -5Q927 -5 904.5 3.5Q882 12 865.5 29Q849 46 839.5 71.5Q830 97 830 130V135Q830 182 841.5 226.5Q853 271 885 313Q901 334 922 349.5Q943 365 966 375Q989 385 1012.5 390Q1036 395 1057 395Z" glyph-name="fivesixteenths" horiz-adv-x="1100" unicode="&#61975;" /><glyph d="M420 800H440V0H420ZM135 530H300V510H135V0H115V510H30V530H115V671Q115 711 125.5 737.5Q136 764 154 779Q172 794 196 800Q220 806 246 806Q274 806 290 802Q306 798 310 796V776Q304 779 286.5 782.5Q269 786 250 786Q224 786 203 781Q182 776 167 762.5Q152 749 143.5 725.5Q135 702 135 665Z" glyph-name="fl" horiz-adv-x="520" unicode="&#64258;" /><glyph d="M66 249 180 250H390V600L391 753ZM390 0V230H40V245L385 780H410V250H560V230H410V0Z" glyph-name="four" horiz-adv-x="600" unicode="4" /><glyph d="M46 -71 95 -70H190V154ZM190 -200V-90H17V-78L190 190H210V-70H282V-90H210V-200Z" glyph-name="four.inf" horiz-adv-x="300" unicode="&#58741;" /><glyph glyph-name="fourperemspace" horiz-adv-x="250" unicode="&#8197;" /><glyph d="M-200 0 376 780H400L-176 0Z" glyph-name="fraction" horiz-adv-x="200" unicode="&#8260;" /><glyph d="M420 423Q410 438 395.5 454.5Q381 471 361 484.5Q341 498 315.5 507Q290 516 258 516Q166 516 120.5 457.5Q75 399 75 295V275Q75 171 120.5 112.5Q166 54 258 54Q290 54 315.5 63Q341 72 361 85.5Q381 99 395.5 115.5Q410 132 420 147ZM250 -206Q197 -206 160 -191.5Q123 -177 100 -151Q77 -125 66 -89.5Q55 -54 55 -11V0H75Q75 -43 84 -77.5Q93 -112 113.5 -136Q134 -160 167.5 -173Q201 -186 250 -186Q296 -186 328.5 -173Q361 -160 381 -136Q401 -112 410.5 -77.5Q420 -43 420 0V115Q410 102 395 87.5Q380 73 360 61Q340 49 314 41.5Q288 34 257 34Q156 34 105.5 97Q55 160 55 275V295Q55 410 105.5 473Q156 536 257 536Q290 536 316.5 527.5Q343 519 363.5 506.5Q384 494 399 479Q414 464 423 451L430 530H445L440 410V-11Q440 -54 429 -89.5Q418 -125 395 -151Q372 -177 336 -191.5Q300 -206 250 -206Z" glyph-name="g" horiz-adv-x="510" unicode="g" /><glyph d="M257 614Q219 614 191 627.5Q163 641 144.5 663.5Q126 686 116.5 716Q107 746 107 780H125Q125 750 133 723Q141 696 157 676Q173 656 198 644Q223 632 257 632Q291 632 316 644Q341 656 357 676Q373 696 381 723Q389 750 389 780H407Q407 746 397.5 716Q388 686 369.5 663.5Q351 641 322.5 627.5Q294 614 257 614ZM420 423Q410 438 395.5 454.5Q381 471 361 484.5Q341 498 315.5 507Q290 516 258 516Q166 516 120.5 457.5Q75 399 75 295V275Q75 171 120.5 112.5Q166 54 258 54Q290 54 315.5 63Q341 72 361 85.5Q381 99 395.5 115.5Q410 132 420 147ZM250 -206Q197 -206 160 -191.5Q123 -177 100 -151Q77 -125 66 -89.5Q55 -54 55 -11V0H75Q75 -43 84 -77.5Q93 -112 113.5 -136Q134 -160 167.5 -173Q201 -186 250 -186Q296 -186 328.5 -173Q361 -160 381 -136Q401 -112 410.5 -77.5Q420 -43 420 0V115Q410 102 395 87.5Q380 73 360 61Q340 49 314 41.5Q288 34 257 34Q156 34 105.5 97Q55 160 55 275V295Q55 410 105.5 473Q156 536 257 536Q290 536 316.5 527.5Q343 519 363.5 506.5Q384 494 399 479Q414 464 423 451L430 530H445L440 410V-11Q440 -54 429 -89.5Q418 -125 395 -151Q372 -177 336 -191.5Q300 -206 250 -206Z" glyph-name="gbreve" horiz-adv-x="510" unicode="&#287;" /><glyph d="M122 620 247 780H267L392 620H367L257 762L147 620ZM420 423Q410 438 395.5 454.5Q381 471 361 484.5Q341 498 315.5 507Q290 516 258 516Q166 516 120.5 457.5Q75 399 75 295V275Q75 171 120.5 112.5Q166 54 258 54Q290 54 315.5 63Q341 72 361 85.5Q381 99 395.5 115.5Q410 132 420 147ZM250 -206Q197 -206 160 -191.5Q123 -177 100 -151Q77 -125 66 -89.5Q55 -54 55 -11V0H75Q75 -43 84 -77.5Q93 -112 113.5 -136Q134 -160 167.5 -173Q201 -186 250 -186Q296 -186 328.5 -173Q361 -160 381 -136Q401 -112 410.5 -77.5Q420 -43 420 0V115Q410 102 395 87.5Q380 73 360 61Q340 49 314 41.5Q288 34 257 34Q156 34 105.5 97Q55 160 55 275V295Q55 410 105.5 473Q156 536 257 536Q290 536 316.5 527.5Q343 519 363.5 506.5Q384 494 399 479Q414 464 423 451L430 530H445L440 410V-11Q440 -54 429 -89.5Q418 -125 395 -151Q372 -177 336 -191.5Q300 -206 250 -206Z" glyph-name="gcircumflex" horiz-adv-x="510" unicode="&#285;" /><glyph d="M237 682Q237 739 255.5 762.5Q274 786 312 786V768Q298 768 288 765Q278 762 271.5 753.5Q265 745 261 730Q257 715 257 690H277V650H237ZM420 423Q410 438 395.5 454.5Q381 471 361 484.5Q341 498 315.5 507Q290 516 258 516Q166 516 120.5 457.5Q75 399 75 295V275Q75 171 120.5 112.5Q166 54 258 54Q290 54 315.5 63Q341 72 361 85.5Q381 99 395.5 115.5Q410 132 420 147ZM250 -206Q197 -206 160 -191.5Q123 -177 100 -151Q77 -125 66 -89.5Q55 -54 55 -11V0H75Q75 -43 84 -77.5Q93 -112 113.5 -136Q134 -160 167.5 -173Q201 -186 250 -186Q296 -186 328.5 -173Q361 -160 381 -136Q401 -112 410.5 -77.5Q420 -43 420 0V115Q410 102 395 87.5Q380 73 360 61Q340 49 314 41.5Q288 34 257 34Q156 34 105.5 97Q55 160 55 275V295Q55 410 105.5 473Q156 536 257 536Q290 536 316.5 527.5Q343 519 363.5 506.5Q384 494 399 479Q414 464 423 451L430 530H445L440 410V-11Q440 -54 429 -89.5Q418 -125 395 -151Q372 -177 336 -191.5Q300 -206 250 -206Z" glyph-name="gcommaaccent" horiz-adv-x="510" unicode="&#291;" /><glyph d="M277 680H237V720H277ZM420 423Q410 438 395.5 454.5Q381 471 361 484.5Q341 498 315.5 507Q290 516 258 516Q166 516 120.5 457.5Q75 399 75 295V275Q75 171 120.5 112.5Q166 54 258 54Q290 54 315.5 63Q341 72 361 85.5Q381 99 395.5 115.5Q410 132 420 147ZM250 -206Q197 -206 160 -191.5Q123 -177 100 -151Q77 -125 66 -89.5Q55 -54 55 -11V0H75Q75 -43 84 -77.5Q93 -112 113.5 -136Q134 -160 167.5 -173Q201 -186 250 -186Q296 -186 328.5 -173Q361 -160 381 -136Q401 -112 410.5 -77.5Q420 -43 420 0V115Q410 102 395 87.5Q380 73 360 61Q340 49 314 41.5Q288 34 257 34Q156 34 105.5 97Q55 160 55 275V295Q55 410 105.5 473Q156 536 257 536Q290 536 316.5 527.5Q343 519 363.5 506.5Q384 494 399 479Q414 464 423 451L430 530H445L440 410V-11Q440 -54 429 -89.5Q418 -125 395 -151Q372 -177 336 -191.5Q300 -206 250 -206Z" glyph-name="gdotaccent" horiz-adv-x="510" unicode="&#289;" /><glyph d="M260 786Q174 786 137 737.5Q100 689 100 610V0H80V614Q80 654 90 689.5Q100 725 121.5 750.5Q143 776 177 791Q211 806 260 806Q309 806 343 791Q377 776 398.5 750.5Q420 725 430 689.5Q440 654 440 614V608Q440 575 432 548Q424 521 405.5 496.5Q387 472 357 448.5Q327 425 283 400L335 366Q378 338 410.5 315Q443 292 465 269.5Q487 247 498.5 221.5Q510 196 510 163V157Q510 127 502 98Q494 69 475 46Q456 23 425.5 8.5Q395 -6 350 -6Q305 -6 274.5 8.5Q244 23 225 46Q206 69 198 98Q190 127 190 156V160H210Q210 132 217 105.5Q224 79 240.5 59Q257 39 283.5 26.5Q310 14 350 14Q390 14 416.5 26.5Q443 39 459.5 59Q476 79 483 105.5Q490 132 490 160Q490 194 477 219.5Q464 245 440.5 267Q417 289 385 310Q353 331 315 356L259 393V408Q301 431 331.5 452.5Q362 474 381.5 497.5Q401 521 410.5 548Q420 575 420 610Q420 689 383 737.5Q346 786 260 786Z" glyph-name="germandbls" horiz-adv-x="550" unicode="&#223;" /><glyph d="M171 780 261 620H239L149 780Z" glyph-name="grave" horiz-adv-x="500" unicode="`" /><glyph d="M199 950 261 840H239L177 950Z" glyph-name="grave.cap" horiz-adv-x="500" unicode="&#58401;" /><glyph d="M50 134V156L530 390L50 624V646L550 400V380Z" glyph-name="greater" horiz-adv-x="600" unicode="&gt;" /><glyph d="M50 156 550 345V323L50 134ZM525 447 50 624V646L550 457V437L50 248V270Z" glyph-name="greaterequal" horiz-adv-x="600" unicode="&#8805;" /><glyph d="M450 481 268 340 450 199V174L250 330V350L450 506ZM250 481 68 340 250 199V174L50 330V350L250 506Z" glyph-name="guillemotleft" horiz-adv-x="500" unicode="&#171;" /><glyph d="M450 531 268 390 450 249V224L250 380V400L450 556ZM250 531 68 390 250 249V224L50 380V400L250 556Z" glyph-name="guillemotleft.cap" horiz-adv-x="500" unicode="&#58451;" /><glyph d="M50 506 250 350V330L50 174V199L232 340L50 481ZM250 506 450 350V330L250 174V199L432 340L250 481Z" glyph-name="guillemotright" horiz-adv-x="500" unicode="&#187;" /><glyph d="M50 556 250 400V380L50 224V249L232 390L50 531ZM250 556 450 400V380L250 224V249L432 390L250 531Z" glyph-name="guillemotright.cap" horiz-adv-x="500" unicode="&#58452;" /><glyph d="M250 481 68 340 250 199V174L50 330V350L250 506Z" glyph-name="guilsinglleft" horiz-adv-x="300" unicode="&#8249;" /><glyph d="M250 531 68 390 250 249V224L50 380V400L250 556Z" glyph-name="guilsinglleft.cap" horiz-adv-x="300" unicode="&#58449;" /><glyph d="M50 506 250 350V330L50 174V199L232 340L50 481Z" glyph-name="guilsinglright" horiz-adv-x="300" unicode="&#8250;" /><glyph d="M50 556 250 400V380L50 224V249L232 390L50 531Z" glyph-name="guilsinglright.cap" horiz-adv-x="300" unicode="&#58450;" /><glyph d="M410 0V375Q410 454 374 485Q338 516 269 516Q233 516 204.5 507.5Q176 499 154 485.5Q132 472 116 455.5Q100 439 90 423V0H70V800H90V452Q101 467 117.5 482Q134 497 156.5 509Q179 521 207.5 528.5Q236 536 271 536Q349 536 389.5 498.5Q430 461 430 380V0Z" glyph-name="h" horiz-adv-x="490" unicode="h" /><glyph glyph-name="hairspace" horiz-adv-x="50" unicode="&#8202;" /><glyph d="M-35 675H70V800H90V675H255V655H90V452Q101 467 117.5 482Q134 497 156.5 509Q179 521 207.5 528.5Q236 536 271 536Q349 536 389.5 498.5Q430 461 430 380V0H410V375Q410 454 374 485Q338 516 269 516Q233 516 204.5 507.5Q176 499 154 485.5Q132 472 116 455.5Q100 439 90 423V0H70V655H-35Z" glyph-name="hbar" horiz-adv-x="490" unicode="&#295;" /><glyph d="M-30 840 70 950H90L190 840H166L80 935L-6 840ZM410 0V375Q410 454 374 485Q338 516 269 516Q233 516 204.5 507.5Q176 499 154 485.5Q132 472 116 455.5Q100 439 90 423V0H70V800H90V452Q101 467 117.5 482Q134 497 156.5 509Q179 521 207.5 528.5Q236 536 271 536Q349 536 389.5 498.5Q430 461 430 380V0Z" glyph-name="hcircumflex" horiz-adv-x="490" unicode="&#293;" /><glyph d="M449 -10Q437 9 414 40Q391 71 360 110Q329 149 292.5 193.5Q256 238 216 283Q190 312 161 348Q132 384 108 423.5Q84 463 68 504Q52 545 52 584Q52 628 65 666Q78 704 103 731.5Q128 759 163.5 774.5Q199 790 243 790Q289 790 323 777Q357 764 381 742.5Q405 721 421 692.5Q437 664 448 633H452Q463 664 479 692.5Q495 721 519 742.5Q543 764 576.5 777Q610 790 657 790Q701 790 736.5 774.5Q772 759 796.5 731.5Q821 704 834.5 666Q848 628 848 584Q848 545 832 504Q816 463 792 423.5Q768 384 739 348Q710 312 684 283Q644 238 607.5 193.5Q571 149 540 110Q509 71 486 40Q463 9 451 -10Z" glyph-name="heart" horiz-adv-x="900" unicode="&#9829;" /><glyph d="M70 0V450L425 790L780 450V0Z" glyph-name="house" horiz-adv-x="850" unicode="&#8962;" /><glyph d="M301 780 211 620H189L279 780ZM401 780 311 620H289L379 780Z" glyph-name="hungarumlaut" horiz-adv-x="500" unicode="&#733;" /><glyph d="M273 950 211 840H189L251 950ZM373 950 311 840H289L351 950Z" glyph-name="hungarumlaut.cap" horiz-adv-x="500" unicode="&#58411;" /><glyph d="M50 350H270V330H50Z" glyph-name="hyphen" horiz-adv-x="320" unicode="-" /><glyph d="M50 400H270V380H50Z" glyph-name="hyphen.cap" horiz-adv-x="320" unicode="&#58498;" /><glyph d="M110 680H70V720H110ZM80 530H100V0H80Z" glyph-name="i" horiz-adv-x="180" unicode="i" /><glyph d="M191 780 101 620H79L169 780ZM80 530H100V0H80Z" glyph-name="iacute" horiz-adv-x="180" unicode="&#237;" /><glyph d="M90 614Q52 614 24 627.5Q-4 641 -22.5 663.5Q-41 686 -50.5 716Q-60 746 -60 780H-42Q-42 750 -34 723Q-26 696 -10 676Q6 656 31 644Q56 632 90 632Q124 632 149 644Q174 656 190 676Q206 696 214 723Q222 750 222 780H240Q240 746 230.5 716Q221 686 202.5 663.5Q184 641 155.5 627.5Q127 614 90 614ZM80 530H100V0H80Z" glyph-name="ibreve" horiz-adv-x="180" unicode="&#301;" /><glyph d="M-45 620 80 780H100L225 620H200L90 762L-20 620ZM80 530H100V0H80Z" glyph-name="icircumflex" horiz-adv-x="180" unicode="&#238;" /><glyph d="M40 680H0V720H40ZM180 680H140V720H180ZM80 530H100V0H80Z" glyph-name="idieresis" horiz-adv-x="180" unicode="&#239;" /><glyph d="M110 680H70V720H110ZM80 530H100V0H80Z" glyph-name="idotaccent" horiz-adv-x="180" unicode="&#59269;" /><glyph d="M11 780 101 620H79L-11 780ZM80 530H100V0H80Z" glyph-name="igrave" horiz-adv-x="180" unicode="&#236;" /><glyph d="M250 680H210V720H250ZM110 680H70V720H110ZM80 530H100V0H80ZM220 530H240V-71Q240 -112 229.5 -138Q219 -164 201 -179Q183 -194 159 -200Q135 -206 109 -206Q81 -206 65 -202Q49 -198 45 -196V-176Q51 -179 68.5 -182.5Q86 -186 105 -186Q130 -186 151.5 -181Q173 -176 188 -162.5Q203 -149 211.5 -125.5Q220 -102 220 -65Z" glyph-name="ij" horiz-adv-x="320" unicode="&#307;" /><glyph d="M-10 710H190V690H-10ZM80 530H100V0H80Z" glyph-name="imacron" horiz-adv-x="180" unicode="&#299;" /><glyph d="M240 0H200V40H240ZM383 575Q383 609 375.5 642.5Q368 676 350 703Q332 730 302.5 747Q273 764 230 766L227 263Q241 312 267.5 349.5Q294 387 319.5 421.5Q345 456 364 492Q383 528 383 575ZM213 175 210 766Q126 761 89.5 692Q53 623 53 500H33V507Q33 637 78.5 711.5Q124 786 223 786Q273 786 307.5 767.5Q342 749 363 720Q384 691 393.5 654.5Q403 618 403 582Q403 540 390.5 507Q378 474 358.5 445.5Q339 417 316.5 389.5Q294 362 274.5 331Q255 300 241.5 262Q228 224 227 175Z" glyph-name="interrobang" horiz-adv-x="440" unicode="&#8253;" /><glyph d="M200 530H240V490H200ZM57 -30Q57 -57 65 -84.5Q73 -112 91 -133.5Q109 -155 138 -169.5Q167 -184 210 -186L212 263Q198 213 172 180Q146 147 120.5 117Q95 87 76 53.5Q57 20 57 -30ZM227 355 230 -186Q315 -182 351 -117.5Q387 -53 387 60H407V53Q407 -7 396.5 -54.5Q386 -102 363 -136Q340 -170 304.5 -188Q269 -206 220 -206Q170 -206 135 -190.5Q100 -175 78.5 -150.5Q57 -126 47 -95.5Q37 -65 37 -35Q37 9 49.5 40.5Q62 72 81.5 98Q101 124 123.5 148Q146 172 165.5 201Q185 230 198.5 266.5Q212 303 213 355Z" glyph-name="interrobangdown" horiz-adv-x="440" unicode="&#59701;" /><glyph d="M200 780H240V740H200ZM57 205Q57 171 64.5 137Q72 103 89.5 76Q107 49 136.5 32Q166 15 210 14L212 516Q198 466 172 429Q146 392 120.5 358Q95 324 76 288Q57 252 57 205ZM227 605 230 14Q313 19 350 88Q387 157 387 280H407V273Q407 143 361.5 68.5Q316 -6 217 -6Q167 -6 132.5 12.5Q98 31 77 60Q56 89 46.5 125.5Q37 162 37 198Q37 240 49.5 273Q62 306 81.5 334.5Q101 363 123.5 390.5Q146 418 165.5 449Q185 480 198.5 518Q212 556 213 605Z" glyph-name="interrobangdown.cap" horiz-adv-x="440" unicode="&#59803;" /><glyph d="M250 786Q287 786 315.5 772.5Q344 759 362.5 736.5Q381 714 390.5 684Q400 654 400 620H382Q382 650 374 677Q366 704 350 724Q334 744 309 756Q284 768 250 768Q216 768 191 756Q166 744 150 724Q134 704 126 677Q118 650 118 620H100Q100 654 109.5 684Q119 714 137.5 736.5Q156 759 184 772.5Q212 786 250 786Z" glyph-name="invertedbreve" horiz-adv-x="500" unicode="&#58385;" /><glyph d="M250 938Q196 938 167 911.5Q138 885 138 840H120Q120 893 154.5 924.5Q189 956 250 956Q311 956 345.5 924.5Q380 893 380 840H362Q362 885 333 911.5Q304 938 250 938Z" glyph-name="invertedbreve.cap" horiz-adv-x="500" unicode="&#58407;" /><glyph d="M110 680H70V720H110ZM145 -188Q131 -195 113 -200.5Q95 -206 66 -206Q48 -206 32 -201Q16 -196 3 -185Q-10 -174 -17.5 -156.5Q-25 -139 -25 -115Q-25 -87 -16 -67Q-7 -47 7.5 -32Q22 -17 41 -7Q60 3 80 11V530H100V0Q82 -6 63.5 -14.5Q45 -23 29 -36.5Q13 -50 3 -69.5Q-7 -89 -7 -115Q-7 -156 15 -172Q37 -188 66 -188Q92 -188 110 -182.5Q128 -177 139 -172Z" glyph-name="iogonek" horiz-adv-x="180" unicode="&#303;" /><glyph d="M225 732Q225 712 220 698.5Q215 685 206.5 677Q198 669 187 665.5Q176 662 165 662Q145 662 126 671Q107 680 89 691Q71 702 53.5 711Q36 720 18 720Q1 720 -13 711Q-27 702 -27 668H-45Q-45 708 -26.5 723Q-8 738 15 738Q35 738 54 729Q73 720 91 709Q109 698 126.5 689Q144 680 162 680Q179 680 193 689Q207 698 207 732ZM80 530H100V0H80Z" glyph-name="itilde" horiz-adv-x="180" unicode="&#297;" /><glyph d="M110 680H70V720H110ZM80 530H100V-71Q100 -112 89.5 -138Q79 -164 61 -179Q43 -194 19 -200Q-5 -206 -31 -206Q-59 -206 -75 -202Q-91 -198 -95 -196V-176Q-89 -179 -71.5 -182.5Q-54 -186 -35 -186Q-10 -186 11.5 -181Q33 -176 48 -162.5Q63 -149 71.5 -125.5Q80 -102 80 -65Z" glyph-name="j" horiz-adv-x="180" unicode="j" /><glyph d="M-45 620 80 780H100L225 620H200L90 762L-20 620ZM80 530H100V-71Q100 -112 89.5 -138Q79 -164 61 -179Q43 -194 19 -200Q-5 -206 -31 -206Q-59 -206 -75 -202Q-91 -198 -95 -196V-176Q-89 -179 -71.5 -182.5Q-54 -186 -35 -186Q-10 -186 11.5 -181Q33 -176 48 -162.5Q63 -149 71.5 -125.5Q80 -102 80 -65Z" glyph-name="jcircumflex" horiz-adv-x="180" unicode="&#309;" /><glyph d="M95 200 398 530H425L239 329L425 0H402L226 314L95 172V0H75V800H95Z" glyph-name="k" horiz-adv-x="458" unicode="k" /><glyph d="M260 -102Q260 -159 241.5 -182.5Q223 -206 185 -206V-188Q198 -188 208.5 -185Q219 -182 225.5 -173.5Q232 -165 236 -150Q240 -135 240 -110H220V-70H260ZM95 200 398 530H425L239 329L425 0H402L226 314L95 172V0H75V800H95Z" glyph-name="kcommaaccent" horiz-adv-x="458" unicode="&#311;" /><glyph d="M95 200 398 530H425L239 329L425 0H402L226 314L95 172V0H75V530H95Z" glyph-name="kgreenlandic" horiz-adv-x="458" unicode="&#312;" /><glyph d="M80 800H100V0H80Z" glyph-name="l" horiz-adv-x="180" unicode="l" /><glyph d="M163 950 101 840H79L141 950ZM80 800H100V0H80Z" glyph-name="lacute" horiz-adv-x="180" unicode="&#314;" /><glyph d="M211 800 200 620H190V800ZM80 800H100V0H80Z" glyph-name="lcaron" horiz-adv-x="180" unicode="&#318;" /><glyph d="M110 -102Q110 -159 91.5 -182.5Q73 -206 35 -206V-188Q48 -188 58.5 -185Q69 -182 75.5 -173.5Q82 -165 86 -150Q90 -135 90 -110H70V-70H110ZM80 800H100V0H80Z" glyph-name="lcommaaccent" horiz-adv-x="180" unicode="&#316;" /><glyph d="M250 320H210V360H250ZM80 800H100V0H80Z" glyph-name="ldot" horiz-adv-x="280" unicode="&#320;" /><glyph d="M550 646V624L70 390L550 156V134L50 380V400Z" glyph-name="less" horiz-adv-x="600" unicode="&lt;" /><glyph d="M550 134 50 323V345L550 156ZM550 270V248L50 437V457L550 646V624L75 447Z" glyph-name="lessequal" horiz-adv-x="600" unicode="&#8804;" /><glyph d="M50 560H550V220H530V540H50Z" glyph-name="logicalnot" horiz-adv-x="600" unicode="&#172;" /><glyph d="M50 20H270V0H50Z" glyph-name="lowline" horiz-adv-x="320" unicode="&#58641;" /><glyph d="M240 505 140 431V0H120V417L30 351V376L120 442V800H140V456L240 530Z" glyph-name="lslash" horiz-adv-x="260" unicode="&#322;" /><glyph d="M670 0V385Q670 457 640 486.5Q610 516 549 516Q519 516 494 507.5Q469 499 449.5 485.5Q430 472 415 455.5Q400 439 390 423V0H370V385Q370 457 340 486.5Q310 516 249 516Q219 516 194 507.5Q169 499 149.5 485.5Q130 472 115 455.5Q100 439 90 423V0H70V410L65 530H80L87 449Q97 465 112.5 480.5Q128 496 148 508.5Q168 521 193.5 528.5Q219 536 251 536Q361 536 384 444Q394 460 409 476.5Q424 493 444.5 506Q465 519 491.5 527.5Q518 536 551 536Q690 536 690 390V0Z" glyph-name="m" horiz-adv-x="750" unicode="m" /><glyph d="M150 710H350V690H150Z" glyph-name="macron" horiz-adv-x="500" unicode="&#175;" /><glyph d="M150 905H350V885H150Z" glyph-name="macron.cap" horiz-adv-x="500" unicode="&#58405;" /><glyph d="M400 680H360V720H400ZM670 0V385Q670 457 640 486.5Q610 516 549 516Q519 516 494 507.5Q469 499 449.5 485.5Q430 472 415 455.5Q400 439 390 423V0H370V385Q370 457 340 486.5Q310 516 249 516Q219 516 194 507.5Q169 499 149.5 485.5Q130 472 115 455.5Q100 439 90 423V0H70V410L65 530H80L87 449Q97 465 112.5 480.5Q128 496 148 508.5Q168 521 193.5 528.5Q219 536 251 536Q361 536 384 444Q394 460 409 476.5Q424 493 444.5 506Q465 519 491.5 527.5Q518 536 551 536Q690 536 690 390V0Z" glyph-name="mdotaccent" horiz-adv-x="750" unicode="&#7745;" /><glyph d="M64 265Q64 321 85 370.5Q106 420 143 456.5Q180 493 229.5 514.5Q279 536 335 536Q391 536 440.5 514.5Q490 493 526.5 456.5Q563 420 584.5 370.5Q606 321 606 265Q606 209 584.5 159.5Q563 110 526.5 73Q490 36 440.5 15Q391 -6 335 -6Q279 -6 229.5 15Q180 36 143 73Q106 110 85 159.5Q64 209 64 265Z" glyph-name="mediumblackcircle" horiz-adv-x="670" unicode="&#9899;" /><glyph d="M84 265Q84 213 103.5 167Q123 121 157 87Q191 53 237 33.5Q283 14 335 14Q387 14 433 33.5Q479 53 513 87Q547 121 566.5 167Q586 213 586 265Q586 317 566.5 363Q547 409 513 443Q479 477 433 496.5Q387 516 335 516Q283 516 237 496.5Q191 477 157 443Q123 409 103.5 363Q84 317 84 265ZM64 265Q64 321 85 370.5Q106 420 143 456.5Q180 493 229.5 514.5Q279 536 335 536Q391 536 440.5 514.5Q490 493 526.5 456.5Q563 420 584.5 370.5Q606 321 606 265Q606 209 584.5 159.5Q563 110 526.5 73Q490 36 440.5 15Q391 -6 335 -6Q279 -6 229.5 15Q180 36 143 73Q106 110 85 159.5Q64 209 64 265Z" glyph-name="mediumwhitecircle" horiz-adv-x="670" unicode="&#9898;" /><glyph d="M50 400H550V380H50Z" glyph-name="minus" horiz-adv-x="600" unicode="&#8722;" /><glyph d="M25 5H275V-15H25Z" glyph-name="minus.inf" horiz-adv-x="300" unicode="&#58748;" /><glyph d="M60 645 300 405 540 645 555 630 315 390 555 150 540 135 300 375 60 135 45 150 285 390 45 630Z" glyph-name="multiply" horiz-adv-x="600" unicode="&#215;" /><glyph d="M410 0V375Q410 454 374 485Q338 516 269 516Q233 516 204.5 507.5Q176 499 154 485.5Q132 472 116 455.5Q100 439 90 423V0H70V410L65 530H80L87 448Q98 464 114.5 479.5Q131 495 153.5 507.5Q176 520 205.5 528Q235 536 271 536Q349 536 389.5 498.5Q430 461 430 380V0Z" glyph-name="n" horiz-adv-x="490" unicode="n" /><glyph d="M351 780 261 620H239L329 780ZM410 0V375Q410 454 374 485Q338 516 269 516Q233 516 204.5 507.5Q176 499 154 485.5Q132 472 116 455.5Q100 439 90 423V0H70V410L65 530H80L87 448Q98 464 114.5 479.5Q131 495 153.5 507.5Q176 520 205.5 528Q235 536 271 536Q349 536 389.5 498.5Q430 461 430 380V0Z" glyph-name="nacute" horiz-adv-x="490" unicode="&#324;" /><glyph d="M140 780 250 638 360 780H385L260 620H240L115 780ZM410 0V375Q410 454 374 485Q338 516 269 516Q233 516 204.5 507.5Q176 499 154 485.5Q132 472 116 455.5Q100 439 90 423V0H70V410L65 530H80L87 448Q98 464 114.5 479.5Q131 495 153.5 507.5Q176 520 205.5 528Q235 536 271 536Q349 536 389.5 498.5Q430 461 430 380V0Z" glyph-name="ncaron" horiz-adv-x="490" unicode="&#328;" /><glyph d="M270 -102Q270 -159 251.5 -182.5Q233 -206 195 -206V-188Q208 -188 218.5 -185Q229 -182 235.5 -173.5Q242 -165 246 -150Q250 -135 250 -110H230V-70H270ZM410 0V375Q410 454 374 485Q338 516 269 516Q233 516 204.5 507.5Q176 499 154 485.5Q132 472 116 455.5Q100 439 90 423V0H70V410L65 530H80L87 448Q98 464 114.5 479.5Q131 495 153.5 507.5Q176 520 205.5 528Q235 536 271 536Q349 536 389.5 498.5Q430 461 430 380V0Z" glyph-name="ncommaaccent" horiz-adv-x="490" unicode="&#326;" /><glyph d="M293 314Q331 314 365.5 326Q400 338 428.5 358.5Q457 379 479 407Q501 435 513 467Q514 478 514.5 489.5Q515 501 515 512V528Q515 583 498.5 627Q482 671 453 702Q424 733 384 749.5Q344 766 298 766H292Q245 766 205.5 750.5Q166 735 137 706.5Q108 678 91.5 637.5Q75 597 75 548V532Q75 482 90.5 442Q106 402 134.5 373.5Q163 345 201.5 329.5Q240 314 287 314ZM90 13Q132 13 175.5 23Q219 33 260.5 54Q302 75 340 106.5Q378 138 409 181Q451 239 474.5 300Q498 361 508 421Q493 394 471.5 371Q450 348 422.5 331Q395 314 362 304Q329 294 290 294Q239 294 196 310.5Q153 327 121.5 358Q90 389 72.5 434Q55 479 55 535V545Q55 601 73.5 646Q92 691 124.5 722Q157 753 200.5 769.5Q244 786 295 786Q346 786 389.5 768.5Q433 751 465.5 717.5Q498 684 516.5 635.5Q535 587 535 525V515Q535 427 510.5 339.5Q486 252 423 168Q358 81 270.5 37.5Q183 -6 90 -6Z" glyph-name="nine" horiz-adv-x="600" unicode="9" /><glyph d="M146 -35Q181 -35 208 -17Q235 1 249 29Q249 36 249.5 42.5Q250 49 250 55V60Q250 114 220.5 144.5Q191 175 149 175H146Q99 175 72.5 148.5Q46 122 46 74V66Q46 17 72 -9Q98 -35 143 -35ZM42 -185Q61 -185 82 -181Q103 -177 123.5 -168Q144 -159 163.5 -145Q183 -131 198 -110Q216 -86 227 -60Q238 -34 243 -8Q226 -29 201.5 -42Q177 -55 145 -55Q94 -55 59.5 -25.5Q25 4 25 67V72Q25 135 59.5 165Q94 195 147 195Q198 195 234 160.5Q270 126 270 60V55Q270 8 258 -36.5Q246 -81 215 -123Q199 -145 178 -160.5Q157 -176 134 -186Q111 -196 87.5 -200.5Q64 -205 42 -205Z" glyph-name="nine.inf" horiz-adv-x="300" unicode="&#58746;" /><glyph d="M537 0V20H645V362L543 292L532 309L655 392H665V20H772V0ZM100 0 676 780H700L124 0ZM146 555Q181 555 208 572.5Q235 590 249 619Q249 626 249.5 632.5Q250 639 250 645V650Q250 704 220.5 734.5Q191 765 149 765H146Q99 765 72.5 738.5Q46 712 46 664V656Q46 607 72 581Q98 555 143 555ZM953 225Q918 225 891.5 207.5Q865 190 851 162Q850 155 850 148Q850 141 850 135V130Q850 76 879.5 45.5Q909 15 951 15H954Q1001 15 1027.5 41Q1054 67 1054 116V124Q1054 172 1027.5 198.5Q1001 225 956 225ZM1057 375Q1019 375 976 358Q933 341 902 300Q883 276 872 250Q861 224 856 198Q873 219 898 232Q923 245 955 245Q1006 245 1040.5 215Q1075 185 1075 122V117Q1075 54 1040.5 24.5Q1006 -5 952 -5Q927 -5 904.5 3.5Q882 12 865.5 29Q849 46 839.5 71.5Q830 97 830 130V135Q830 182 841.5 226.5Q853 271 885 313Q901 334 922 349.5Q943 365 966 375Q989 385 1012.5 390Q1036 395 1057 395ZM42 405Q61 405 82 409Q103 413 123.5 422Q144 431 163.5 445Q183 459 198 480Q216 503 227 529.5Q238 556 243 582Q226 560 201.5 547.5Q177 535 145 535Q94 535 59.5 564.5Q25 594 25 657V662Q25 725 59.5 755Q94 785 147 785Q198 785 234 750.5Q270 716 270 650V645Q270 598 258 553.5Q246 509 215 467Q199 445 178 429.5Q157 414 134 404Q111 394 87.5 389.5Q64 385 42 385Z" glyph-name="ninesixteenths" horiz-adv-x="1100" unicode="&#61977;" /><glyph glyph-name="nonbreakingspace" horiz-adv-x="180" unicode="&#160;" /><glyph d="M456 640 375 500H550V480H363L259 300H550V280H248L167 140H144L225 280H50V300H236L340 480H50V500H352L433 640Z" glyph-name="notequal" horiz-adv-x="600" unicode="&#8800;" /><glyph d="M385 732Q385 712 380 698.5Q375 685 366.5 677Q358 669 347 665.5Q336 662 325 662Q305 662 286 671Q267 680 249 691Q231 702 213.5 711Q196 720 178 720Q161 720 147 711Q133 702 133 668H115Q115 708 133.5 723Q152 738 175 738Q195 738 214 729Q233 720 251 709Q269 698 286.5 689Q304 680 322 680Q339 680 353 689Q367 698 367 732ZM410 0V375Q410 454 374 485Q338 516 269 516Q233 516 204.5 507.5Q176 499 154 485.5Q132 472 116 455.5Q100 439 90 423V0H70V410L65 530H80L87 448Q98 464 114.5 479.5Q131 495 153.5 507.5Q176 520 205.5 528Q235 536 271 536Q349 536 389.5 498.5Q430 461 430 380V0Z" glyph-name="ntilde" horiz-adv-x="490" unicode="&#241;" /><glyph d="M174 270H368L425 510H232ZM100 530H217L277 780H297L237 530H430L490 780H510L450 530H563V510H445L387 270H500V250H382L323 0H303L363 250H169L110 0H90L150 250H37V270H155L212 510H100Z" glyph-name="numbersign" horiz-adv-x="600" unicode="#" /><glyph d="M696 250H994V230H696ZM845 380Q766 380 726 434Q686 488 686 576V590Q686 678 726 732Q766 786 845 786Q924 786 964 732Q1004 678 1004 590V576Q1004 488 964 434Q924 380 845 380ZM845 400Q914 400 949 447.5Q984 495 984 576V590Q984 671 949 718.5Q914 766 845 766Q776 766 741 718.5Q706 671 706 590V576Q706 495 741 447.5Q776 400 845 400ZM540 180V780H560V0H535L99 751L100 600V0H80V780H105L541 29Z" glyph-name="numero" horiz-adv-x="1050" unicode="&#8470;" /><glyph d="M263 14Q354 14 402.5 79Q451 144 451 255V275Q451 386 402.5 451Q354 516 263 516Q171 516 123 451Q75 386 75 275V255Q75 144 123 79Q171 14 263 14ZM263 -6Q162 -6 108.5 63.5Q55 133 55 255V275Q55 397 108.5 466.5Q162 536 263 536Q364 536 417.5 466.5Q471 397 471 275V255Q471 133 417.5 63.5Q364 -6 263 -6Z" glyph-name="o" horiz-adv-x="526" unicode="o" /><glyph d="M364 780 274 620H252L342 780ZM263 14Q354 14 402.5 79Q451 144 451 255V275Q451 386 402.5 451Q354 516 263 516Q171 516 123 451Q75 386 75 275V255Q75 144 123 79Q171 14 263 14ZM263 -6Q162 -6 108.5 63.5Q55 133 55 255V275Q55 397 108.5 466.5Q162 536 263 536Q364 536 417.5 466.5Q471 397 471 275V255Q471 133 417.5 63.5Q364 -6 263 -6Z" glyph-name="oacute" horiz-adv-x="526" unicode="&#243;" /><glyph d="M263 614Q225 614 197 627.5Q169 641 150.5 663.5Q132 686 122.5 716Q113 746 113 780H131Q131 750 139 723Q147 696 163 676Q179 656 204 644Q229 632 263 632Q297 632 322 644Q347 656 363 676Q379 696 387 723Q395 750 395 780H413Q413 746 403.5 716Q394 686 375.5 663.5Q357 641 328.5 627.5Q300 614 263 614ZM263 14Q354 14 402.5 79Q451 144 451 255V275Q451 386 402.5 451Q354 516 263 516Q171 516 123 451Q75 386 75 275V255Q75 144 123 79Q171 14 263 14ZM263 -6Q162 -6 108.5 63.5Q55 133 55 255V275Q55 397 108.5 466.5Q162 536 263 536Q364 536 417.5 466.5Q471 397 471 275V255Q471 133 417.5 63.5Q364 -6 263 -6Z" glyph-name="obreve" horiz-adv-x="526" unicode="&#335;" /><glyph d="M128 620 253 780H273L398 620H373L263 762L153 620ZM263 14Q354 14 402.5 79Q451 144 451 255V275Q451 386 402.5 451Q354 516 263 516Q171 516 123 451Q75 386 75 275V255Q75 144 123 79Q171 14 263 14ZM263 -6Q162 -6 108.5 63.5Q55 133 55 255V275Q55 397 108.5 466.5Q162 536 263 536Q364 536 417.5 466.5Q471 397 471 275V255Q471 133 417.5 63.5Q364 -6 263 -6Z" glyph-name="ocircumflex" horiz-adv-x="526" unicode="&#244;" /><glyph d="M353 680H313V720H353ZM213 680H173V720H213ZM263 14Q354 14 402.5 79Q451 144 451 255V275Q451 386 402.5 451Q354 516 263 516Q171 516 123 451Q75 386 75 275V255Q75 144 123 79Q171 14 263 14ZM263 -6Q162 -6 108.5 63.5Q55 133 55 255V275Q55 397 108.5 466.5Q162 536 263 536Q364 536 417.5 466.5Q471 397 471 275V255Q471 133 417.5 63.5Q364 -6 263 -6Z" glyph-name="odieresis" horiz-adv-x="526" unicode="&#246;" /><glyph d="M661 516Q613 516 577 498Q541 480 517.5 448Q494 416 482.5 372Q471 328 471 275H851Q851 328 839.5 372Q828 416 804.5 448Q781 480 745 498Q709 516 661 516ZM263 14Q354 14 402.5 79Q451 144 451 255V275Q451 386 402.5 451Q354 516 263 516Q171 516 123 451Q75 386 75 275V255Q75 144 123 79Q171 14 263 14ZM471 255Q471 202 482.5 158Q494 114 517.5 82Q541 50 578 32Q615 14 666 14Q717 14 752.5 28.5Q788 43 809.5 65.5Q831 88 841 115.5Q851 143 851 170H871V165Q871 137 859.5 106.5Q848 76 823.5 51Q799 26 760 10Q721 -6 666 -6Q621 -6 586.5 7Q552 20 526.5 43Q501 66 485 98Q469 130 461 169Q444 85 394 39.5Q344 -6 263 -6Q162 -6 108.5 63.5Q55 133 55 255V275Q55 397 108.5 466.5Q162 536 263 536Q344 536 394 490Q444 444 461 361Q468 400 484 432Q500 464 524.5 487Q549 510 583 523Q617 536 661 536Q716 536 756 515.5Q796 495 821.5 460Q847 425 859 377.5Q871 330 871 275V255Z" glyph-name="oe" horiz-adv-x="926" unicode="&#339;" /><glyph d="M329 -188Q315 -195 297 -200.5Q279 -206 250 -206Q232 -206 216 -201Q200 -196 187 -185Q174 -174 166.5 -156.5Q159 -139 159 -115Q159 -85 169.5 -63.5Q180 -42 196.5 -27Q213 -12 234 -2Q255 8 277 16L284 0Q266 -6 247.5 -14.5Q229 -23 213 -36.5Q197 -50 187 -69.5Q177 -89 177 -115Q177 -156 199 -172Q221 -188 250 -188Q276 -188 294 -182.5Q312 -177 323 -172Z" glyph-name="ogonek" horiz-adv-x="602" unicode="&#731;" /><glyph d="M184 780 274 620H252L162 780ZM263 14Q354 14 402.5 79Q451 144 451 255V275Q451 386 402.5 451Q354 516 263 516Q171 516 123 451Q75 386 75 275V255Q75 144 123 79Q171 14 263 14ZM263 -6Q162 -6 108.5 63.5Q55 133 55 255V275Q55 397 108.5 466.5Q162 536 263 536Q364 536 417.5 466.5Q471 397 471 275V255Q471 133 417.5 63.5Q364 -6 263 -6Z" glyph-name="ograve" horiz-adv-x="526" unicode="&#242;" /><glyph d="M314 780 224 620H202L292 780ZM414 780 324 620H302L392 780ZM263 14Q354 14 402.5 79Q451 144 451 255V275Q451 386 402.5 451Q354 516 263 516Q171 516 123 451Q75 386 75 275V255Q75 144 123 79Q171 14 263 14ZM263 -6Q162 -6 108.5 63.5Q55 133 55 255V275Q55 397 108.5 466.5Q162 536 263 536Q364 536 417.5 466.5Q471 397 471 275V255Q471 133 417.5 63.5Q364 -6 263 -6Z" glyph-name="ohungarumlaut" horiz-adv-x="526" unicode="&#337;" /><glyph d="M163 710H363V690H163ZM263 14Q354 14 402.5 79Q451 144 451 255V275Q451 386 402.5 451Q354 516 263 516Q171 516 123 451Q75 386 75 275V255Q75 144 123 79Q171 14 263 14ZM263 -6Q162 -6 108.5 63.5Q55 133 55 255V275Q55 397 108.5 466.5Q162 536 263 536Q364 536 417.5 466.5Q471 397 471 275V255Q471 133 417.5 63.5Q364 -6 263 -6Z" glyph-name="omacron" horiz-adv-x="526" unicode="&#333;" /><glyph d="M80 0V20H300V757L81 610L70 627L305 785H320V20H540V0Z" glyph-name="one" horiz-adv-x="600" unicode="1" /><glyph d="M37 -200V-180H145V162L43 92L32 109L155 192H165V-180H272V-200Z" glyph-name="one.inf" horiz-adv-x="300" unicode="&#58738;" /><glyph d="M37 390V410H145V752L43 682L32 699L155 782H165V410H272V390ZM100 0 676 780H700L124 0ZM765 20V0H530V12L705 196Q731 223 740 242.5Q749 262 749 285V290Q749 329 722.5 352.5Q696 376 651 376H648Q598 376 574 349Q550 322 550 260H530V272Q530 330 558.5 362.5Q587 395 650 395Q705 395 737.5 368Q770 341 770 292V287Q770 273 768 261Q766 249 761 237.5Q756 226 747 214Q738 202 724 187L564 19L602 20Z" glyph-name="onehalf" horiz-adv-x="800" unicode="&#189;" /><glyph d="M37 390V410H145V752L43 682L32 699L155 782H165V410H272V390ZM546 129 595 130H690V354ZM100 0 676 780H700L124 0ZM690 0V110H517V122L690 390H710V130H782V110H710V0Z" glyph-name="onequarter" horiz-adv-x="800" unicode="&#188;" /><glyph d="M37 390V410H145V752L43 682L32 699L155 782H165V410H272V390ZM537 0V20H645V362L543 292L532 309L655 392H665V20H772V0ZM100 0 676 780H700L124 0ZM953 225Q918 225 891.5 207.5Q865 190 851 162Q850 155 850 148Q850 141 850 135V130Q850 76 879.5 45.5Q909 15 951 15H954Q1001 15 1027.5 41Q1054 67 1054 116V124Q1054 172 1027.5 198.5Q1001 225 956 225ZM1057 375Q1019 375 976 358Q933 341 902 300Q883 276 872 250Q861 224 856 198Q873 219 898 232Q923 245 955 245Q1006 245 1040.5 215Q1075 185 1075 122V117Q1075 54 1040.5 24.5Q1006 -5 952 -5Q927 -5 904.5 3.5Q882 12 865.5 29Q849 46 839.5 71.5Q830 97 830 130V135Q830 182 841.5 226.5Q853 271 885 313Q901 334 922 349.5Q943 365 966 375Q989 385 1012.5 390Q1036 395 1057 395Z" glyph-name="onesixteenth" horiz-adv-x="1100" unicode="&#61973;" /><glyph d="M37 390V410H145V752L43 682L32 699L155 782H165V410H272V390Z" glyph-name="onesuperior" horiz-adv-x="300" unicode="&#185;" /><glyph d="M50 350H283V330H50Z" glyph-name="onethirdemdash" horiz-adv-x="333" unicode="&#58481;" /><glyph d="M50 400H283V380H50Z" glyph-name="onethirdemdash.cap" horiz-adv-x="333" unicode="&#58499;" /><glyph d="M50 250H322V230H50ZM155 400Q190 400 214.5 408.5Q239 417 256 429.5Q273 442 283 455.5Q293 469 299 479V607L161 584Q140 581 122 575Q104 569 90.5 558.5Q77 548 69.5 531.5Q62 515 62 491V481Q62 449 84.5 424.5Q107 400 155 400ZM42 490Q42 523 53 544Q64 565 82 577Q100 589 122 594.5Q144 600 166 604L299 626V644Q299 671 294.5 693Q290 715 278 731.5Q266 748 244.5 757Q223 766 189 766Q154 766 132.5 756.5Q111 747 99 730.5Q87 714 83 692Q79 670 79 646H59V654Q59 678 64.5 701.5Q70 725 84 744Q98 763 123.5 774.5Q149 786 189 786Q228 786 253 775Q278 764 292.5 745Q307 726 313 701Q319 676 319 649V485L322 388H307L301 450Q293 438 280.5 426Q268 414 250 403.5Q232 393 208.5 386.5Q185 380 154 380Q105 380 73.5 406.5Q42 433 42 481Z" glyph-name="ordfeminine" horiz-adv-x="377" unicode="&#170;" /><glyph d="M56 250H354V230H56ZM205 380Q126 380 86 434Q46 488 46 576V590Q46 678 86 732Q126 786 205 786Q284 786 324 732Q364 678 364 590V576Q364 488 324 434Q284 380 205 380ZM205 400Q274 400 309 447.5Q344 495 344 576V590Q344 671 309 718.5Q274 766 205 766Q136 766 101 718.5Q66 671 66 590V576Q66 495 101 447.5Q136 400 205 400Z" glyph-name="ordmasculine" horiz-adv-x="410" unicode="&#186;" /><glyph d="M75 255Q75 149 118 85L395 460Q347 516 263 516Q171 516 123 451Q75 386 75 275ZM263 14Q354 14 402.5 79Q451 144 451 255V275Q451 382 407 444L130 70Q180 14 263 14ZM420 462Q445 428 458 381Q471 334 471 275V255Q471 133 417.5 63.5Q364 -6 263 -6Q172 -6 118 53L79 0H55L105 68Q55 136 55 255V275Q55 397 108.5 466.5Q162 536 263 536Q354 536 408 477L447 530H471Z" glyph-name="oslash" horiz-adv-x="526" unicode="&#248;" /><glyph d="M398 732Q398 712 393 698.5Q388 685 379.5 677Q371 669 360 665.5Q349 662 338 662Q318 662 299 671Q280 680 262 691Q244 702 226.5 711Q209 720 191 720Q174 720 160 711Q146 702 146 668H128Q128 708 146.5 723Q165 738 188 738Q208 738 227 729Q246 720 264 709Q282 698 299.5 689Q317 680 335 680Q352 680 366 689Q380 698 380 732ZM263 14Q354 14 402.5 79Q451 144 451 255V275Q451 386 402.5 451Q354 516 263 516Q171 516 123 451Q75 386 75 275V255Q75 144 123 79Q171 14 263 14ZM263 -6Q162 -6 108.5 63.5Q55 133 55 255V275Q55 397 108.5 466.5Q162 536 263 536Q364 536 417.5 466.5Q471 397 471 275V255Q471 133 417.5 63.5Q364 -6 263 -6Z" glyph-name="otilde" horiz-adv-x="526" unicode="&#245;" /><glyph d="M90 107Q100 92 114.5 75.5Q129 59 149 45.5Q169 32 194.5 23Q220 14 252 14Q343 14 389 79Q435 144 435 255V275Q435 386 389 451Q343 516 252 516Q220 516 194.5 507Q169 498 149 484.5Q129 471 114.5 454.5Q100 438 90 423ZM252 -6Q220 -6 194.5 1.5Q169 9 149 21Q129 33 114.5 47.5Q100 62 90 75V-200H70V410L65 530H80L87 451Q96 464 110.5 479Q125 494 145.5 506.5Q166 519 192.5 527.5Q219 536 252 536Q353 536 404 466.5Q455 397 455 275V255Q455 133 404 63.5Q353 -6 252 -6Z" glyph-name="p" horiz-adv-x="510" unicode="p" /><glyph d="M71 551Q71 489 91 451.5Q111 414 141 393.5Q171 373 206 366.5Q241 360 272 360H290V760H272Q241 760 206 753.5Q171 747 141 726.5Q111 706 91 668.5Q71 631 71 569ZM400 760H310V0H290V340H271Q231 340 191.5 349.5Q152 359 120.5 382.5Q89 406 69.5 446.5Q50 487 50 550V570Q50 633 69.5 673.5Q89 714 120.5 737.5Q152 761 191.5 770.5Q231 780 271 780H420V0H400Z" glyph-name="paragraph" horiz-adv-x="500" unicode="&#182;" /><glyph d="M65 370Q65 457 78.5 526Q92 595 114.5 651Q137 707 166 753Q195 799 227 840H250Q215 795 184.5 747Q154 699 132 642.5Q110 586 97.5 519Q85 452 85 370V350Q85 268 97.5 201Q110 134 132 77.5Q154 21 184.5 -27Q215 -75 250 -120H227Q195 -79 166 -33Q137 13 114.5 69Q92 125 78.5 194Q65 263 65 350Z" glyph-name="parenleft" horiz-adv-x="300" unicode="(" /><glyph d="M75 400Q75 511 111 606.5Q147 702 200 780H222Q195 740 172 695.5Q149 651 132 603Q115 555 105 504Q95 453 95 400V380Q95 327 105 276Q115 225 132 177Q149 129 172 84.5Q195 40 222 0H200Q147 78 111 173.5Q75 269 75 380Z" glyph-name="parenleft.cap" horiz-adv-x="300" unicode="&#58513;" /><glyph d="M32 0Q32 55 50 103Q68 151 94 190H116Q89 152 70.5 103Q52 54 52 0V-10Q52 -64 70.5 -113Q89 -162 116 -200H94Q68 -162 50 -114Q32 -66 32 -10Z" glyph-name="parenleft.inf" horiz-adv-x="150" unicode="&#58750;" /><glyph d="M235 350Q235 263 221.5 194Q208 125 185.5 69Q163 13 134 -33Q105 -79 73 -120H50Q85 -75 115.5 -27Q146 21 168 77.5Q190 134 202.5 201Q215 268 215 350V370Q215 452 202.5 519Q190 586 168 642.5Q146 699 115.5 747Q85 795 50 840H73Q105 799 134 753Q163 707 185.5 651Q208 595 221.5 526Q235 457 235 370Z" glyph-name="parenright" horiz-adv-x="300" unicode=")" /><glyph d="M225 380Q225 269 189 173.5Q153 78 100 0H78Q105 40 128 84.5Q151 129 168 177Q185 225 195 276Q205 327 205 380V400Q205 453 195 504Q185 555 168 603Q151 651 128 695.5Q105 740 78 780H100Q153 702 189 606.5Q225 511 225 400Z" glyph-name="parenright.cap" horiz-adv-x="300" unicode="&#58514;" /><glyph d="M117 -10Q117 -66 99.5 -114Q82 -162 56 -200H34Q60 -162 78.5 -113Q97 -64 97 -10V0Q97 54 78.5 103Q60 152 34 190H56Q82 151 99.5 103Q117 55 117 0Z" glyph-name="parenright.inf" horiz-adv-x="150" unicode="&#58751;" /><glyph d="M272 680H232V720H272ZM90 107Q100 92 114.5 75.5Q129 59 149 45.5Q169 32 194.5 23Q220 14 252 14Q343 14 389 79Q435 144 435 255V275Q435 386 389 451Q343 516 252 516Q220 516 194.5 507Q169 498 149 484.5Q129 471 114.5 454.5Q100 438 90 423ZM252 -6Q220 -6 194.5 1.5Q169 9 149 21Q129 33 114.5 47.5Q100 62 90 75V-200H70V410L65 530H80L87 451Q96 464 110.5 479Q125 494 145.5 506.5Q166 519 192.5 527.5Q219 536 252 536Q353 536 404 466.5Q455 397 455 275V255Q455 133 404 63.5Q353 -6 252 -6Z" glyph-name="pdotaccent" horiz-adv-x="510" unicode="&#7767;" /><glyph d="M591 753Q570 746 545 741Q524 736 497 733Q470 730 440 730Q402 730 370 733.5Q338 737 310 743Q329 722 339.5 692.5Q350 663 350 625V615Q350 539 309.5 496.5Q269 454 202 454Q135 454 94.5 496.5Q54 539 54 615V625Q54 701 94.5 743.5Q135 786 202 786Q232 786 258 777Q304 762 350.5 756Q397 750 440 750Q466 750 492.5 753Q519 756 543 760.5Q567 765 586 770.5Q605 776 617 780V765L299 0H277ZM330 628Q330 657 321.5 682.5Q313 708 296.5 726.5Q280 745 257 755.5Q234 766 205 766H199Q170 766 147 755.5Q124 745 107.5 726.5Q91 708 82.5 682.5Q74 657 74 628V612Q74 583 82.5 557.5Q91 532 107.5 513.5Q124 495 147 484.5Q170 474 199 474H205Q234 474 257 484.5Q280 495 296.5 513.5Q313 532 321.5 557.5Q330 583 330 612ZM570 152Q570 123 578.5 97.5Q587 72 603.5 53.5Q620 35 643 24.5Q666 14 695 14H701Q730 14 753 24.5Q776 35 792.5 53.5Q809 72 817.5 97.5Q826 123 826 152V168Q826 197 817.5 222.5Q809 248 792.5 266.5Q776 285 753 295.5Q730 306 701 306H695Q666 306 643 295.5Q620 285 603.5 266.5Q587 248 578.5 222.5Q570 197 570 168ZM846 155Q846 79 805.5 36.5Q765 -6 698 -6Q631 -6 590.5 36.5Q550 79 550 155V165Q550 241 590.5 283.5Q631 326 698 326Q765 326 805.5 283.5Q846 241 846 165Z" glyph-name="percent" horiz-adv-x="900" unicode="%" /><glyph d="M110 0H70V40H110Z" glyph-name="period" horiz-adv-x="180" unicode="." /><glyph d="M170 0H130V40H170Z" glyph-name="period.T" horiz-adv-x="300" unicode="&#61826;" /><glyph d="M110 320H70V360H110Z" glyph-name="periodcentered" horiz-adv-x="180" unicode="&#183;" /><glyph d="M110 370H70V410H110Z" glyph-name="periodcentered.cap" horiz-adv-x="180" unicode="&#58497;" /><glyph d="M330 628Q330 657 321.5 682.5Q313 708 296.5 726.5Q280 745 257 755.5Q234 766 205 766H199Q170 766 147 755.5Q124 745 107.5 726.5Q91 708 82.5 682.5Q74 657 74 628V612Q74 583 82.5 557.5Q91 532 107.5 513.5Q124 495 147 484.5Q170 474 199 474H205Q234 474 257 484.5Q280 495 296.5 513.5Q313 532 321.5 557.5Q330 583 330 612ZM930 152Q930 123 938.5 97.5Q947 72 963.5 53.5Q980 35 1003 24.5Q1026 14 1055 14H1061Q1090 14 1113 24.5Q1136 35 1152.5 53.5Q1169 72 1177.5 97.5Q1186 123 1186 152V168Q1186 197 1177.5 222.5Q1169 248 1152.5 266.5Q1136 285 1113 295.5Q1090 306 1061 306H1055Q1026 306 1003 295.5Q980 285 963.5 266.5Q947 248 938.5 222.5Q930 197 930 168ZM570 152Q570 123 578.5 97.5Q587 72 603.5 53.5Q620 35 643 24.5Q666 14 695 14H701Q730 14 753 24.5Q776 35 792.5 53.5Q809 72 817.5 97.5Q826 123 826 152V168Q826 197 817.5 222.5Q809 248 792.5 266.5Q776 285 753 295.5Q730 306 701 306H695Q666 306 643 295.5Q620 285 603.5 266.5Q587 248 578.5 222.5Q570 197 570 168ZM1206 155Q1206 79 1165.5 36.5Q1125 -6 1058 -6Q991 -6 950.5 36.5Q910 79 910 155V165Q910 241 950.5 283.5Q991 326 1058 326Q1125 326 1165.5 283.5Q1206 241 1206 165ZM846 155Q846 79 805.5 36.5Q765 -6 698 -6Q631 -6 590.5 36.5Q550 79 550 155V165Q550 241 590.5 283.5Q631 326 698 326Q765 326 805.5 283.5Q846 241 846 165ZM591 753Q570 746 545 741Q524 736 497 733Q470 730 440 730Q402 730 370 733.5Q338 737 310 743Q329 722 339.5 692.5Q350 663 350 625V615Q350 539 309.5 496.5Q269 454 202 454Q135 454 94.5 496.5Q54 539 54 615V625Q54 701 94.5 743.5Q135 786 202 786Q232 786 258 777Q304 762 350.5 756Q397 750 440 750Q466 750 492.5 753Q519 756 543 760.5Q567 765 586 770.5Q605 776 617 780V765L299 0H277Z" glyph-name="perthousand" horiz-adv-x="1260" unicode="&#8240;" /><glyph d="M310 640V400H550V380H310V140H290V380H50V400H290V640Z" glyph-name="plus" horiz-adv-x="600" unicode="+" /><glyph d="M160 120V5H275V-15H160V-130H140V-15H25V5H140V120Z" glyph-name="plus.inf" horiz-adv-x="300" unicode="&#58747;" /><glyph d="M50 200H550V180H50ZM310 640V480H550V460H310V300H290V460H50V480H290V640Z" glyph-name="plusminus" horiz-adv-x="600" unicode="&#177;" /><glyph d="M470 375Q487 375 507 379.5Q527 384 544 396Q561 408 572 429.5Q583 451 583 485V495Q583 529 572 550.5Q561 572 544 584Q527 596 507 600.5Q487 605 470 605H327V375ZM327 155H307V625H468Q492 625 516 619Q540 613 559.5 598.5Q579 584 591 559.5Q603 535 603 497V483Q603 445 591 420.5Q579 396 559.5 381.5Q540 367 516 361Q492 355 468 355H327ZM74 390Q74 312 103.5 243.5Q133 175 184 124Q235 73 303.5 43.5Q372 14 450 14Q528 14 596.5 43.5Q665 73 716 124Q767 175 796.5 243.5Q826 312 826 390Q826 468 796.5 536.5Q767 605 716 656Q665 707 596.5 736.5Q528 766 450 766Q372 766 303.5 736.5Q235 707 184 656Q133 605 103.5 536.5Q74 468 74 390ZM54 390Q54 472 85 544Q116 616 170 670Q224 724 296 755Q368 786 450 786Q532 786 604 755Q676 724 730 670Q784 616 815 544Q846 472 846 390Q846 308 815 236Q784 164 730 110Q676 56 604 25Q532 -6 450 -6Q368 -6 296 25Q224 56 170 110Q116 164 85 236Q54 308 54 390Z" glyph-name="published" horiz-adv-x="900" unicode="&#8471;" /><glyph glyph-name="punctuationspace" horiz-adv-x="180" unicode="&#8200;" /><glyph d="M420 423Q410 438 395.5 454.5Q381 471 361 484.5Q341 498 315.5 507Q290 516 258 516Q166 516 120.5 451Q75 386 75 275V255Q75 144 120.5 79Q166 14 258 14Q290 14 315.5 23Q341 32 361 45.5Q381 59 395.5 75.5Q410 92 420 107ZM420 75Q410 62 395.5 47.5Q381 33 361 21Q341 9 315 1.5Q289 -6 258 -6Q157 -6 106 63.5Q55 133 55 255V275Q55 397 106 466.5Q157 536 258 536Q291 536 317 527.5Q343 519 363.5 506.5Q384 494 399 479Q414 464 423 451L430 530H445L440 410V-200H420Z" glyph-name="q" horiz-adv-x="510" unicode="q" /><glyph d="M240 0H200V40H240ZM213 175Q213 225 225.5 263.5Q238 302 257 334.5Q276 367 298 394.5Q320 422 339 449.5Q358 477 370.5 507.5Q383 538 383 575Q383 610 375 644Q367 678 348.5 705Q330 732 299.5 749Q269 766 223 766Q132 766 92.5 697Q53 628 53 500H33V507Q33 637 78.5 711.5Q124 786 223 786Q273 786 307.5 767.5Q342 749 363 720Q384 691 393.5 654.5Q403 618 403 582Q403 540 390.5 507Q378 474 358.5 445.5Q339 417 316.5 389.5Q294 362 274.5 331Q255 300 241.5 262Q228 224 227 175Z" glyph-name="question" horiz-adv-x="440" unicode="?" /><glyph d="M227 355Q227 301 214.5 262.5Q202 224 183 194.5Q164 165 142 141.5Q120 118 101 93Q82 68 69.5 39Q57 10 57 -30Q57 -58 65 -86Q73 -114 91.5 -136Q110 -158 140.5 -172Q171 -186 217 -186Q308 -186 347.5 -121.5Q387 -57 387 60H407V53Q407 -6 396 -54Q385 -102 361.5 -136Q338 -170 302 -188Q266 -206 217 -206Q167 -206 132.5 -190.5Q98 -175 77 -150.5Q56 -126 46.5 -95.5Q37 -65 37 -35Q37 9 49.5 40.5Q62 72 81.5 98Q101 124 123.5 148Q146 172 165.5 201Q185 230 198.5 266.5Q212 303 213 355ZM200 530H240V490H200Z" glyph-name="questiondown" horiz-adv-x="440" unicode="&#191;" /><glyph d="M227 605Q227 555 214.5 516.5Q202 478 183 445.5Q164 413 142 385.5Q120 358 101 330.5Q82 303 69.5 272.5Q57 242 57 205Q57 170 65 136Q73 102 91.5 75Q110 48 140.5 31Q171 14 217 14Q308 14 347.5 83Q387 152 387 280H407V273Q407 143 361.5 68.5Q316 -6 217 -6Q167 -6 132.5 12.5Q98 31 77 60Q56 89 46.5 125.5Q37 162 37 198Q37 240 49.5 273Q62 306 81.5 334.5Q101 363 123.5 390.5Q146 418 165.5 449Q185 480 198.5 518Q212 556 213 605ZM200 780H240V740H200Z" glyph-name="questiondown.cap" horiz-adv-x="440" unicode="&#58436;" /><glyph d="M200 780 195 530H185L180 780ZM100 780 95 530H85L80 780Z" glyph-name="quotedbl" horiz-adv-x="280" unicode="&quot;" /><glyph d="M190 8Q190 -49 166.5 -77Q143 -105 105 -105V-85Q132 -85 150.5 -67.5Q169 -50 170 0H150V40H190ZM110 8Q110 -49 86.5 -77Q63 -105 25 -105V-85Q52 -85 70.5 -67.5Q89 -50 90 0H70V40H110Z" glyph-name="quotedblbase" horiz-adv-x="260" unicode="&#8222;" /><glyph d="M150 673Q150 730 173.5 758Q197 786 235 786V766Q208 766 189.5 748.5Q171 731 170 681H190V641H150ZM70 673Q70 730 93.5 758Q117 786 155 786V766Q128 766 109.5 748.5Q91 731 90 681H110V641H70Z" glyph-name="quotedblleft" horiz-adv-x="260" unicode="&#8220;" /><glyph d="M190 748Q190 691 166.5 663Q143 635 105 635V655Q132 655 150.5 672.5Q169 690 170 740H150V780H190ZM110 748Q110 691 86.5 663Q63 635 25 635V655Q52 655 70.5 672.5Q89 690 90 740H70V780H110Z" glyph-name="quotedblright" horiz-adv-x="260" unicode="&#8221;" /><glyph d="M70 673Q70 730 93.5 758Q117 786 155 786V766Q128 766 109.5 748.5Q91 731 90 681H110V641H70Z" glyph-name="quoteleft" horiz-adv-x="180" unicode="&#8216;" /><glyph d="M110 748Q110 691 86.5 663Q63 635 25 635V655Q52 655 70.5 672.5Q89 690 90 740H70V780H110Z" glyph-name="quoteright" horiz-adv-x="180" unicode="&#8217;" /><glyph d="M110 8Q110 -49 86.5 -77Q63 -105 25 -105V-85Q52 -85 70.5 -67.5Q89 -50 90 0H70V40H110Z" glyph-name="quotesinglbase" horiz-adv-x="180" unicode="&#8218;" /><glyph d="M100 780 95 530H85L80 780Z" glyph-name="quotesingle" horiz-adv-x="180" unicode="&apos;" /><glyph d="M240 536Q243 536 246 535.5Q249 535 251 535H255V516H246Q213 516 187.5 507.5Q162 499 142.5 485Q123 471 110 454Q97 437 90 421V0H70V410L65 530H80L87 449Q96 464 110 479.5Q124 495 142.5 507.5Q161 520 185.5 528Q210 536 240 536Z" glyph-name="r" horiz-adv-x="297" unicode="r" /><glyph d="M261 780 171 620H149L239 780ZM240 536Q243 536 246 535.5Q249 535 251 535H255V516H246Q213 516 187.5 507.5Q162 499 142.5 485Q123 471 110 454Q97 437 90 421V0H70V410L65 530H80L87 449Q96 464 110 479.5Q124 495 142.5 507.5Q161 520 185.5 528Q210 536 240 536Z" glyph-name="racute" horiz-adv-x="297" unicode="&#341;" /><glyph d="M50 780 160 638 270 780H295L170 620H150L25 780ZM240 536Q243 536 246 535.5Q249 535 251 535H255V516H246Q213 516 187.5 507.5Q162 499 142.5 485Q123 471 110 454Q97 437 90 421V0H70V410L65 530H80L87 449Q96 464 110 479.5Q124 495 142.5 507.5Q161 520 185.5 528Q210 536 240 536Z" glyph-name="rcaron" horiz-adv-x="297" unicode="&#345;" /><glyph d="M100 -102Q100 -159 81.5 -182.5Q63 -206 25 -206V-188Q38 -188 48.5 -185Q59 -182 65.5 -173.5Q72 -165 76 -150Q80 -135 80 -110H60V-70H100ZM240 536Q243 536 246 535.5Q249 535 251 535H255V516H246Q213 516 187.5 507.5Q162 499 142.5 485Q123 471 110 454Q97 437 90 421V0H70V410L65 530H80L87 449Q96 464 110 479.5Q124 495 142.5 507.5Q161 520 185.5 528Q210 536 240 536Z" glyph-name="rcommaaccent" horiz-adv-x="297" unicode="&#343;" /><glyph d="M204 703Q204 735 163 735H127V665H163Q204 665 204 697ZM219 696Q219 662 187 652L219 579H202L170 649H127V579H111V751H166Q190 751 204.5 739Q219 727 219 704ZM40 665Q40 639 50 616.5Q60 594 77 577Q94 560 116.5 550Q139 540 165 540Q191 540 213.5 550Q236 560 253 577Q270 594 280 616.5Q290 639 290 665Q290 691 280 713.5Q270 736 253 753Q236 770 213.5 780Q191 790 165 790Q139 790 116.5 780Q94 770 77 753Q60 736 50 713.5Q40 691 40 665ZM24 665Q24 694 35 720Q46 746 65 765Q84 784 110 795Q136 806 165 806Q194 806 220 795Q246 784 265 765Q284 746 295 720Q306 694 306 665Q306 636 295 610Q284 584 265 565Q246 546 220 535Q194 524 165 524Q136 524 110 535Q84 546 65 565Q46 584 35 610Q24 636 24 665Z" glyph-name="registered" horiz-adv-x="330" unicode="&#174;" /><glyph d="M465 375Q482 375 502 379.5Q522 384 539 396Q556 408 567 429.5Q578 451 578 485V495Q578 529 567 550.5Q556 572 539 584Q522 596 502 600.5Q482 605 465 605H327V375ZM327 155H307V625H463Q487 625 511 619Q535 613 554.5 598.5Q574 584 586 559.5Q598 535 598 497V483Q598 429 574 401Q550 373 517 362L598 155H576L497 357Q488 355 479.5 355Q471 355 463 355H327ZM74 390Q74 312 103.5 243.5Q133 175 184 124Q235 73 303.5 43.5Q372 14 450 14Q528 14 596.5 43.5Q665 73 716 124Q767 175 796.5 243.5Q826 312 826 390Q826 468 796.5 536.5Q767 605 716 656Q665 707 596.5 736.5Q528 766 450 766Q372 766 303.5 736.5Q235 707 184 656Q133 605 103.5 536.5Q74 468 74 390ZM54 390Q54 472 85 544Q116 616 170 670Q224 724 296 755Q368 786 450 786Q532 786 604 755Q676 724 730 670Q784 616 815 544Q846 472 846 390Q846 308 815 236Q784 164 730 110Q676 56 604 25Q532 -6 450 -6Q368 -6 296 25Q224 56 170 110Q116 164 85 236Q54 308 54 390Z" glyph-name="registered.cap" horiz-adv-x="900" unicode="&#59804;" /><glyph d="M150 780H190V740H170Q171 690 189.5 672.5Q208 655 235 655V635Q197 635 173.5 663Q150 691 150 748ZM70 780H110V740H90Q91 690 109.5 672.5Q128 655 155 655V635Q117 635 93.5 663Q70 691 70 748Z" glyph-name="reversequotedblleft" horiz-adv-x="260" unicode="&#8223;" /><glyph d="M70 780H110V740H90Q91 690 109.5 672.5Q128 655 155 655V635Q117 635 93.5 663Q70 691 70 748Z" glyph-name="reversequoteleft" horiz-adv-x="180" unicode="&#8219;" /><glyph d="M182 700Q182 671 201.5 651.5Q221 632 250 632Q279 632 298.5 651.5Q318 671 318 700Q318 729 298.5 748.5Q279 768 250 768Q221 768 201.5 748.5Q182 729 182 700ZM164 700Q164 718 171 733.5Q178 749 189.5 760.5Q201 772 216.5 779Q232 786 250 786Q268 786 283.5 779Q299 772 310.5 760.5Q322 749 329 733.5Q336 718 336 700Q336 682 329 666.5Q322 651 310.5 639.5Q299 628 283.5 621Q268 614 250 614Q232 614 216.5 621Q201 628 189.5 639.5Q178 651 171 666.5Q164 682 164 700Z" glyph-name="ring" horiz-adv-x="500" unicode="&#730;" /><glyph d="M182 870Q182 841 201.5 821.5Q221 802 250 802Q279 802 298.5 821.5Q318 841 318 870Q318 899 298.5 918.5Q279 938 250 938Q221 938 201.5 918.5Q182 899 182 870ZM164 870Q164 888 171 903.5Q178 919 189.5 930.5Q201 942 216.5 949Q232 956 250 956Q268 956 283.5 949Q299 942 310.5 930.5Q322 919 329 903.5Q336 888 336 870Q336 852 329 836.5Q322 821 310.5 809.5Q299 798 283.5 791Q268 784 250 784Q232 784 216.5 791Q201 798 189.5 809.5Q178 821 171 836.5Q164 852 164 870Z" glyph-name="ring.cap" horiz-adv-x="500" unicode="&#58410;" /><glyph d="M327 360Q358 360 393 366.5Q428 373 458 393.5Q488 414 508 451.5Q528 489 528 551V569Q528 631 508 668.5Q488 706 458 726.5Q428 747 393 753.5Q358 760 327 760H155V360ZM25 360H135V780H328Q368 780 407.5 770.5Q447 761 478.5 737.5Q510 714 529.5 673.5Q549 633 549 570V550Q549 487 529.5 446.5Q510 406 478.5 382.5Q447 359 407.5 349.5Q368 340 328 340H155V220H375V200H155V0H135V200H25V220H135V340H25Z" glyph-name="ruble" horiz-adv-x="600" unicode="&#8381;" /><glyph d="M240 14Q319 14 364.5 47.5Q410 81 410 140Q410 174 399 196Q388 218 365.5 231.5Q343 245 309.5 251.5Q276 258 230 262Q177 267 143.5 278Q110 289 90 305.5Q70 322 62.5 343.5Q55 365 55 392V398Q55 460 103.5 498Q152 536 240 536Q292 536 327 523Q362 510 384 486.5Q406 463 415.5 431.5Q425 400 425 364V360H405Q405 396 397 424.5Q389 453 370 473.5Q351 494 319.5 505Q288 516 240 516Q164 516 119.5 484.5Q75 453 75 395Q75 368 82.5 348.5Q90 329 109.5 315Q129 301 163 292Q197 283 250 278Q300 273 334.5 264Q369 255 390 239.5Q411 224 420.5 200Q430 176 430 143V137Q430 73 380 33.5Q330 -6 240 -6Q184 -6 147 8.5Q110 23 88.5 46Q67 69 58.5 98Q50 127 50 156V160H70Q70 132 77.5 105.5Q85 79 104 59Q123 39 156 26.5Q189 14 240 14Z" glyph-name="s" horiz-adv-x="480" unicode="s" /><glyph d="M341 780 251 620H229L319 780ZM240 14Q319 14 364.5 47.5Q410 81 410 140Q410 174 399 196Q388 218 365.5 231.5Q343 245 309.5 251.5Q276 258 230 262Q177 267 143.5 278Q110 289 90 305.5Q70 322 62.5 343.5Q55 365 55 392V398Q55 460 103.5 498Q152 536 240 536Q292 536 327 523Q362 510 384 486.5Q406 463 415.5 431.5Q425 400 425 364V360H405Q405 396 397 424.5Q389 453 370 473.5Q351 494 319.5 505Q288 516 240 516Q164 516 119.5 484.5Q75 453 75 395Q75 368 82.5 348.5Q90 329 109.5 315Q129 301 163 292Q197 283 250 278Q300 273 334.5 264Q369 255 390 239.5Q411 224 420.5 200Q430 176 430 143V137Q430 73 380 33.5Q330 -6 240 -6Q184 -6 147 8.5Q110 23 88.5 46Q67 69 58.5 98Q50 127 50 156V160H70Q70 132 77.5 105.5Q85 79 104 59Q123 39 156 26.5Q189 14 240 14Z" glyph-name="sacute" horiz-adv-x="480" unicode="&#347;" /><glyph d="M130 780 240 638 350 780H375L250 620H230L105 780ZM240 14Q319 14 364.5 47.5Q410 81 410 140Q410 174 399 196Q388 218 365.5 231.5Q343 245 309.5 251.5Q276 258 230 262Q177 267 143.5 278Q110 289 90 305.5Q70 322 62.5 343.5Q55 365 55 392V398Q55 460 103.5 498Q152 536 240 536Q292 536 327 523Q362 510 384 486.5Q406 463 415.5 431.5Q425 400 425 364V360H405Q405 396 397 424.5Q389 453 370 473.5Q351 494 319.5 505Q288 516 240 516Q164 516 119.5 484.5Q75 453 75 395Q75 368 82.5 348.5Q90 329 109.5 315Q129 301 163 292Q197 283 250 278Q300 273 334.5 264Q369 255 390 239.5Q411 224 420.5 200Q430 176 430 143V137Q430 73 380 33.5Q330 -6 240 -6Q184 -6 147 8.5Q110 23 88.5 46Q67 69 58.5 98Q50 127 50 156V160H70Q70 132 77.5 105.5Q85 79 104 59Q123 39 156 26.5Q189 14 240 14Z" glyph-name="scaron" horiz-adv-x="480" unicode="&#353;" /><glyph d="M167 -172Q179 -179 200.5 -183.5Q222 -188 240 -188Q254 -188 267.5 -186.5Q281 -185 291 -179.5Q301 -174 307 -163.5Q313 -153 313 -135Q313 -117 307 -106.5Q301 -96 291 -90.5Q281 -85 267.5 -83.5Q254 -82 240 -82Q235 -82 230 -82.5Q225 -83 222 -83Q218 -84 215 -84L204 -73L228 -6Q175 -4 141 11Q107 26 86.5 48.5Q66 71 58 99Q50 127 50 156V160H70Q70 132 77.5 105.5Q85 79 104 59Q123 39 156 26.5Q189 14 240 14Q319 14 364.5 47.5Q410 81 410 140Q410 174 399 196Q388 218 365.5 231.5Q343 245 309.5 251.5Q276 258 230 262Q177 267 143.5 278Q110 289 90 305.5Q70 322 62.5 343.5Q55 365 55 392V398Q55 460 103.5 498Q152 536 240 536Q292 536 327 523Q362 510 384 486.5Q406 463 415.5 431.5Q425 400 425 364V360H405Q405 396 397 424.5Q389 453 370 473.5Q351 494 319.5 505Q288 516 240 516Q164 516 119.5 484.5Q75 453 75 395Q75 368 82.5 348.5Q90 329 109.5 315Q129 301 163 292Q197 283 250 278Q300 273 334.5 264Q369 255 390 239.5Q411 224 420.5 200Q430 176 430 143V137Q430 74 382 35Q334 -4 248 -6L227 -65Q232 -64 245 -64Q260 -64 275.5 -67Q291 -70 303 -78Q315 -86 323 -100Q331 -114 331 -135Q331 -156 323.5 -170Q316 -184 303 -192Q290 -200 274 -203Q258 -206 240 -206Q220 -206 199 -201Q178 -196 161 -188Z" glyph-name="scedilla" horiz-adv-x="480" unicode="&#351;" /><glyph d="M105 620 230 780H250L375 620H350L240 762L130 620ZM240 14Q319 14 364.5 47.5Q410 81 410 140Q410 174 399 196Q388 218 365.5 231.5Q343 245 309.5 251.5Q276 258 230 262Q177 267 143.5 278Q110 289 90 305.5Q70 322 62.5 343.5Q55 365 55 392V398Q55 460 103.5 498Q152 536 240 536Q292 536 327 523Q362 510 384 486.5Q406 463 415.5 431.5Q425 400 425 364V360H405Q405 396 397 424.5Q389 453 370 473.5Q351 494 319.5 505Q288 516 240 516Q164 516 119.5 484.5Q75 453 75 395Q75 368 82.5 348.5Q90 329 109.5 315Q129 301 163 292Q197 283 250 278Q300 273 334.5 264Q369 255 390 239.5Q411 224 420.5 200Q430 176 430 143V137Q430 73 380 33.5Q330 -6 240 -6Q184 -6 147 8.5Q110 23 88.5 46Q67 69 58.5 98Q50 127 50 156V160H70Q70 132 77.5 105.5Q85 79 104 59Q123 39 156 26.5Q189 14 240 14Z" glyph-name="scircumflex" horiz-adv-x="480" unicode="&#349;" /><glyph d="M260 -102Q260 -159 241.5 -182.5Q223 -206 185 -206V-188Q198 -188 208.5 -185Q219 -182 225.5 -173.5Q232 -165 236 -150Q240 -135 240 -110H220V-70H260ZM240 14Q319 14 364.5 47.5Q410 81 410 140Q410 174 399 196Q388 218 365.5 231.5Q343 245 309.5 251.5Q276 258 230 262Q177 267 143.5 278Q110 289 90 305.5Q70 322 62.5 343.5Q55 365 55 392V398Q55 460 103.5 498Q152 536 240 536Q292 536 327 523Q362 510 384 486.5Q406 463 415.5 431.5Q425 400 425 364V360H405Q405 396 397 424.5Q389 453 370 473.5Q351 494 319.5 505Q288 516 240 516Q164 516 119.5 484.5Q75 453 75 395Q75 368 82.5 348.5Q90 329 109.5 315Q129 301 163 292Q197 283 250 278Q300 273 334.5 264Q369 255 390 239.5Q411 224 420.5 200Q430 176 430 143V137Q430 73 380 33.5Q330 -6 240 -6Q184 -6 147 8.5Q110 23 88.5 46Q67 69 58.5 98Q50 127 50 156V160H70Q70 132 77.5 105.5Q85 79 104 59Q123 39 156 26.5Q189 14 240 14Z" glyph-name="scommaaccent" horiz-adv-x="480" unicode="&#537;" /><glyph d="M70 386Q70 351 81 329.5Q92 308 114.5 294.5Q137 281 170.5 274.5Q204 268 250 264H260Q339 264 384.5 297.5Q430 331 430 390Q430 424 419 446Q408 468 385.5 481.5Q363 495 329.5 501.5Q296 508 250 512H240Q161 512 115.5 478.5Q70 445 70 386ZM50 389Q50 441 83 476Q116 511 178 524Q117 540 96 569.5Q75 599 75 642V648Q75 710 123.5 748Q172 786 260 786Q312 786 347 773Q382 760 404 736.5Q426 713 435.5 681.5Q445 650 445 614V610H425Q425 646 417 674.5Q409 703 390 723.5Q371 744 339.5 755Q308 766 260 766Q184 766 139.5 734.5Q95 703 95 645Q95 618 102.5 598.5Q110 579 129.5 565Q149 551 183 542Q217 533 270 528Q320 523 354.5 514Q389 505 410 489.5Q431 474 440.5 450Q450 426 450 393V387Q450 335 416.5 299.5Q383 264 322 252Q382 236 403.5 206.5Q425 177 425 134V128Q425 66 376.5 28Q328 -10 240 -10Q188 -10 152.5 3Q117 16 95.5 39.5Q74 63 64.5 94.5Q55 126 55 162V166H75Q75 130 83 101.5Q91 73 110 52.5Q129 32 160.5 21Q192 10 240 10Q316 10 360.5 41.5Q405 73 405 131Q405 158 397.5 177.5Q390 197 370.5 211Q351 225 317 234Q283 243 230 248Q180 252 145.5 261.5Q111 271 90 286.5Q69 302 59.5 326Q50 350 50 383Z" glyph-name="section" horiz-adv-x="500" unicode="&#167;" /><glyph d="M110 8Q110 -49 86.5 -77Q63 -105 25 -105V-85Q52 -85 70.5 -67.5Q89 -50 90 0H70V40H110ZM110 370H70V410H110Z" glyph-name="semicolon" horiz-adv-x="180" unicode=";" /><glyph d="M170 8Q170 -49 146.5 -77Q123 -105 85 -105V-85Q112 -85 130.5 -67.5Q149 -50 150 0H130V40H170ZM170 370H130V410H170Z" glyph-name="semicolon.T" horiz-adv-x="300" unicode="&#61829;" /><glyph d="M98 663Q53 669 36.5 687.5Q20 706 20 730V734Q20 767 43 785.5Q66 804 102 804Q146 804 166 783Q186 762 186 715V710H170Q170 755 155.5 771.5Q141 788 104 788H100Q72 788 54 774.5Q36 761 36 736V732Q36 709 50.5 695.5Q65 682 107 676Q152 669 170 651Q188 633 188 604V600Q188 565 163 545.5Q138 526 100 526Q58 526 38 549.5Q18 573 18 613V616H34Q34 574 51.5 558Q69 542 98 542H102Q135 542 153.5 557Q172 572 172 599V602Q172 630 154 644Q136 658 98 663ZM247 754 249 681V530H233V800H247L334 552L421 800H435V530H419V681L421 754L342 530H326Z" glyph-name="servicemark" horiz-adv-x="460" unicode="&#8480;" /><glyph d="M70 780H540V765L223 0H201L517 761L400 760H90V500H70Z" glyph-name="seven" horiz-adv-x="600" unicode="7" /><glyph d="M32 190H272V177L119 -200H97L248 170H52V50H32Z" glyph-name="seven.inf" horiz-adv-x="300" unicode="&#58744;" /><glyph d="M537 0V20H645V362L543 292L532 309L655 392H665V20H772V0ZM32 780H272V767L119 390H97L248 760H52V640H32ZM100 0 676 780H700L124 0ZM953 225Q918 225 891.5 207.5Q865 190 851 162Q850 155 850 148Q850 141 850 135V130Q850 76 879.5 45.5Q909 15 951 15H954Q1001 15 1027.5 41Q1054 67 1054 116V124Q1054 172 1027.5 198.5Q1001 225 956 225ZM1057 375Q1019 375 976 358Q933 341 902 300Q883 276 872 250Q861 224 856 198Q873 219 898 232Q923 245 955 245Q1006 245 1040.5 215Q1075 185 1075 122V117Q1075 54 1040.5 24.5Q1006 -5 952 -5Q927 -5 904.5 3.5Q882 12 865.5 29Q849 46 839.5 71.5Q830 97 830 130V135Q830 182 841.5 226.5Q853 271 885 313Q901 334 922 349.5Q943 365 966 375Q989 385 1012.5 390Q1036 395 1057 395Z" glyph-name="sevensixteenths" horiz-adv-x="1100" unicode="&#61976;" /><glyph d="M307 466Q269 466 234 454Q199 442 170.5 421.5Q142 401 120.5 373Q99 345 87 313Q86 301 85.5 290Q85 279 85 268V252Q85 197 101.5 153Q118 109 147 78Q176 47 215.5 30.5Q255 14 302 14H308Q354 14 394 29.5Q434 45 463 73.5Q492 102 508.5 142Q525 182 525 232V248Q525 297 509.5 337.5Q494 378 465.5 406.5Q437 435 398 450.5Q359 466 313 466ZM510 767Q468 767 424.5 757Q381 747 339.5 726Q298 705 260 673.5Q222 642 191 599Q149 540 125 479Q101 418 92 358Q122 412 177 449Q232 486 310 486Q361 486 404 469.5Q447 453 478.5 422Q510 391 527.5 346Q545 301 545 245V235Q545 179 526.5 134Q508 89 475.5 58Q443 27 399.5 10.5Q356 -6 305 -6Q254 -6 210.5 11.5Q167 29 134.5 62.5Q102 96 83.5 144.5Q65 193 65 255V265Q65 353 89.5 440.5Q114 528 177 612Q242 699 329.5 742.5Q417 786 510 786Z" glyph-name="six" horiz-adv-x="600" unicode="6" /><glyph d="M153 25Q118 25 91.5 8Q65 -9 51 -37Q50 -45 50 -51.5Q50 -58 50 -65V-70Q50 -124 79.5 -154.5Q109 -185 151 -185H154Q201 -185 227.5 -159Q254 -133 254 -84V-76Q254 -28 227.5 -1.5Q201 25 156 25ZM257 175Q219 175 176 158Q133 141 102 100Q83 76 72 50Q61 24 56 -2Q73 19 98 32Q123 45 155 45Q206 45 240.5 15Q275 -15 275 -78V-83Q275 -146 240.5 -175.5Q206 -205 152 -205Q127 -205 104.5 -196.5Q82 -188 65.5 -171Q49 -154 39.5 -128.5Q30 -103 30 -70V-65Q30 -18 41.5 26.5Q53 71 85 113Q101 134 122 149.5Q143 165 166 175Q189 185 212.5 190Q236 195 257 195Z" glyph-name="six.inf" horiz-adv-x="300" unicode="&#58743;" /><glyph glyph-name="sixperemspace" horiz-adv-x="167" unicode="&#8198;" /><glyph d="M45 -120H25L255 840H275Z" glyph-name="slash" horiz-adv-x="300" unicode="/" /><glyph d="M44 0 236 780H256L64 0Z" glyph-name="slash.cap" horiz-adv-x="300" unicode="&#58465;" /><glyph glyph-name="space" horiz-adv-x="180" unicode=" " /><glyph d="M451 790Q463 771 486 742.5Q509 714 540 682Q571 650 607.5 618Q644 586 684 560Q717 539 746.5 515.5Q776 492 798.5 464.5Q821 437 834.5 405Q848 373 848 334Q848 297 834.5 265.5Q821 234 797 210.5Q773 187 741 173.5Q709 160 672 160Q635 160 604 173.5Q573 187 548 209.5Q523 232 504 261Q485 290 472 321L469 320Q473 269 479.5 227Q486 185 495.5 147Q505 109 518.5 73Q532 37 551 0H349Q368 37 381.5 73Q395 109 404.5 147Q414 185 420.5 227Q427 269 431 320L428 321Q415 290 396 261Q377 232 352 209.5Q327 187 296 173.5Q265 160 228 160Q191 160 159 173.5Q127 187 103 210.5Q79 234 65.5 265.5Q52 297 52 334Q52 373 65.5 405Q79 437 101.5 464.5Q124 492 153.5 515.5Q183 539 216 560Q256 586 292.5 618Q329 650 360 682Q391 714 414 742.5Q437 771 449 790Z" glyph-name="spade" horiz-adv-x="900" unicode="&#9824;" /><glyph d="M220 645 460 405 700 645 715 630 475 390 715 150 700 135 460 375 220 135 205 150 445 390 205 630ZM90 760V20H830V760ZM70 0V780H850V0Z" glyph-name="squaremultiply" horiz-adv-x="920" unicode="&#8864;" /><glyph d="M60 400H158Q146 448 138 493Q130 538 130 582Q130 618 142.5 654.5Q155 691 180 720Q205 749 242.5 767.5Q280 786 330 786Q379 786 418 766.5Q457 747 484 711Q511 675 525.5 623.5Q540 572 540 507V500H520Q520 628 470.5 697Q421 766 330 766Q284 766 250.5 749Q217 732 194.5 705Q172 678 161 644Q150 610 150 575Q150 536 158.5 492Q167 448 180 400H400V380H185Q197 338 209.5 293.5Q222 249 232.5 203Q243 157 250 111Q257 65 257 20H540V0H60V20H237Q235 67 227.5 113.5Q220 160 209.5 205Q199 250 186.5 294Q174 338 163 380H60Z" glyph-name="sterling" horiz-adv-x="600" unicode="&#163;" /><glyph d="M320 530V510H135V135Q135 98 143.5 74.5Q152 51 167 37.5Q182 24 203 19Q224 14 250 14Q269 14 286.5 17.5Q304 21 310 24V4Q306 2 290 -2Q274 -6 246 -6Q220 -6 196 0Q172 6 154 21Q136 36 125.5 62Q115 88 115 129V510H30V530H115V680H135V530Z" glyph-name="t" horiz-adv-x="360" unicode="t" /><glyph d="M30 275H115V510H30V530H115V680H135V530H320V510H135V275H280V255H135V135Q135 98 143.5 74.5Q152 51 167 37.5Q182 24 203 19Q224 14 250 14Q269 14 286.5 17.5Q304 21 310 24V4Q306 2 290 -2Q274 -6 246 -6Q220 -6 196 0Q172 6 154 21Q136 36 125.5 62Q115 88 115 129V255H30Z" glyph-name="tbar" horiz-adv-x="360" unicode="&#359;" /><glyph d="M246 800 235 620H225V800ZM320 530V510H135V135Q135 98 143.5 74.5Q152 51 167 37.5Q182 24 203 19Q224 14 250 14Q269 14 286.5 17.5Q304 21 310 24V4Q306 2 290 -2Q274 -6 246 -6Q220 -6 196 0Q172 6 154 21Q136 36 125.5 62Q115 88 115 129V510H30V530H115V680H135V530Z" glyph-name="tcaron" horiz-adv-x="360" unicode="&#357;" /><glyph d="M230 -102Q230 -159 211.5 -182.5Q193 -206 155 -206V-188Q168 -188 178.5 -185Q189 -182 195.5 -173.5Q202 -165 206 -150Q210 -135 210 -110H190V-70H230ZM320 530V510H135V135Q135 98 143.5 74.5Q152 51 167 37.5Q182 24 203 19Q224 14 250 14Q269 14 286.5 17.5Q304 21 310 24V4Q306 2 290 -2Q274 -6 246 -6Q220 -6 196 0Q172 6 154 21Q136 36 125.5 62Q115 88 115 129V510H30V530H115V680H135V530Z" glyph-name="tcommaaccent" horiz-adv-x="360" unicode="&#355;" /><glyph d="M145 755H105V795H145ZM320 530V510H135V135Q135 98 143.5 74.5Q152 51 167 37.5Q182 24 203 19Q224 14 250 14Q269 14 286.5 17.5Q304 21 310 24V4Q306 2 290 -2Q274 -6 246 -6Q220 -6 196 0Q172 6 154 21Q136 36 125.5 62Q115 88 115 129V510H30V530H115V680H135V530Z" glyph-name="tdotaccent" horiz-adv-x="360" unicode="&#7787;" /><glyph glyph-name="thinspace" horiz-adv-x="150" unicode="&#8201;" /><glyph d="M837 0V20H945V362L843 292L832 309L955 392H965V20H1072V0ZM37 390V410H145V752L43 682L32 699L155 782H165V410H272V390ZM400 0 976 780H1000L424 0ZM452 404Q491 404 521 424Q551 444 551 487V495Q551 538 524 558.5Q497 579 458 579H400V598H456Q494 598 521.5 616.5Q549 635 549 676V680Q549 719 523 742.5Q497 766 452 766H447Q397 766 373.5 739Q350 712 350 650H330V662Q330 720 358.5 752.5Q387 785 450 785Q505 785 537.5 758Q570 731 570 682V675Q570 639 550.5 617.5Q531 596 499 588Q532 580 552 557Q572 534 572 496V488Q572 463 562 444Q552 425 535.5 412Q519 399 497 392Q475 385 450 385Q386 385 356.5 419Q327 453 327 510V515H347Q347 458 373 431Q399 404 447 404ZM1253 225Q1218 225 1191.5 207.5Q1165 190 1151 162Q1150 155 1150 148Q1150 141 1150 135V130Q1150 76 1179.5 45.5Q1209 15 1251 15H1254Q1301 15 1327.5 41Q1354 67 1354 116V124Q1354 172 1327.5 198.5Q1301 225 1256 225ZM1357 375Q1319 375 1276 358Q1233 341 1202 300Q1183 276 1172 250Q1161 224 1156 198Q1173 219 1198 232Q1223 245 1255 245Q1306 245 1340.5 215Q1375 185 1375 122V117Q1375 54 1340.5 24.5Q1306 -5 1252 -5Q1227 -5 1204.5 3.5Q1182 12 1165.5 29Q1149 46 1139.5 71.5Q1130 97 1130 130V135Q1130 182 1141.5 226.5Q1153 271 1185 313Q1201 334 1222 349.5Q1243 365 1266 375Q1289 385 1312.5 390Q1336 395 1357 395Z" glyph-name="thirteensixteenths" horiz-adv-x="1400" unicode="&#61985;" /><glyph d="M70 800H90V455Q100 468 114.5 482.5Q129 497 149 509Q169 521 194.5 528.5Q220 536 252 536Q353 536 404 466.5Q455 397 455 275V255Q455 133 404 63.5Q353 -6 252 -6Q220 -6 194.5 1.5Q169 9 149 21Q129 33 114.5 47.5Q100 62 90 75V-200H70ZM90 107Q100 92 114.5 75.5Q129 59 149 45.5Q169 32 194.5 23Q220 14 252 14Q343 14 389 79Q435 144 435 255V275Q435 386 389 451Q343 516 252 516Q220 516 194.5 507Q169 498 149 484.5Q129 471 114.5 454.5Q100 438 90 423Z" glyph-name="thorn" horiz-adv-x="510" unicode="&#254;" /><glyph d="M513 597Q513 636 496 667Q479 698 450 720Q421 742 382.5 754Q344 766 302 766H296Q190 766 137.5 708.5Q85 651 85 520H65V545Q65 657 121.5 721.5Q178 786 300 786Q349 786 391.5 773Q434 760 466 735Q498 710 516.5 674Q535 638 535 592V582Q535 507 496 460Q457 413 389 398Q460 383 500 335.5Q540 288 540 205V195Q540 144 521.5 106.5Q503 69 470.5 44Q438 19 394.5 6.5Q351 -6 300 -6Q240 -6 195 12Q150 30 120 62.5Q90 95 75 140Q60 185 60 240V250H80Q80 132 136.5 73Q193 14 297 14H303Q349 14 389 25.5Q429 37 458 59.5Q487 82 503.5 115Q520 148 520 192V207Q520 295 468.5 341.5Q417 388 323 388H200V408H323Q365 408 400 420Q435 432 460 454Q485 476 499 507Q513 538 513 577Z" glyph-name="three" horiz-adv-x="600" unicode="3" /><glyph d="M152 -186Q191 -186 221 -166Q251 -146 251 -103V-95Q251 -52 224 -31.5Q197 -11 158 -11H100V8H156Q194 8 221.5 26.5Q249 45 249 86V90Q249 129 223 152.5Q197 176 152 176H147Q97 176 73.5 149Q50 122 50 60H30V72Q30 130 58.5 162.5Q87 195 150 195Q205 195 237.5 168Q270 141 270 92V85Q270 49 250.5 28Q231 7 199 -1Q232 -10 252 -33Q272 -56 272 -94V-102Q272 -127 262 -146Q252 -165 235.5 -178Q219 -191 197 -198Q175 -205 150 -205Q86 -205 56.5 -171Q27 -137 27 -80V-75H47Q47 -132 73 -159Q99 -186 147 -186Z" glyph-name="three.inf" horiz-adv-x="300" unicode="&#58740;" /><glyph glyph-name="threeperemspace" horiz-adv-x="333" unicode="&#8196;" /><glyph d="M50 350H700V330H50Z" glyph-name="threequarteremdash" horiz-adv-x="750" unicode="&#58482;" /><glyph d="M50 400H700V380H50Z" glyph-name="threequarteremdash.cap" horiz-adv-x="750" unicode="&#58501;" /><glyph d="M546 129 595 130H690V354ZM100 0 676 780H700L124 0ZM152 404Q191 404 221 424Q251 444 251 487V495Q251 538 224 558.5Q197 579 158 579H100V598H156Q194 598 221.5 616.5Q249 635 249 676V680Q249 719 223 742.5Q197 766 152 766H147Q97 766 73.5 739Q50 712 50 650H30V662Q30 720 58.5 752.5Q87 785 150 785Q205 785 237.5 758Q270 731 270 682V675Q270 639 250.5 617.5Q231 596 199 588Q232 580 252 557Q272 534 272 496V488Q272 463 262 444Q252 425 235.5 412Q219 399 197 392Q175 385 150 385Q86 385 56.5 419Q27 453 27 510V515H47Q47 458 73 431Q99 404 147 404ZM690 0V110H517V122L690 390H710V130H782V110H710V0Z" glyph-name="threequarters" horiz-adv-x="800" unicode="&#190;" /><glyph d="M537 0V20H645V362L543 292L532 309L655 392H665V20H772V0ZM100 0 676 780H700L124 0ZM152 404Q191 404 221 424Q251 444 251 487V495Q251 538 224 558.5Q197 579 158 579H100V598H156Q194 598 221.5 616.5Q249 635 249 676V680Q249 719 223 742.5Q197 766 152 766H147Q97 766 73.5 739Q50 712 50 650H30V662Q30 720 58.5 752.5Q87 785 150 785Q205 785 237.5 758Q270 731 270 682V675Q270 639 250.5 617.5Q231 596 199 588Q232 580 252 557Q272 534 272 496V488Q272 463 262 444Q252 425 235.5 412Q219 399 197 392Q175 385 150 385Q86 385 56.5 419Q27 453 27 510V515H47Q47 458 73 431Q99 404 147 404ZM953 225Q918 225 891.5 207.5Q865 190 851 162Q850 155 850 148Q850 141 850 135V130Q850 76 879.5 45.5Q909 15 951 15H954Q1001 15 1027.5 41Q1054 67 1054 116V124Q1054 172 1027.5 198.5Q1001 225 956 225ZM1057 375Q1019 375 976 358Q933 341 902 300Q883 276 872 250Q861 224 856 198Q873 219 898 232Q923 245 955 245Q1006 245 1040.5 215Q1075 185 1075 122V117Q1075 54 1040.5 24.5Q1006 -5 952 -5Q927 -5 904.5 3.5Q882 12 865.5 29Q849 46 839.5 71.5Q830 97 830 130V135Q830 182 841.5 226.5Q853 271 885 313Q901 334 922 349.5Q943 365 966 375Q989 385 1012.5 390Q1036 395 1057 395Z" glyph-name="threesixteenths" horiz-adv-x="1100" unicode="&#61974;" /><glyph d="M152 404Q191 404 221 424Q251 444 251 487V495Q251 538 224 558.5Q197 579 158 579H100V598H156Q194 598 221.5 616.5Q249 635 249 676V680Q249 719 223 742.5Q197 766 152 766H147Q97 766 73.5 739Q50 712 50 650H30V662Q30 720 58.5 752.5Q87 785 150 785Q205 785 237.5 758Q270 731 270 682V675Q270 639 250.5 617.5Q231 596 199 588Q232 580 252 557Q272 534 272 496V488Q272 463 262 444Q252 425 235.5 412Q219 399 197 392Q175 385 150 385Q86 385 56.5 419Q27 453 27 510V515H47Q47 458 73 431Q99 404 147 404Z" glyph-name="threesuperior" horiz-adv-x="300" unicode="&#179;" /><glyph d="M385 732Q385 712 380 698.5Q375 685 366.5 677Q358 669 347 665.5Q336 662 325 662Q305 662 286 671Q267 680 249 691Q231 702 213.5 711Q196 720 178 720Q161 720 147 711Q133 702 133 668H115Q115 708 133.5 723Q152 738 175 738Q195 738 214 729Q233 720 251 709Q269 698 286.5 689Q304 680 322 680Q339 680 353 689Q367 698 367 732Z" glyph-name="tilde" horiz-adv-x="500" unicode="&#732;" /><glyph d="M385 927Q385 907 380 893.5Q375 880 366.5 872Q358 864 347 860.5Q336 857 325 857Q305 857 286 866Q267 875 249 886Q231 897 213.5 906Q196 915 178 915Q161 915 147 906Q133 897 133 863H115Q115 903 133.5 918Q152 933 175 933Q195 933 214 924Q233 915 251 904Q269 893 286.5 884Q304 875 322 875Q339 875 353 884Q367 893 367 927Z" glyph-name="tilde.cap" horiz-adv-x="500" unicode="&#58404;" /><glyph d="M115 530H99V784H20V800H194V784H115ZM247 754 249 681V530H233V800H247L334 552L421 800H435V530H419V681L421 754L342 530H326Z" glyph-name="trademark" horiz-adv-x="460" unicode="&#8482;" /><glyph d="M69 780H91L465 17L839 780H861L475 -6H455Z" glyph-name="triagdn" horiz-adv-x="930" unicode="&#9660;" /><glyph d="M850 786V764L87 390L850 16V-6L64 380V400Z" glyph-name="triaglf" horiz-adv-x="930" unicode="&#9668;" /><glyph d="M866 380 80 -6V16L843 390L80 764V786L866 400Z" glyph-name="triagrt" horiz-adv-x="930" unicode="&#9658;" /><glyph d="M861 0H839L465 763L91 0H69L455 786H475Z" glyph-name="triagup" horiz-adv-x="930" unicode="&#9650;" /><glyph d="M200 780 195 530H185L180 780ZM300 780 295 530H285L280 780ZM100 780 95 530H85L80 780Z" glyph-name="tripleprime" horiz-adv-x="380" unicode="&#8244;" /><glyph d="M535 20V0H65V15L414 381Q441 409 460 432.5Q479 456 491.5 478.5Q504 501 509.5 525Q515 549 515 580V590Q515 631 498 664Q481 697 452 719.5Q423 742 384.5 754Q346 766 304 766H296Q235 766 194.5 750Q154 734 129.5 702.5Q105 671 95 625.5Q85 580 85 520H65V545Q65 661 120 723.5Q175 786 300 786Q349 786 391.5 772.5Q434 759 466 733.5Q498 708 516.5 672Q535 636 535 590V580Q535 548 529.5 523Q524 498 511.5 474Q499 450 478.5 424.5Q458 399 427 367L95 19L205 20Z" glyph-name="two" horiz-adv-x="600" unicode="2" /><glyph d="M265 -180V-200H30V-188L205 -4Q231 23 240 42.5Q249 62 249 85V90Q249 129 222.5 152.5Q196 176 151 176H148Q98 176 74 149Q50 122 50 60H30V72Q30 130 58.5 162.5Q87 195 150 195Q205 195 237.5 168Q270 141 270 92V87Q270 73 268 61Q266 49 261 37.5Q256 26 247 14Q238 2 224 -13L64 -181L102 -180Z" glyph-name="two.inf" horiz-adv-x="300" unicode="&#58739;" /><glyph d="M265 410V390H30V402L205 586Q231 613 240 632.5Q249 652 249 675V680Q249 719 222.5 742.5Q196 766 151 766H148Q98 766 74 739Q50 712 50 650H30V662Q30 720 58.5 752.5Q87 785 150 785Q205 785 237.5 758Q270 731 270 682V677Q270 663 268 651Q266 639 261 627.5Q256 616 247 604Q238 592 224 577L64 409L102 410Z" glyph-name="twosuperior" horiz-adv-x="300" unicode="&#178;" /><glyph d="M80 530V155Q80 76 116 45Q152 14 221 14Q257 14 285.5 22.5Q314 31 336 44.5Q358 58 374 74.5Q390 91 400 107V530H420V120L425 0H410L402 81Q391 65 374.5 49.5Q358 34 335.5 21.5Q313 9 284 1.5Q255 -6 219 -6Q141 -6 100.5 31.5Q60 69 60 150V530Z" glyph-name="u" horiz-adv-x="490" unicode="u" /><glyph d="M341 780 251 620H229L319 780ZM80 530V155Q80 76 116 45Q152 14 221 14Q257 14 285.5 22.5Q314 31 336 44.5Q358 58 374 74.5Q390 91 400 107V530H420V120L425 0H410L402 81Q391 65 374.5 49.5Q358 34 335.5 21.5Q313 9 284 1.5Q255 -6 219 -6Q141 -6 100.5 31.5Q60 69 60 150V530Z" glyph-name="uacute" horiz-adv-x="490" unicode="&#250;" /><glyph d="M240 614Q202 614 174 627.5Q146 641 127.5 663.5Q109 686 99.5 716Q90 746 90 780H108Q108 750 116 723Q124 696 140 676Q156 656 181 644Q206 632 240 632Q274 632 299 644Q324 656 340 676Q356 696 364 723Q372 750 372 780H390Q390 746 380.5 716Q371 686 352.5 663.5Q334 641 305.5 627.5Q277 614 240 614ZM80 530V155Q80 76 116 45Q152 14 221 14Q257 14 285.5 22.5Q314 31 336 44.5Q358 58 374 74.5Q390 91 400 107V530H420V120L425 0H410L402 81Q391 65 374.5 49.5Q358 34 335.5 21.5Q313 9 284 1.5Q255 -6 219 -6Q141 -6 100.5 31.5Q60 69 60 150V530Z" glyph-name="ubreve" horiz-adv-x="490" unicode="&#365;" /><glyph d="M105 620 230 780H250L375 620H350L240 762L130 620ZM80 530V155Q80 76 116 45Q152 14 221 14Q257 14 285.5 22.5Q314 31 336 44.5Q358 58 374 74.5Q390 91 400 107V530H420V120L425 0H410L402 81Q391 65 374.5 49.5Q358 34 335.5 21.5Q313 9 284 1.5Q255 -6 219 -6Q141 -6 100.5 31.5Q60 69 60 150V530Z" glyph-name="ucircumflex" horiz-adv-x="490" unicode="&#251;" /><glyph d="M190 680H150V720H190ZM330 680H290V720H330ZM80 530V155Q80 76 116 45Q152 14 221 14Q257 14 285.5 22.5Q314 31 336 44.5Q358 58 374 74.5Q390 91 400 107V530H420V120L425 0H410L402 81Q391 65 374.5 49.5Q358 34 335.5 21.5Q313 9 284 1.5Q255 -6 219 -6Q141 -6 100.5 31.5Q60 69 60 150V530Z" glyph-name="udieresis" horiz-adv-x="490" unicode="&#252;" /><glyph d="M161 780 251 620H229L139 780ZM80 530V155Q80 76 116 45Q152 14 221 14Q257 14 285.5 22.5Q314 31 336 44.5Q358 58 374 74.5Q390 91 400 107V530H420V120L425 0H410L402 81Q391 65 374.5 49.5Q358 34 335.5 21.5Q313 9 284 1.5Q255 -6 219 -6Q141 -6 100.5 31.5Q60 69 60 150V530Z" glyph-name="ugrave" horiz-adv-x="490" unicode="&#249;" /><glyph d="M391 780 301 620H279L369 780ZM291 780 201 620H179L269 780ZM80 530V155Q80 76 116 45Q152 14 221 14Q257 14 285.5 22.5Q314 31 336 44.5Q358 58 374 74.5Q390 91 400 107V530H420V120L425 0H410L402 81Q391 65 374.5 49.5Q358 34 335.5 21.5Q313 9 284 1.5Q255 -6 219 -6Q141 -6 100.5 31.5Q60 69 60 150V530Z" glyph-name="uhungarumlaut" horiz-adv-x="490" unicode="&#369;" /><glyph d="M140 710H340V690H140ZM80 530V155Q80 76 116 45Q152 14 221 14Q257 14 285.5 22.5Q314 31 336 44.5Q358 58 374 74.5Q390 91 400 107V530H420V120L425 0H410L402 81Q391 65 374.5 49.5Q358 34 335.5 21.5Q313 9 284 1.5Q255 -6 219 -6Q141 -6 100.5 31.5Q60 69 60 150V530Z" glyph-name="umacron" horiz-adv-x="490" unicode="&#363;" /><glyph d="M50 -90H270V-110H50Z" glyph-name="underscore" horiz-adv-x="320" unicode="_" /><glyph d="M50 -90H550V-110H50Z" glyph-name="underscoremonospace" horiz-adv-x="600" unicode="&#65343;" /><glyph d="M50 350H270V330H50Z" glyph-name="uni00AD" horiz-adv-x="320" unicode="&#173;" /><glyph d="M50 350H1150V330H50Z" glyph-name="uni2015" horiz-adv-x="1200" unicode="&#8213;" /><glyph d="M50 400H1150V380H50Z" glyph-name="uni2015.cap" horiz-adv-x="1200" unicode="&#58504;" /><glyph d="M245 662Q245 709 224.5 737.5Q204 766 151 766H148Q95 766 75 737.5Q55 709 55 662V507Q55 460 75 432Q95 404 148 404H151Q204 404 224.5 432Q245 460 245 507ZM266 502Q266 452 240 418.5Q214 385 150 385Q86 385 60 418.5Q34 452 34 502V667Q34 718 60 751.5Q86 785 150 785Q214 785 240 751.5Q266 718 266 667Z" glyph-name="uni2070" horiz-adv-x="300" unicode="&#8304;" /><glyph d="M46 519 95 520H190V744ZM190 390V500H17V512L190 780H210V520H282V500H210V390Z" glyph-name="uni2074" horiz-adv-x="300" unicode="&#8308;" /><glyph d="M30 559 40 780H267V760H59L52 593Q85 635 150 635Q175 635 197 627.5Q219 620 235.5 604.5Q252 589 262 566Q272 543 272 512V507Q272 477 262 454Q252 431 235.5 415.5Q219 400 197 392.5Q175 385 150 385Q86 385 56.5 419Q27 453 27 510V515H47Q47 458 73 431Q99 404 147 404H152Q191 404 221 428Q251 452 251 505V515Q251 567 221 591.5Q191 616 152 616H147Q116 616 87.5 601Q59 586 47 555Z" glyph-name="uni2075" horiz-adv-x="300" unicode="&#8309;" /><glyph d="M153 615Q118 615 91.5 597.5Q65 580 51 552Q50 545 50 538Q50 531 50 525V520Q50 466 79.5 435.5Q109 405 151 405H154Q201 405 227.5 431Q254 457 254 506V514Q254 562 227.5 588.5Q201 615 156 615ZM257 765Q219 765 176 748Q133 731 102 690Q83 666 72 640Q61 614 56 588Q73 609 98 622Q123 635 155 635Q206 635 240.5 605Q275 575 275 512V507Q275 444 240.5 414.5Q206 385 152 385Q127 385 104.5 393.5Q82 402 65.5 419Q49 436 39.5 461.5Q30 487 30 520V525Q30 572 41.5 616.5Q53 661 85 703Q101 724 122 739.5Q143 755 166 765Q189 775 212.5 780Q236 785 257 785Z" glyph-name="uni2076" horiz-adv-x="300" unicode="&#8310;" /><glyph d="M32 780H272V767L119 390H97L248 760H52V640H32Z" glyph-name="uni2077" horiz-adv-x="300" unicode="&#8311;" /><glyph d="M147 766Q103 766 77 743.5Q51 721 51 681V678Q51 636 78 617Q105 598 144 598H156Q194 598 221.5 617Q249 636 249 678V681Q249 721 223 743.5Q197 766 152 766ZM141 579Q103 579 75.5 557.5Q48 536 48 493V486Q48 465 56.5 449.5Q65 434 78.5 424Q92 414 110 409Q128 404 147 404H152Q191 404 221 423.5Q251 443 251 486V493Q251 536 224 557.5Q197 579 158 579ZM150 385Q125 385 102.5 391.5Q80 398 63.5 411Q47 424 37 443Q27 462 27 487V494Q27 532 47 555.5Q67 579 100 588Q68 597 49 619Q30 641 30 677V684Q30 733 62 759Q94 785 150 785Q205 785 237.5 759Q270 733 270 684V677Q270 641 250.5 619Q231 597 199 588Q232 579 252 555.5Q272 532 272 494V487Q272 462 262 443Q252 424 235.5 411Q219 398 197 391.5Q175 385 150 385Z" glyph-name="uni2078" horiz-adv-x="300" unicode="&#8312;" /><glyph d="M146 555Q181 555 208 572.5Q235 590 249 619Q249 626 249.5 632.5Q250 639 250 645V650Q250 704 220.5 734.5Q191 765 149 765H146Q99 765 72.5 738.5Q46 712 46 664V656Q46 607 72 581Q98 555 143 555ZM42 405Q61 405 82 409Q103 413 123.5 422Q144 431 163.5 445Q183 459 198 480Q216 503 227 529.5Q238 556 243 582Q226 560 201.5 547.5Q177 535 145 535Q94 535 59.5 564.5Q25 594 25 657V662Q25 725 59.5 755Q94 785 147 785Q198 785 234 750.5Q270 716 270 650V645Q270 598 258 553.5Q246 509 215 467Q199 445 178 429.5Q157 414 134 404Q111 394 87.5 389.5Q64 385 42 385Z" glyph-name="uni2079" horiz-adv-x="300" unicode="&#8313;" /><glyph d="M160 710V595H275V575H160V460H140V575H25V595H140V710Z" glyph-name="uni207A" horiz-adv-x="300" unicode="&#8314;" /><glyph d="M25 595H275V575H25Z" glyph-name="uni207B" horiz-adv-x="300" unicode="&#8315;" /><glyph d="M25 545H275V525H25ZM25 645H275V625H25Z" glyph-name="uni207C" horiz-adv-x="300" unicode="&#8316;" /><glyph d="M32 590Q32 645 50 693Q68 741 94 780H116Q89 742 70.5 693Q52 644 52 590V580Q52 526 70.5 477Q89 428 116 390H94Q68 428 50 476Q32 524 32 580Z" glyph-name="uni207D" horiz-adv-x="150" unicode="&#8317;" /><glyph d="M117 580Q117 524 99.5 476Q82 428 56 390H34Q60 428 78.5 477Q97 526 97 580V590Q97 644 78.5 693Q60 742 34 780H56Q82 741 99.5 693Q117 645 117 590Z" glyph-name="uni207E" horiz-adv-x="150" unicode="&#8318;" /><glyph d="M245 272Q245 319 224.5 347.5Q204 376 151 376H148Q95 376 75 347.5Q55 319 55 272V117Q55 70 75 42Q95 14 148 14H151Q204 14 224.5 42Q245 70 245 117ZM266 112Q266 62 240 28.5Q214 -5 150 -5Q86 -5 60 28.5Q34 62 34 112V277Q34 328 60 361.5Q86 395 150 395Q214 395 240 361.5Q266 328 266 277Z" glyph-name="uni2080" horiz-adv-x="300" unicode="&#8320;" /><glyph d="M37 0V20H145V362L43 292L32 309L155 392H165V20H272V0Z" glyph-name="uni2081" horiz-adv-x="300" unicode="&#8321;" /><glyph d="M265 20V0H30V12L205 196Q231 223 240 242.5Q249 262 249 285V290Q249 329 222.5 352.5Q196 376 151 376H148Q98 376 74 349Q50 322 50 260H30V272Q30 330 58.5 362.5Q87 395 150 395Q205 395 237.5 368Q270 341 270 292V287Q270 273 268 261Q266 249 261 237.5Q256 226 247 214Q238 202 224 187L64 19L102 20Z" glyph-name="uni2082" horiz-adv-x="300" unicode="&#8322;" /><glyph d="M152 14Q191 14 221 34Q251 54 251 97V105Q251 148 224 168.5Q197 189 158 189H100V208H156Q194 208 221.5 226.5Q249 245 249 286V290Q249 329 223 352.5Q197 376 152 376H147Q97 376 73.5 349Q50 322 50 260H30V272Q30 330 58.5 362.5Q87 395 150 395Q205 395 237.5 368Q270 341 270 292V285Q270 249 250.5 227.5Q231 206 199 198Q232 190 252 167Q272 144 272 106V98Q272 73 262 54Q252 35 235.5 22Q219 9 197 2Q175 -5 150 -5Q86 -5 56.5 29Q27 63 27 120V125H47Q47 68 73 41Q99 14 147 14Z" glyph-name="uni2083" horiz-adv-x="300" unicode="&#8323;" /><glyph d="M46 129 95 130H190V354ZM190 0V110H17V122L190 390H210V130H282V110H210V0Z" glyph-name="uni2084" horiz-adv-x="300" unicode="&#8324;" /><glyph d="M30 169 40 390H267V370H59L52 203Q85 245 150 245Q175 245 197 237.5Q219 230 235.5 214.5Q252 199 262 176Q272 153 272 122V117Q272 87 262 64Q252 41 235.5 25.5Q219 10 197 2.5Q175 -5 150 -5Q86 -5 56.5 29Q27 63 27 120V125H47Q47 68 73 41Q99 14 147 14H152Q191 14 221 38Q251 62 251 115V125Q251 177 221 201.5Q191 226 152 226H147Q116 226 87.5 211Q59 196 47 165Z" glyph-name="uni2085" horiz-adv-x="300" unicode="&#8325;" /><glyph d="M153 225Q118 225 91.5 207.5Q65 190 51 162Q50 155 50 148Q50 141 50 135V130Q50 76 79.5 45.5Q109 15 151 15H154Q201 15 227.5 41Q254 67 254 116V124Q254 172 227.5 198.5Q201 225 156 225ZM257 375Q219 375 176 358Q133 341 102 300Q83 276 72 250Q61 224 56 198Q73 219 98 232Q123 245 155 245Q206 245 240.5 215Q275 185 275 122V117Q275 54 240.5 24.5Q206 -5 152 -5Q127 -5 104.5 3.5Q82 12 65.5 29Q49 46 39.5 71.5Q30 97 30 130V135Q30 182 41.5 226.5Q53 271 85 313Q101 334 122 349.5Q143 365 166 375Q189 385 212.5 390Q236 395 257 395Z" glyph-name="uni2086" horiz-adv-x="300" unicode="&#8326;" /><glyph d="M32 390H272V377L119 0H97L248 370H52V250H32Z" glyph-name="uni2087" horiz-adv-x="300" unicode="&#8327;" /><glyph d="M147 376Q103 376 77 353.5Q51 331 51 291V288Q51 246 78 227Q105 208 144 208H156Q194 208 221.5 227Q249 246 249 288V291Q249 331 223 353.5Q197 376 152 376ZM141 189Q103 189 75.5 167.5Q48 146 48 103V96Q48 75 56.5 59.5Q65 44 78.5 34Q92 24 110 19Q128 14 147 14H152Q191 14 221 33.5Q251 53 251 96V103Q251 146 224 167.5Q197 189 158 189ZM150 -5Q125 -5 102.5 1.5Q80 8 63.5 21Q47 34 37 53Q27 72 27 97V104Q27 142 47 165.5Q67 189 100 198Q68 207 49 229Q30 251 30 287V294Q30 343 62 369Q94 395 150 395Q205 395 237.5 369Q270 343 270 294V287Q270 251 250.5 229Q231 207 199 198Q232 189 252 165.5Q272 142 272 104V97Q272 72 262 53Q252 34 235.5 21Q219 8 197 1.5Q175 -5 150 -5Z" glyph-name="uni2088" horiz-adv-x="300" unicode="&#8328;" /><glyph d="M146 165Q181 165 208 182.5Q235 200 249 229Q249 236 249.5 242.5Q250 249 250 255V260Q250 314 220.5 344.5Q191 375 149 375H146Q99 375 72.5 348.5Q46 322 46 274V266Q46 217 72 191Q98 165 143 165ZM42 15Q61 15 82 19Q103 23 123.5 32Q144 41 163.5 55Q183 69 198 90Q216 113 227 139.5Q238 166 243 192Q226 170 201.5 157.5Q177 145 145 145Q94 145 59.5 174.5Q25 204 25 267V272Q25 335 59.5 365Q94 395 147 395Q198 395 234 360.5Q270 326 270 260V255Q270 208 258 163.5Q246 119 215 77Q199 55 178 39.5Q157 24 134 14Q111 4 87.5 -0.5Q64 -5 42 -5Z" glyph-name="uni2089" horiz-adv-x="300" unicode="&#8329;" /><glyph d="M160 320V205H275V185H160V70H140V185H25V205H140V320Z" glyph-name="uni208A" horiz-adv-x="300" unicode="&#8330;" /><glyph d="M25 205H275V185H25Z" glyph-name="uni208B" horiz-adv-x="300" unicode="&#8331;" /><glyph d="M25 155H275V135H25ZM25 255H275V235H25Z" glyph-name="uni208C" horiz-adv-x="300" unicode="&#8332;" /><glyph d="M32 200Q32 255 50 303Q68 351 94 390H116Q89 352 70.5 303Q52 254 52 200V190Q52 136 70.5 87Q89 38 116 0H94Q68 38 50 86Q32 134 32 190Z" glyph-name="uni208D" horiz-adv-x="150" unicode="&#8333;" /><glyph d="M117 190Q117 134 99.5 86Q82 38 56 0H34Q60 38 78.5 87Q97 136 97 190V200Q97 254 78.5 303Q60 352 34 390H56Q82 351 99.5 303Q117 255 117 200Z" glyph-name="uni208E" horiz-adv-x="150" unicode="&#8334;" /><glyph d="M37 390V410H145V752L43 682L32 699L155 782H165V410H272V390ZM100 0 676 780H700L124 0ZM652 14Q691 14 721 34Q751 54 751 97V105Q751 148 724 168.5Q697 189 658 189H600V208H656Q694 208 721.5 226.5Q749 245 749 286V290Q749 329 723 352.5Q697 376 652 376H647Q597 376 573.5 349Q550 322 550 260H530V272Q530 330 558.5 362.5Q587 395 650 395Q705 395 737.5 368Q770 341 770 292V285Q770 249 750.5 227.5Q731 206 699 198Q732 190 752 167Q772 144 772 106V98Q772 73 762 54Q752 35 735.5 22Q719 9 697 2Q675 -5 650 -5Q586 -5 556.5 29Q527 63 527 120V125H547Q547 68 573 41Q599 14 647 14Z" glyph-name="uni2153" horiz-adv-x="800" unicode="&#8531;" /><glyph d="M100 0 676 780H700L124 0ZM265 410V390H30V402L205 586Q231 613 240 632.5Q249 652 249 675V680Q249 719 222.5 742.5Q196 766 151 766H148Q98 766 74 739Q50 712 50 650H30V662Q30 720 58.5 752.5Q87 785 150 785Q205 785 237.5 758Q270 731 270 682V677Q270 663 268 651Q266 639 261 627.5Q256 616 247 604Q238 592 224 577L64 409L102 410ZM652 14Q691 14 721 34Q751 54 751 97V105Q751 148 724 168.5Q697 189 658 189H600V208H656Q694 208 721.5 226.5Q749 245 749 286V290Q749 329 723 352.5Q697 376 652 376H647Q597 376 573.5 349Q550 322 550 260H530V272Q530 330 558.5 362.5Q587 395 650 395Q705 395 737.5 368Q770 341 770 292V285Q770 249 750.5 227.5Q731 206 699 198Q732 190 752 167Q772 144 772 106V98Q772 73 762 54Q752 35 735.5 22Q719 9 697 2Q675 -5 650 -5Q586 -5 556.5 29Q527 63 527 120V125H547Q547 68 573 41Q599 14 647 14Z" glyph-name="uni2154" horiz-adv-x="800" unicode="&#8532;" /><glyph d="M37 390V410H145V752L43 682L32 699L155 782H165V410H272V390ZM100 0 676 780H700L124 0ZM530 169 540 390H767V370H559L552 203Q585 245 650 245Q675 245 697 237.5Q719 230 735.5 214.5Q752 199 762 176Q772 153 772 122V117Q772 87 762 64Q752 41 735.5 25.5Q719 10 697 2.5Q675 -5 650 -5Q586 -5 556.5 29Q527 63 527 120V125H547Q547 68 573 41Q599 14 647 14H652Q691 14 721 38Q751 62 751 115V125Q751 177 721 201.5Q691 226 652 226H647Q616 226 587.5 211Q559 196 547 165Z" glyph-name="uni2155" horiz-adv-x="800" unicode="&#8533;" /><glyph d="M100 0 676 780H700L124 0ZM265 410V390H30V402L205 586Q231 613 240 632.5Q249 652 249 675V680Q249 719 222.5 742.5Q196 766 151 766H148Q98 766 74 739Q50 712 50 650H30V662Q30 720 58.5 752.5Q87 785 150 785Q205 785 237.5 758Q270 731 270 682V677Q270 663 268 651Q266 639 261 627.5Q256 616 247 604Q238 592 224 577L64 409L102 410ZM530 169 540 390H767V370H559L552 203Q585 245 650 245Q675 245 697 237.5Q719 230 735.5 214.5Q752 199 762 176Q772 153 772 122V117Q772 87 762 64Q752 41 735.5 25.5Q719 10 697 2.5Q675 -5 650 -5Q586 -5 556.5 29Q527 63 527 120V125H547Q547 68 573 41Q599 14 647 14H652Q691 14 721 38Q751 62 751 115V125Q751 177 721 201.5Q691 226 652 226H647Q616 226 587.5 211Q559 196 547 165Z" glyph-name="uni2156" horiz-adv-x="800" unicode="&#8534;" /><glyph d="M100 0 676 780H700L124 0ZM152 404Q191 404 221 424Q251 444 251 487V495Q251 538 224 558.5Q197 579 158 579H100V598H156Q194 598 221.5 616.5Q249 635 249 676V680Q249 719 223 742.5Q197 766 152 766H147Q97 766 73.5 739Q50 712 50 650H30V662Q30 720 58.5 752.5Q87 785 150 785Q205 785 237.5 758Q270 731 270 682V675Q270 639 250.5 617.5Q231 596 199 588Q232 580 252 557Q272 534 272 496V488Q272 463 262 444Q252 425 235.5 412Q219 399 197 392Q175 385 150 385Q86 385 56.5 419Q27 453 27 510V515H47Q47 458 73 431Q99 404 147 404ZM767 370H559L552 203Q585 245 650 245Q675 245 697 237.5Q719 230 735.5 214.5Q752 199 762 176Q772 153 772 122V117Q772 87 762 64Q752 41 735.5 25.5Q719 10 697 2.5Q675 -5 650 -5Q586 -5 556.5 29Q527 63 527 120V125H547Q547 68 573 41Q599 14 647 14H652Q691 14 721 38Q751 62 751 115V125Q751 177 721 201.5Q691 226 652 226H647Q616 226 587.5 211Q559 196 547 165L530 169L540 390H767Z" glyph-name="uni2157" horiz-adv-x="800" unicode="&#8535;" /><glyph d="M46 519 95 520H190V744ZM100 0 676 780H700L124 0ZM530 169 540 390H767V370H559L552 203Q585 245 650 245Q675 245 697 237.5Q719 230 735.5 214.5Q752 199 762 176Q772 153 772 122V117Q772 87 762 64Q752 41 735.5 25.5Q719 10 697 2.5Q675 -5 650 -5Q586 -5 556.5 29Q527 63 527 120V125H547Q547 68 573 41Q599 14 647 14H652Q691 14 721 38Q751 62 751 115V125Q751 177 721 201.5Q691 226 652 226H647Q616 226 587.5 211Q559 196 547 165ZM190 390V500H17V512L190 780H210V520H282V500H210V390Z" glyph-name="uni2158" horiz-adv-x="800" unicode="&#8536;" /><glyph d="M37 390V410H145V752L43 682L32 699L155 782H165V410H272V390ZM100 0 676 780H700L124 0ZM653 225Q618 225 591.5 207.5Q565 190 551 162Q550 155 550 148Q550 141 550 135V130Q550 76 579.5 45.5Q609 15 651 15H654Q701 15 727.5 41Q754 67 754 116V124Q754 172 727.5 198.5Q701 225 656 225ZM757 375Q719 375 676 358Q633 341 602 300Q583 276 572 250Q561 224 556 198Q573 219 598 232Q623 245 655 245Q706 245 740.5 215Q775 185 775 122V117Q775 54 740.5 24.5Q706 -5 652 -5Q627 -5 604.5 3.5Q582 12 565.5 29Q549 46 539.5 71.5Q530 97 530 130V135Q530 182 541.5 226.5Q553 271 585 313Q601 334 622 349.5Q643 365 666 375Q689 385 712.5 390Q736 395 757 395Z" glyph-name="uni2159" horiz-adv-x="800" unicode="&#8537;" /><glyph d="M100 0 676 780H700L124 0ZM30 559 40 780H267V760H59L52 593Q85 635 150 635Q175 635 197 627.5Q219 620 235.5 604.5Q252 589 262 566Q272 543 272 512V507Q272 477 262 454Q252 431 235.5 415.5Q219 400 197 392.5Q175 385 150 385Q86 385 56.5 419Q27 453 27 510V515H47Q47 458 73 431Q99 404 147 404H152Q191 404 221 428Q251 452 251 505V515Q251 567 221 591.5Q191 616 152 616H147Q116 616 87.5 601Q59 586 47 555ZM653 225Q618 225 591.5 207.5Q565 190 551 162Q550 155 550 148Q550 141 550 135V130Q550 76 579.5 45.5Q609 15 651 15H654Q701 15 727.5 41Q754 67 754 116V124Q754 172 727.5 198.5Q701 225 656 225ZM757 375Q719 375 676 358Q633 341 602 300Q583 276 572 250Q561 224 556 198Q573 219 598 232Q623 245 655 245Q706 245 740.5 215Q775 185 775 122V117Q775 54 740.5 24.5Q706 -5 652 -5Q627 -5 604.5 3.5Q582 12 565.5 29Q549 46 539.5 71.5Q530 97 530 130V135Q530 182 541.5 226.5Q553 271 585 313Q601 334 622 349.5Q643 365 666 375Q689 385 712.5 390Q736 395 757 395Z" glyph-name="uni215A" horiz-adv-x="800" unicode="&#8538;" /><glyph d="M37 390V410H145V752L43 682L32 699L155 782H165V410H272V390ZM100 0 676 780H700L124 0ZM647 376Q603 376 577 353.5Q551 331 551 291V288Q551 246 578 227Q605 208 644 208H656Q694 208 721.5 227Q749 246 749 288V291Q749 331 723 353.5Q697 376 652 376ZM641 189Q603 189 575.5 167.5Q548 146 548 103V96Q548 75 556.5 59.5Q565 44 578.5 34Q592 24 610 19Q628 14 647 14H652Q691 14 721 33.5Q751 53 751 96V103Q751 146 724 167.5Q697 189 658 189ZM650 -5Q625 -5 602.5 1.5Q580 8 563.5 21Q547 34 537 53Q527 72 527 97V104Q527 142 547 165.5Q567 189 600 198Q568 207 549 229Q530 251 530 287V294Q530 343 562 369Q594 395 650 395Q705 395 737.5 369Q770 343 770 294V287Q770 251 750.5 229Q731 207 699 198Q732 189 752 165.5Q772 142 772 104V97Q772 72 762 53Q752 34 735.5 21Q719 8 697 1.5Q675 -5 650 -5Z" glyph-name="uni215B" horiz-adv-x="800" unicode="&#8539;" /><glyph d="M100 0 676 780H700L124 0ZM152 404Q191 404 221 424Q251 444 251 487V495Q251 538 224 558.5Q197 579 158 579H100V598H156Q194 598 221.5 616.5Q249 635 249 676V680Q249 719 223 742.5Q197 766 152 766H147Q97 766 73.5 739Q50 712 50 650H30V662Q30 720 58.5 752.5Q87 785 150 785Q205 785 237.5 758Q270 731 270 682V675Q270 639 250.5 617.5Q231 596 199 588Q232 580 252 557Q272 534 272 496V488Q272 463 262 444Q252 425 235.5 412Q219 399 197 392Q175 385 150 385Q86 385 56.5 419Q27 453 27 510V515H47Q47 458 73 431Q99 404 147 404ZM647 376Q603 376 577 353.5Q551 331 551 291V288Q551 246 578 227Q605 208 644 208H656Q694 208 721.5 227Q749 246 749 288V291Q749 331 723 353.5Q697 376 652 376ZM641 189Q603 189 575.5 167.5Q548 146 548 103V96Q548 75 556.5 59.5Q565 44 578.5 34Q592 24 610 19Q628 14 647 14H652Q691 14 721 33.5Q751 53 751 96V103Q751 146 724 167.5Q697 189 658 189ZM650 -5Q625 -5 602.5 1.5Q580 8 563.5 21Q547 34 537 53Q527 72 527 97V104Q527 142 547 165.5Q567 189 600 198Q568 207 549 229Q530 251 530 287V294Q530 343 562 369Q594 395 650 395Q705 395 737.5 369Q770 343 770 294V287Q770 251 750.5 229Q731 207 699 198Q732 189 752 165.5Q772 142 772 104V97Q772 72 762 53Q752 34 735.5 21Q719 8 697 1.5Q675 -5 650 -5Z" glyph-name="uni215C" horiz-adv-x="800" unicode="&#8540;" /><glyph d="M100 0 676 780H700L124 0ZM30 559 40 780H267V760H59L52 593Q85 635 150 635Q175 635 197 627.5Q219 620 235.5 604.5Q252 589 262 566Q272 543 272 512V507Q272 477 262 454Q252 431 235.5 415.5Q219 400 197 392.5Q175 385 150 385Q86 385 56.5 419Q27 453 27 510V515H47Q47 458 73 431Q99 404 147 404H152Q191 404 221 428Q251 452 251 505V515Q251 567 221 591.5Q191 616 152 616H147Q116 616 87.5 601Q59 586 47 555ZM647 376Q603 376 577 353.5Q551 331 551 291V288Q551 246 578 227Q605 208 644 208H656Q694 208 721.5 227Q749 246 749 288V291Q749 331 723 353.5Q697 376 652 376ZM641 189Q603 189 575.5 167.5Q548 146 548 103V96Q548 75 556.5 59.5Q565 44 578.5 34Q592 24 610 19Q628 14 647 14H652Q691 14 721 33.5Q751 53 751 96V103Q751 146 724 167.5Q697 189 658 189ZM650 -5Q625 -5 602.5 1.5Q580 8 563.5 21Q547 34 537 53Q527 72 527 97V104Q527 142 547 165.5Q567 189 600 198Q568 207 549 229Q530 251 530 287V294Q530 343 562 369Q594 395 650 395Q705 395 737.5 369Q770 343 770 294V287Q770 251 750.5 229Q731 207 699 198Q732 189 752 165.5Q772 142 772 104V97Q772 72 762 53Q752 34 735.5 21Q719 8 697 1.5Q675 -5 650 -5Z" glyph-name="uni215D" horiz-adv-x="800" unicode="&#8541;" /><glyph d="M32 780H272V767L119 390H97L248 760H52V640H32ZM100 0 676 780H700L124 0ZM647 376Q603 376 577 353.5Q551 331 551 291V288Q551 246 578 227Q605 208 644 208H656Q694 208 721.5 227Q749 246 749 288V291Q749 331 723 353.5Q697 376 652 376ZM641 189Q603 189 575.5 167.5Q548 146 548 103V96Q548 75 556.5 59.5Q565 44 578.5 34Q592 24 610 19Q628 14 647 14H652Q691 14 721 33.5Q751 53 751 96V103Q751 146 724 167.5Q697 189 658 189ZM650 -5Q625 -5 602.5 1.5Q580 8 563.5 21Q547 34 537 53Q527 72 527 97V104Q527 142 547 165.5Q567 189 600 198Q568 207 549 229Q530 251 530 287V294Q530 343 562 369Q594 395 650 395Q705 395 737.5 369Q770 343 770 294V287Q770 251 750.5 229Q731 207 699 198Q732 189 752 165.5Q772 142 772 104V97Q772 72 762 53Q752 34 735.5 21Q719 8 697 1.5Q675 -5 650 -5Z" glyph-name="uni215E" horiz-adv-x="800" unicode="&#8542;" /><glyph d="M37 390V410H145V752L43 682L32 699L155 782H165V410H272V390ZM100 0 676 780H700L124 0Z" glyph-name="uni215F" horiz-adv-x="500" unicode="&#8543;" /><glyph d="M70 0V780H850V760H104L856 8L842 -6L90 746V0Z" glyph-name="uni2196" horiz-adv-x="920" unicode="&#8598;" /></font>
</defs>
</svg>
